<?xml version="1.0" standalone="no"?>
<!DOCTYPE svg PUBLIC "-//W3C//DTD SVG 1.1//EN" "http://www.w3.org/Graphics/SVG/1.1/DTD/svg11.dtd" >
<svg xmlns="http://www.w3.org/2000/svg" xmlns:xlink="http://www.w3.org/1999/xlink" version="1.1">
<metadata>
Created by FontForge 20170731 at Thu Jul 27 12:30:03 2017
 By Aleksey,,,
Copyright c 2017 Hankook Tire Co.,Ltd. all rights reserved. Font designed by Sandoll Communications Inc.
</metadata>
<defs>
<font id="HankookTTFSemiboldOblique" horiz-adv-x="582" >
  <font-face 
    font-family="Hankook TTF Semibold Oblique"
    font-weight="600"
    font-style="oblique"
    font-stretch="normal"
    units-per-em="1000"
    panose-1="2 11 6 0 0 1 1 1 1 1"
    ascent="800"
    descent="-200"
    x-height="552"
    cap-height="750"
    bbox="-186 -301 1518.92 1151"
    underline-thickness="50"
    underline-position="-150"
    unicode-range="U+000D-206F"
  />
<missing-glyph horiz-adv-x="280" 
 />
    <glyph glyph-name=".notdef" horiz-adv-x="280" 
 />
    <glyph glyph-name=".null" horiz-adv-x="0" 
 />
    <glyph glyph-name="nonmarkingreturn" unicode="&#xd;" horiz-adv-x="280" 
 />
    <glyph glyph-name="NULL" horiz-adv-x="0" 
 />
    <glyph glyph-name="NULL" horiz-adv-x="0" 
 />
    <glyph glyph-name="space" unicode=" " horiz-adv-x="260" 
 />
    <glyph glyph-name="exclam" unicode="!" horiz-adv-x="280" 
d="M290 750l-120 -519h-117l82 519h155zM23 144h142l-27 -144h-142z" />
    <glyph glyph-name="quotedbl" unicode="&#x22;" horiz-adv-x="412" 
d="M249 750l-61 -247h-101l34 247h128zM437 750l-61 -247h-101l35 247h127z" />
    <glyph glyph-name="numbersign" unicode="#" horiz-adv-x="712" 
d="M441 197l-78 -197h-101l78 197h-130l-78 -197h-101l78 197h-115l21 106h136l64 161h-115l22 106h135l72 180h102l-72 -180h129l72 180h101l-72 -180h118l-22 -106h-138l-64 -161h117l-21 -106h-138zM253 303h129l64 161h-129z" />
    <glyph glyph-name="dollar" unicode="$" horiz-adv-x="645" 
d="M430 735q51 -2 97 -8.5t73 -15.5l-21 -106q-35 10 -82 14.5t-88 5.5l-38 -191l34 -10q86 -26 120.5 -66t34.5 -92q0 -63 -19 -108.5t-54 -75.5t-85 -46t-112 -20l-17 -87h-65l16 85q-57 1 -116 10t-112 26l22 112q69 -20 124.5 -28.5t103.5 -8.5l38 195l-55 17
q-67 21 -103 60.5t-36 102.5t19.5 107t55 71.5t86.5 41t114 15.5l15 75h65zM226 519q0 -26 20 -39.5t64 -26.5l33 170q-35 -3 -58 -11.5t-36 -21t-18 -30.5t-5 -41zM420 238q0 24 -17 36t-58 26l-33 -171q60 9 84 36.5t24 72.5z" />
    <glyph glyph-name="percent" unicode="%" horiz-adv-x="834" 
d="M50 0l617 736h117l-616 -736h-118zM402 507q-14 -71 -63.5 -106.5t-127.5 -35.5q-83 0 -120 45t-23 117l13 66q15 72 65.5 108t129.5 36q40 0 69.5 -12t47.5 -34t23.5 -52t-1.5 -66zM314 575q8 41 -6 56.5t-46 15.5q-33 0 -53.5 -15.5t-28.5 -56.5l-10 -49q-8 -40 7 -56
t48 -16q32 0 51.5 16t27.5 56zM746 130q-14 -71 -63.5 -106.5t-127.5 -35.5q-83 0 -120 45t-23 117l13 66q15 72 65.5 108t129.5 36q40 0 69.5 -12t47.5 -34t23.5 -52t-1.5 -66zM658 198q8 41 -6 56.5t-46 15.5q-33 0 -53.5 -15.5t-28.5 -56.5l-10 -49q-8 -40 7 -56t48 -16
q32 0 51.5 16t27.5 56z" />
    <glyph glyph-name="ampersand" unicode="&#x26;" horiz-adv-x="684" 
d="M407 632q-34 0 -64.5 -4t-54 -16.5t-37.5 -37t-14 -65.5q0 -67 89 -67h347l-21 -111h-77l-60 -304q-56 -21 -126.5 -29.5t-144.5 -8.5q-61 0 -104.5 13.5t-72 37.5t-42 57.5t-13.5 73.5q0 26 7.5 58.5t24.5 63t44.5 56t68.5 37.5q-20 9 -33 22.5t-20.5 30t-11 34.5
t-3.5 35q0 65 23 110.5t63.5 74t96 41t120.5 12.5q25 0 53.5 -2t55 -5.5t49.5 -8t37 -10.5l-21 -108q-37 10 -79 15t-80 5zM437 331h-133q-24 0 -48.5 -6t-44.5 -22.5t-33 -45.5t-13 -74q0 -38 26.5 -58t94.5 -20q41 0 66 3.5t42 8.5z" />
    <glyph glyph-name="quotesingle" unicode="'" horiz-adv-x="224" 
d="M249 750l-61 -247h-101l34 247h128z" />
    <glyph glyph-name="parenleft" unicode="(" horiz-adv-x="369" 
d="M73 441q10 51 29 105t45.5 105.5t60.5 98t75 81.5h155q-51 -44 -89 -94.5t-66 -104.5t-46 -110.5t-29 -111.5l-29 -147q-11 -54 -14.5 -111t3 -112.5t24.5 -107.5t52 -96h-141q-29 36 -46 91.5t-23 119.5t-2.5 130.5t14.5 125.5z" />
    <glyph glyph-name="parenright" unicode=")" horiz-adv-x="369" 
d="M280 226q-10 -51 -29 -105t-45.5 -105.5t-60.5 -98t-75 -81.5h-155q51 44 89 94.5t65.5 104.5t46 110.5t29.5 111.5l29 147q10 54 14 111t-2.5 112.5t-24.5 107.5t-52 96h141q29 -36 46 -91.5t23 -119.5t2.5 -131t-14.5 -125z" />
    <glyph glyph-name="asterisk" unicode="*" horiz-adv-x="455" 
d="M207 478l-123 -78l-31 89l137 56l-115 56l64 89l92 -79l16 138h106l-40 -138l124 79l30 -89l-138 -56l116 -56l-63 -89l-95 78l-13 -138h-106z" />
    <glyph glyph-name="plus" unicode="+" horiz-adv-x="570" 
d="M392 605l-39 -199h185l-23 -118h-185l-41 -210h-124l41 210h-184l23 118h184l39 199h124z" />
    <glyph glyph-name="comma" unicode="," horiz-adv-x="276" 
d="M28 144h141l-130 -289h-106z" />
    <glyph glyph-name="hyphen" unicode="-" horiz-adv-x="301" 
d="M-3 226l24 129h250l-24 -129h-250z" />
    <glyph glyph-name="period" unicode="." horiz-adv-x="272" 
d="M19 144h143l-27 -144h-143z" />
    <glyph glyph-name="slash" unicode="/" horiz-adv-x="534" 
d="M-86 -164l556 995h135l-557 -995h-134z" />
    <glyph glyph-name="zero" unicode="0" horiz-adv-x="610" 
d="M564 303q-16 -81 -42 -140t-66 -97.5t-94.5 -57t-127.5 -18.5q-142 0 -192.5 84.5t-18.5 244.5l24 123q16 80 42 139t65.5 97.5t93 57.5t124.5 19q143 0 195 -84.5t21 -244.5zM433 426q11 55 13 93.5t-7 62.5t-29.5 34.5t-55.5 10.5q-34 0 -58.5 -10t-43 -33.5t-32 -61
t-23.5 -92.5l-21 -112q-11 -56 -12.5 -94t7.5 -61.5t29.5 -34t53.5 -10.5q35 0 60.5 9.5t43.5 32.5t30.5 60.5t23.5 93.5z" />
    <glyph glyph-name="one" unicode="1" horiz-adv-x="610" 
d="M36 0l21 116h161l91 467l-181 -83l25 134l239 111h99l-123 -629h146l-21 -116h-457z" />
    <glyph glyph-name="two" unicode="2" horiz-adv-x="610" 
d="M-35 0l20 106l335 280q28 24 46.5 40.5t30 31.5t17.5 31.5t11 39.5l4 20q4 22 1.5 37t-15.5 24t-37.5 13t-64.5 4q-48 0 -105.5 -10t-102.5 -26l25 125q21 8 47.5 15t55 12.5t58.5 8.5t57 3q72 0 119.5 -15.5t74 -43.5t33.5 -66.5t-2 -84.5l-5 -25q-7 -33 -15.5 -58
t-23.5 -48t-39.5 -47.5t-63.5 -56.5l-228 -187h313l-23 -123h-523z" />
    <glyph glyph-name="three" unicode="3" horiz-adv-x="610" 
d="M162 322l23 117h96q62 0 97 30t35 97q0 34 -24 49.5t-87 15.5q-45 0 -97 -9t-100 -23l24 122q39 14 98.5 24t120.5 10q115 0 165 -43t50 -114q0 -26 -5.5 -58.5t-22 -64t-45.5 -58.5t-76 -40q54 -12 78.5 -45.5t24.5 -78.5q0 -69 -21.5 -118.5t-63 -82t-101 -47.5
t-134.5 -15q-32 0 -64.5 3t-62.5 8.5t-55 12t-42 14.5l25 123q19 -8 44 -15t53 -12t56.5 -8t54.5 -3q89 0 126.5 36t37.5 103q0 43 -28 56.5t-82 13.5h-98z" />
    <glyph glyph-name="four" unicode="4" horiz-adv-x="610" 
d="M-29 149l22 111l415 485h156l-93 -481h96l-23 -115h-96l-28 -149h-139l28 149h-338zM332 264l59 304l-259 -304h200z" />
    <glyph glyph-name="five" unicode="5" horiz-adv-x="610" 
d="M164 745h432l-23 -122h-299l-36 -163q25 4 43.5 5.5t44.5 1.5q74 0 119.5 -18.5t68.5 -49.5t27.5 -71t-3.5 -82l-11 -56q-20 -100 -97 -150t-217 -50q-35 0 -69.5 3t-65 8.5t-56 12t-41.5 14.5l24 121q41 -16 96 -26t119 -10q73 0 112 26.5t49 75.5l6 30q6 31 1.5 51
t-20 32t-44 16.5t-70.5 4.5q-44 0 -92 -5t-90 -12z" />
    <glyph glyph-name="six" unicode="6" horiz-adv-x="610" 
d="M58 439q19 102 57 164t86.5 95.5t105 45t113.5 11.5q54 0 98.5 -8.5t79.5 -20.5l-24 -121q-14 6 -33.5 11t-41.5 8t-44 5t-41 2q-35 0 -67.5 -6t-61 -26t-51 -59.5t-36.5 -105.5q35 19 74.5 31t83.5 12q121 0 171.5 -57.5t30.5 -162.5l-9 -46q-9 -47 -29.5 -87t-55.5 -70
t-85.5 -47t-118.5 -17q-76 0 -126.5 23t-77 67.5t-30.5 109t12 148.5zM319 360q-71 0 -143 -42q-11 -55 -11.5 -94t10.5 -63.5t34 -35.5t60 -11q38 0 63 9.5t41 25.5t24.5 37.5t13.5 45.5l5 27q11 56 -12.5 78.5t-84.5 22.5z" />
    <glyph glyph-name="seven" unicode="7" horiz-adv-x="610" 
d="M617 635l-414 -635h-166l418 619h-375l24 126h535z" />
    <glyph glyph-name="eight" unicode="8" horiz-adv-x="610" 
d="M-8 156q0 80 43.5 136t122.5 85q-45 19 -63 51t-18 76q0 61 20.5 107.5t58.5 78.5t93.5 48.5t124.5 16.5q116 0 171 -43t55 -118q0 -79 -37 -131t-109 -83q55 -20 75.5 -55t20.5 -79q0 -53 -18.5 -100t-57 -81.5t-97 -54.5t-138.5 -20q-67 0 -114 12.5t-76.5 35t-43 52.5
t-13.5 66zM266 323l-19 -9q-56 -26 -82 -53.5t-26 -77.5q0 -35 26 -54t85 -19q78 0 111.5 32t33.5 89q0 29 -19 50t-70 33zM360 642q-62 0 -97.5 -28t-35.5 -90q0 -29 15.5 -45.5t52.5 -25.5l49 -12l34 15q17 7 31.5 16.5t25 23t16.5 32.5t6 46q0 32 -20.5 50t-76.5 18z" />
    <glyph glyph-name="nine" unicode="9" horiz-adv-x="610" 
d="M551 306q-20 -102 -58 -164t-86.5 -95.5t-105 -45t-113.5 -11.5q-54 0 -97.5 8.5t-78.5 20.5l24 121q14 -6 33.5 -11t40.5 -8t43 -5t41 -2q35 0 67.5 6t61 26t51 59.5t36.5 105.5q-35 -20 -74.5 -31.5t-83.5 -11.5q-121 0 -170.5 57.5t-29.5 162.5l9 46q9 46 29.5 86.5
t55 70.5t84.5 47t118 17q76 0 126.5 -23t77.5 -67.5t31 -109t-12 -148.5zM289 385q35 0 71 10t73 32q21 109 0 156.5t-94 47.5q-38 0 -63 -9.5t-40.5 -25.5t-24 -37.5t-12.5 -45.5l-5 -27q-11 -56 11.5 -78.5t83.5 -22.5z" />
    <glyph glyph-name="colon" unicode=":" horiz-adv-x="274" 
d="M93 522h143l-27 -144h-143zM20 144h143l-27 -144h-143z" />
    <glyph glyph-name="semicolon" unicode=";" horiz-adv-x="274" 
d="M28 144h141l-130 -289h-106zM93 522h143l-27 -144h-143z" />
    <glyph glyph-name="less" unicode="&#x3c;" horiz-adv-x="595" 
d="M209 363l-2 -9l292 -148l-24 -129l-420 232l22 114l511 232l-31 -148z" />
    <glyph glyph-name="equal" unicode="=" horiz-adv-x="587" 
d="M53 407l24 122h492l-24 -122h-492zM8 171l23 122h492l-23 -122h-492z" />
    <glyph glyph-name="greater" unicode="&#x3e;" horiz-adv-x="595" 
d="M382 369l2 9l-292 148l24 129l420 -232l-22 -114l-511 -232l31 148z" />
    <glyph glyph-name="question" unicode="?" horiz-adv-x="494" 
d="M122 225l10 53q6 30 14 51t23.5 39t39.5 35.5t62 40.5q24 15 41.5 26.5t29 26t17 34t5.5 49.5q0 32 -23.5 45.5t-82.5 13.5q-45 0 -91.5 -11t-88.5 -27l22 118q38 16 91 27t107 11q58 0 98 -12t65 -33t35.5 -49.5t10.5 -62.5q0 -61 -15.5 -100t-38 -64.5t-47.5 -41
t-44 -27.5q-31 -20 -50.5 -32.5t-30.5 -23t-16.5 -21.5t-8.5 -27l-7 -38h-127zM99 144h142l-27 -144h-142z" />
    <glyph glyph-name="at" unicode="@" horiz-adv-x="968" 
d="M742 -130q-68 -21 -151.5 -34t-183.5 -13q-116 0 -198 27.5t-130 80t-62 128t5 172.5l25 128q18 94 61.5 164.5t109.5 118t152.5 71.5t190.5 24q108 0 186 -27t125 -78.5t61.5 -126.5t-4.5 -171l-12 -64q-8 -39 -21.5 -79.5t-39 -73.5t-66.5 -54t-103 -21q-37 0 -70 13
t-48 42q-30 -23 -74 -39t-102 -16q-88 0 -125.5 50t-20.5 133l24 123q10 49 28.5 82t44.5 53t58 28t68 8q38 0 72 -10t51 -27l4 18l134 19l-62 -321q-5 -28 4.5 -45.5t38.5 -17.5q42 0 67 37t39 109l13 71q31 155 -43.5 223.5t-244.5 68.5q-73 0 -138.5 -16.5t-118 -52.5
t-89.5 -92.5t-52 -137.5l-23 -123q-32 -158 42.5 -232t256.5 -74q96 0 183 13t156 36zM570 387q-12 11 -34.5 19t-49.5 8q-32 0 -51 -20t-29 -70l-16 -81q-9 -48 0 -70t40 -22q26 0 50 6.5t49 23.5z" />
    <glyph glyph-name="A" unicode="A" horiz-adv-x="704" 
d="M504 750l120 -750h-158l-24 180h-252l-92 -180h-162l401 750h167zM252 309h177l-20 173q-4 35 -5 64t-3 69q-16 -40 -29 -69t-31 -64z" />
    <glyph glyph-name="B" unicode="B" horiz-adv-x="656" 
d="M139 750h285q54 0 96 -10t69 -31t37.5 -55t1.5 -82l-10 -50q-9 -44 -35 -82.5t-84 -56.5q60 -14 80 -52t10 -87l-16 -78q-10 -54 -31 -86.5t-56 -50.5t-86 -23.5t-120 -5.5h-286zM207 333l-43 -217h118q39 0 64.5 4t42 14.5t25.5 27.5t14 44l7 35q10 51 -11 71.5
t-89 20.5h-128zM265 634l-37 -193h123q22 0 41 3t33.5 12.5t25 27t15.5 45.5l6 30q9 46 -12 60.5t-81 14.5h-114z" />
    <glyph glyph-name="C" unicode="C" horiz-adv-x="611" 
d="M612 608q-33 9 -78.5 13.5t-93.5 4.5q-54 0 -93.5 -10t-66.5 -32t-43.5 -57t-26.5 -85l-25 -127q-10 -53 -8 -89t20 -59t53 -33t90 -10q42 0 92.5 5t99.5 19l-25 -127q-23 -9 -49.5 -15t-54 -9.5t-54.5 -5t-51 -1.5q-87 0 -145 19.5t-89.5 61t-37.5 105t12 152.5l23 118
q18 94 50 154.5t79 96t111 49.5t146 14q53 0 105.5 -6t84.5 -19z" />
    <glyph glyph-name="D" unicode="D" horiz-adv-x="712" 
d="M-6 0l145 750h288q84 0 139 -19.5t84.5 -60t35 -101.5t-10.5 -145l-31 -156q-16 -80 -43.5 -132t-71 -82t-105.5 -42t-146 -12h-284zM263 621l-96 -492h124q55 0 92 11.5t60.5 33.5t37 55t21.5 76l28 139q8 41 7.5 74t-15.5 56t-46 35t-85 12h-128z" />
    <glyph glyph-name="E" unicode="E" horiz-adv-x="598" 
d="M617 750l-24 -125h-329l-35 -179h298l-24 -124h-298l-39 -197h344l-23 -125h-493l145 750h478z" />
    <glyph glyph-name="F" unicode="F" horiz-adv-x="578" 
d="M609 750l-25 -130h-321l-39 -200h290l-26 -130h-290l-55 -290h-149l145 750h470z" />
    <glyph glyph-name="G" unicode="G" horiz-adv-x="677" 
d="M621 611q-32 9 -83.5 14t-98.5 5q-59 0 -98.5 -12t-65 -35.5t-40.5 -58t-24 -80.5l-26 -132q-9 -45 -8.5 -80.5t17.5 -60t54 -37.5t101 -13q20 0 43 1.5t47 6.5l34 176h-127l23 117h269l-77 -398q-55 -19 -123 -26.5t-130 -7.5q-175 0 -240.5 80.5t-30.5 257.5l22 117
q19 94 51 155t79.5 96.5t111.5 49.5t146 14q25 0 53 -1.5t54.5 -4.5t50 -7.5t41.5 -11.5z" />
    <glyph glyph-name="H" unicode="H" horiz-adv-x="717" 
d="M724 750l-145 -750h-150l61 317h-286l-61 -317h-149l145 750h149l-57 -295h286l57 295h150z" />
    <glyph glyph-name="I" unicode="I" horiz-adv-x="281" 
d="M143 0h-149l145 750h149z" />
    <glyph glyph-name="J" unicode="J" horiz-adv-x="436" 
d="M445 750l-105 -541q-11 -53 -26 -93.5t-41.5 -68.5t-67.5 -42.5t-104 -14.5q-15 0 -34 1.5t-39.5 4.5t-39 8t-31.5 12l26 130q27 -11 55.5 -16t51.5 -5q48 0 70.5 21t33.5 77l102 527h149z" />
    <glyph glyph-name="K" unicode="K" horiz-adv-x="698" 
d="M418 380l193 -380h-169l-151 316h-87l-61 -316h-149l145 750h149l-60 -309h76l248 309h176z" />
    <glyph glyph-name="L" unicode="L" horiz-adv-x="567" 
d="M288 750l-120 -616h333l-25 -134h-482l145 750h149z" />
    <glyph glyph-name="M" unicode="M" horiz-adv-x="864" 
d="M726 0h-135l95 493q5 29 13.5 61t18.5 64q-15 -41 -29.5 -80t-24.5 -60l-220 -478h-160l-43 484q-2 20 -2.5 56t0.5 74q-3 -35 -6.5 -61t-9.5 -56l-96 -497h-133l145 750h195l47 -522q2 -23 4 -49t0 -52q10 25 20 51t22 49l241 523h203z" />
    <glyph glyph-name="N" unicode="N" horiz-adv-x="708" 
d="M570 0h-155l-160 457q-6 17 -11.5 36t-10.5 46l-104 -539h-135l145 750h154l162 -475q6 -18 9.5 -31.5t9.5 -38.5l106 545h135z" />
    <glyph glyph-name="O" unicode="O" horiz-adv-x="735" 
d="M676 293q-32 -162 -128 -234t-253 -72q-80 0 -136.5 24t-89 69t-41 110t8.5 147l24 120q16 81 49 138.5t81.5 95t112 55t139.5 17.5q77 0 133 -24t89 -69t42 -110t-7 -147zM551 426q21 110 -13 158.5t-120 48.5q-88 0 -140.5 -48t-73.5 -159l-20 -102q-22 -111 12 -159
t121 -48q86 0 139 48t75 159z" />
    <glyph glyph-name="P" unicode="P" horiz-adv-x="647" 
d="M139 750h287q59 0 104 -10.5t73 -35.5t37 -67t-3 -104l-14 -71q-11 -58 -33.5 -93.5t-59 -54.5t-88 -25t-120.5 -6h-124l-55 -283h-149zM265 635l-45 -239h103q40 0 67.5 4t45.5 14.5t28.5 29t16.5 47.5l11 55q9 49 -16 69t-91 20h-120z" />
    <glyph glyph-name="Q" unicode="Q" horiz-adv-x="734" 
d="M675 293q-18 -91 -56 -152.5t-95 -97.5l66 -146h-151l-44 98q-24 -4 -49 -6t-52 -2q-78 0 -134.5 24t-89.5 69t-42 110t8 147l24 120q16 81 49 138.5t81.5 95t112 55t139.5 17.5q77 0 133 -24t89 -69t42 -110t-7 -147zM428 256l36 -82q23 26 39.5 62.5t26.5 87.5l20 102
q21 110 -13 158.5t-120 48.5q-88 0 -140.5 -48t-73.5 -159l-20 -102q-22 -111 12 -159t121 -48h12t12 1l-62 138h150z" />
    <glyph glyph-name="R" unicode="R" horiz-adv-x="664" 
d="M139 750h291q59 0 104 -10.5t72.5 -35.5t37 -66.5t-2.5 -102.5l-12 -61q-14 -74 -47.5 -109t-89.5 -52l83 -313h-154l-75 293h-147l-56 -293h-149zM265 635l-44 -230h106q40 0 67.5 4t46 14.5t29 29.5t16.5 48l9 46q9 48 -16 68t-91 20h-123z" />
    <glyph glyph-name="S" unicode="S" horiz-adv-x="600" 
d="M543 266q0 -141 -80.5 -208.5t-233.5 -67.5q-27 0 -59.5 2t-66 6t-66.5 11t-60 17l25 126q66 -23 122.5 -30t97.5 -7q46 0 77.5 7.5t50 22t26.5 36.5t8 51q0 13 -4 23t-15.5 19t-32 17.5t-53.5 17.5l-74 21q-64 18 -97.5 59t-33.5 114q0 131 80.5 194t228.5 63
q29 0 59 -1.5t57.5 -5t51 -8t40.5 -10.5l-23 -117q-37 11 -85 15.5t-90 4.5q-47 0 -79 -6.5t-51 -20t-27 -34.5t-8 -49q0 -32 23.5 -45.5t71.5 -27.5l73 -21q80 -23 113.5 -65.5t33.5 -102.5z" />
    <glyph glyph-name="T" unicode="T" horiz-adv-x="623" 
d="M66 616l26 134h584l-26 -134h-217l-119 -616h-149l119 616h-218z" />
    <glyph glyph-name="U" unicode="U" horiz-adv-x="729" 
d="M283 750l-86 -440q-10 -53 -7.5 -88t17.5 -56t42.5 -29.5t68.5 -8.5q42 0 73 8.5t53.5 29.5t37.5 56t25 88l86 440h149l-92 -473q-15 -76 -41.5 -131t-67 -90t-97.5 -52t-132 -17q-157 0 -227.5 75.5t-39.5 233.5l88 454h150z" />
    <glyph glyph-name="V" unicode="V" horiz-adv-x="675" 
d="M227 750l55 -446q5 -38 7.5 -73.5t1.5 -85.5q9 25 17.5 46t17 40t17.5 36.5t19 36.5l231 446h159l-400 -750h-167l-115 750h157z" />
    <glyph glyph-name="W" unicode="W" horiz-adv-x="955" 
d="M511 416q-1 31 1 77.5t6 92.5q-16 -46 -33 -92.5t-30 -77.5l-173 -416h-175l-32 750h151l5 -425q1 -37 0 -78t-4 -87q17 46 33.5 87t31.5 78l175 425h160l18 -425q2 -36 0.5 -76t-3.5 -83q15 43 28.5 83t29.5 76l176 425h150l-334 -750h-166z" />
    <glyph glyph-name="X" unicode="X" horiz-adv-x="698" 
d="M374 184q-12 31 -19.5 56.5t-15.5 60.5q-17 -29 -38.5 -60.5t-40.5 -56.5l-138 -184h-180l306 388l-146 362h167l59 -164q10 -27 18.5 -56.5t19.5 -68.5q20 35 41 66.5t43 60.5l121 162h175l-289 -367l155 -383h-168z" />
    <glyph glyph-name="Y" unicode="Y" horiz-adv-x="640" 
d="M380 296l-56 -296h-149l56 294l-154 456h154l59 -205q10 -35 18 -67t16 -73q21 43 40 75.5t41 64.5l139 205h165z" />
    <glyph glyph-name="Z" unicode="Z" horiz-adv-x="611" 
d="M218 198q-16 -17 -33 -34.5t-36 -34.5h389l-24 -129h-563l22 120l401 433q15 16 33 34t37 35h-357l24 128h536l-23 -119z" />
    <glyph glyph-name="bracketleft" unicode="[" horiz-adv-x="421" 
d="M167 831h324l-23 -116h-184l-149 -763h184l-22 -116h-324z" />
    <glyph glyph-name="backslash" unicode="\" horiz-adv-x="534" 
d="M279 -164l-169 995h129l169 -995h-129z" />
    <glyph glyph-name="bracketright" unicode="]" horiz-adv-x="421" 
d="M238 -164h-323l21 116h184l149 763h-184l23 116h324z" />
    <glyph glyph-name="asciicircum" unicode="^" horiz-adv-x="558" 
d="M298 747h107l125 -305h-125l-67 166h-7l-136 -166h-141z" />
    <glyph glyph-name="underscore" unicode="_" horiz-adv-x="426" 
d="M-77 -28h425l-23 -116h-425z" />
    <glyph glyph-name="grave" unicode="`" horiz-adv-x="581" 
d="M448 613h-131l-101 138h156z" />
    <glyph glyph-name="a" unicode="a" horiz-adv-x="542" 
d="M416 0h-111l-4 48q-30 -21 -73 -39.5t-105 -18.5q-77 0 -112 46t-21 127l5 29q7 43 26.5 71.5t52 45.5t79.5 24.5t109 7.5h79l5 29q4 25 4 42t-8 27t-25 14t-45 4q-16 0 -36.5 -2t-43 -6t-45.5 -9.5t-44 -12.5l21 108q19 7 43 12.5t49.5 9.5t50.5 6.5t46 2.5
q67 0 105 -18.5t55 -49.5t17.5 -70t-7.5 -79zM321 244h-70q-58 0 -85 -14.5t-33 -55.5l-2 -13q-5 -35 6 -48.5t41 -13.5q28 0 60.5 9.5t61.5 26.5z" />
    <glyph glyph-name="b" unicode="b" horiz-adv-x="608" 
d="M414 566q48 0 79 -16.5t48.5 -44t21 -64.5t-4.5 -78l-34 -175q-12 -60 -35 -98t-55 -60.5t-71.5 -31t-83.5 -8.5q-37 0 -79.5 11t-76.5 40l-15 -41h-118l145 744l151 30l-50 -256q37 20 83.5 34t94.5 14zM162 141q24 -19 52.5 -25t48.5 -6q59 0 85 27.5t37 86.5l23 121
q10 52 -2.5 76t-59.5 24q-32 0 -68 -12t-65 -29z" />
    <glyph glyph-name="c" unicode="c" horiz-adv-x="511" 
d="M475 433q-22 8 -57.5 13t-74.5 5q-42 0 -71 -9t-48.5 -27t-31 -44.5t-18.5 -60.5l-13 -68q-7 -36 -5.5 -62t14.5 -42.5t39 -24.5t68 -8q30 0 69 5t78 19l-23 -117q-18 -6 -39.5 -10.5t-44 -7.5t-44.5 -4.5t-40 -1.5q-135 0 -186.5 69t-25.5 200l13 66q13 69 39.5 115.5
t65 75t90 40.5t115.5 12q41 0 83.5 -5.5t68.5 -17.5z" />
    <glyph glyph-name="d" unicode="d" horiz-adv-x="614" 
d="M159 -10q-49 0 -81 17.5t-49 46.5t-20 66.5t5 78.5l32 160q12 59 34.5 99t55 64t74.5 34t92 10q36 0 70.5 -7t60.5 -21l41 206l150 30l-150 -774h-119l-5 47q-40 -27 -85.5 -42t-105.5 -15zM411 426q-17 14 -44.5 20.5t-50.5 6.5q-52 0 -84 -24t-45 -91l-26 -134
q-9 -46 4 -71.5t56 -25.5q30 0 65.5 9t70.5 30z" />
    <glyph glyph-name="e" unicode="e" horiz-adv-x="572" 
d="M503 225h-347l-2 -11q-13 -64 15 -90t106 -26q32 0 77 5t85 19l-20 -107q-37 -14 -86 -20t-91 -6q-270 0 -219 265l13 67q13 69 40 116t63.5 75.5t81.5 41t96 12.5q55 0 98.5 -15t71 -48t36.5 -86t-6 -129zM384 320l4 19q9 52 -8.5 84.5t-73.5 32.5q-57 0 -88.5 -32.5
t-41.5 -85.5l-3 -18h211z" />
    <glyph glyph-name="f" unicode="f" horiz-adv-x="407" 
d="M284 552h135l-22 -112h-135l-85 -440h-145l85 440h-88l22 112h88l15 77q7 35 21 62.5t37 46t57.5 28.5t81.5 10q34 0 67 -4.5t50 -9.5l-19 -100q-16 3 -33.5 5t-35.5 2q-23 0 -38 -4t-25 -12t-15 -22t-9 -33z" />
    <glyph glyph-name="g" unicode="g" horiz-adv-x="612" 
d="M156 -6q-47 0 -78 15.5t-48 42t-21 62t4 76.5l33 166q12 59 34 99.5t54.5 65t74 35t91.5 10.5q19 0 40.5 -2.5t42.5 -7.5t40.5 -13.5t34.5 -21.5l15 31h109l-109 -559q-10 -52 -28 -92t-50 -67.5t-81.5 -42t-121.5 -14.5q-41 0 -84 4.5t-74 13.5l21 108q33 -8 66.5 -11.5
t71.5 -3.5q66 0 97.5 23.5t42.5 77.5l11 57q-39 -25 -83.5 -38.5t-104.5 -13.5zM412 426q-17 14 -42.5 20.5t-48.5 6.5q-52 0 -86 -24t-47 -91l-25 -130q-9 -46 4 -71.5t56 -25.5q30 0 65 9t70 30z" />
    <glyph glyph-name="h" unicode="h" horiz-adv-x="596" 
d="M463 0h-146l69 359q8 40 1 60t-45 20q-29 0 -63 -10t-66 -27l-77 -402h-146l145 744l151 30l-50 -255q38 21 85 34t85 13q45 0 73.5 -15t43.5 -41t17.5 -60t-4.5 -71z" />
    <glyph glyph-name="i" unicode="i" horiz-adv-x="276" 
d="M136 0h-146l107 552h146zM258 633h-146l28 141h146z" />
    <glyph glyph-name="j" unicode="j" horiz-adv-x="295" 
d="M262 552l-118 -601q-10 -52 -25.5 -85.5t-39 -53t-55.5 -27.5t-76 -8q-31 0 -63.5 3t-56.5 10l23 118q20 -4 37.5 -5.5t35.5 -1.5q19 0 32 2.5t22 10.5t14.5 23t10.5 39l113 576h146zM277 633h-146l28 141h146z" />
    <glyph glyph-name="k" unicode="k" horiz-adv-x="573" 
d="M285 774l-81 -416h49l175 194h170l-234 -257l133 -295h-160l-96 236h-61l-45 -236h-145l145 744z" />
    <glyph glyph-name="l" unicode="l" horiz-adv-x="276" 
d="M-10 0l145 744l151 30l-150 -774h-146z" />
    <glyph glyph-name="m" unicode="m" horiz-adv-x="883" 
d="M750 0h-145l69 360q8 40 1 59t-43 19q-23 0 -53.5 -10t-59.5 -27l-1 2q-1 -8 -1.5 -15t-2.5 -15l-72 -373h-144l69 358q8 40 1.5 60t-43.5 20q-24 0 -53.5 -10t-58.5 -27l-78 -401h-145l107 552h114l1 -45q91 59 175 59q48 0 76.5 -17t42.5 -46q50 32 98 47.5t89 15.5
q47 0 76 -16t43 -43t15.5 -62t-5.5 -72z" />
    <glyph glyph-name="n" unicode="n" horiz-adv-x="596" 
d="M463 0h-146l69 359q4 20 4.5 35t-4 25t-15 15t-29.5 5q-28 0 -62 -9.5t-66 -29.5l-78 -400h-146l107 552h114l1 -45q46 28 99 43.5t94 15.5q48 0 77 -16t43 -43t15.5 -62t-5.5 -72z" />
    <glyph glyph-name="o" unicode="o" horiz-adv-x="589" 
d="M516 224q-24 -124 -97.5 -180t-198.5 -56q-63 0 -106.5 19t-68.5 54.5t-31 85t6 111.5l15 76q23 118 97 175t196 57q63 0 107 -19t69.5 -53.5t32 -84t-5.5 -109.5zM388 308q15 79 -6 111t-72 32q-52 0 -86 -32t-49 -111l-12 -62q-16 -79 6 -110.5t74 -31.5q51 0 84 31.5
t49 110.5z" />
    <glyph glyph-name="p" unicode="p" horiz-adv-x="605" 
d="M-57 -216l150 768h114l5 -43q51 31 101.5 44t96.5 13q47 0 78.5 -15.5t49 -42.5t21.5 -63t-4 -76l-34 -176q-11 -59 -34 -98t-56 -62.5t-75 -33.5t-91 -10q-32 0 -66 5t-66 16l-44 -226h-146zM154 121q21 -8 47 -12t48 -4q33 0 56 8t38 24t24.5 40.5t15.5 58.5l21 108
q10 52 -2.5 76.5t-59.5 24.5q-33 0 -68.5 -12.5t-64.5 -28.5z" />
    <glyph glyph-name="q" unicode="q" horiz-adv-x="611" 
d="M165 -10q-49 0 -82 16t-51.5 44t-22.5 64.5t4 77.5l33 170q12 59 34.5 98.5t55 63t72.5 33t87 9.5q49 0 90 -12.5t65 -36.5l19 35h112l-150 -768h-145l48 245q-34 -19 -75.5 -29t-93.5 -10zM409 417q-15 17 -43.5 26.5t-56.5 9.5q-22 0 -41.5 -5.5t-35.5 -18.5t-27.5 -35
t-17.5 -56l-26 -134q-11 -52 3.5 -74.5t60.5 -22.5q65 0 129 26z" />
    <glyph glyph-name="r" unicode="r" horiz-adv-x="416" 
d="M389 429q-51 -3 -100 -18.5t-82 -38.5l-72 -372h-145l107 552h113l-3 -71q15 13 37.5 27.5t50 26.5t58.5 20.5t63 10.5z" />
    <glyph glyph-name="s" unicode="s" horiz-adv-x="471" 
d="M412 199q0 -105 -63.5 -157t-185.5 -52q-20 0 -45 1.5t-51.5 5t-52.5 9.5t-48 15l22 111q60 -20 104.5 -25t76.5 -5q61 0 82.5 17.5t21.5 56.5q0 17 -13 24.5t-50 16.5l-52 13q-66 17 -93 55t-27 84q0 105 62 151t189 46q50 0 89.5 -6t62.5 -14l-21 -107
q-27 8 -64.5 13.5t-69.5 5.5q-65 0 -89.5 -14.5t-24.5 -51.5q0 -17 15 -25t53 -19l52 -14q36 -10 59 -24t36.5 -31.5t19 -37.5t5.5 -42z" />
    <glyph glyph-name="t" unicode="t" horiz-adv-x="419" 
d="M397 442h-143l-52 -266q-8 -39 0.5 -54.5t40.5 -15.5q23 0 47.5 4t44.5 14l-21 -110q-29 -13 -64.5 -18.5t-75.5 -5.5t-66.5 12t-41 33.5t-17.5 52t4 67.5l56 287h-87l22 110h87l22 115l151 33l-28 -148h143z" />
    <glyph glyph-name="u" unicode="u" horiz-adv-x="593" 
d="M93 552h146l-70 -357q-8 -40 -1 -60.5t44 -20.5q28 0 61.5 10t65.5 30l78 398h146l-107 -552h-114l-3 46q-92 -57 -189 -57q-48 0 -77 16t-43 42.5t-15.5 61t5.5 72.5z" />
    <glyph glyph-name="v" unicode="v" horiz-adv-x="539" 
d="M281 0h-170l-68 552h145l25 -327q2 -24 3.5 -45.5t2.5 -53.5q13 31 23.5 53.5t21.5 45.5l151 327h151z" />
    <glyph glyph-name="w" unicode="w" horiz-adv-x="832" 
d="M186 552l20 -308q2 -21 1 -44t-3 -50h2q8 28 16.5 50.5t18.5 43.5l142 308h138l20 -308q2 -20 2 -43.5t-2 -50.5h1q18 53 35 94l146 308h128l-262 -552h-146l-23 299q-2 24 1 53.5t5 59.5h-1q-8 -30 -17.5 -59.5t-20.5 -53.5l-138 -299h-144l-53 552h134z" />
    <glyph glyph-name="x" unicode="x" horiz-adv-x="563" 
d="M210 552l35 -87q9 -23 18 -47.5t17 -53.5q18 26 35.5 51.5t34.5 48.5l66 88h157l-220 -270l125 -282h-153l-44 103q-9 22 -16 44.5t-13 45.5q-31 -48 -67 -93l-80 -100h-160l234 279l-122 273h153z" />
    <glyph glyph-name="y" unicode="y" horiz-adv-x="562" 
d="M589 552l-418 -765h-152l116 214l-91 551h142l39 -310q3 -23 5 -50t3 -68q16 42 30 71t22 46l156 311h148z" />
    <glyph glyph-name="z" unicode="z" horiz-adv-x="495" 
d="M475 457l-253 -278q-16 -17 -33 -34t-39 -37h269l-20 -108h-443l18 95l252 277q15 17 33.5 36t36.5 36h-243l21 108h419z" />
    <glyph glyph-name="braceleft" unicode="{" horiz-adv-x="456" 
d="M35 406q102 0 117 77l37 185q16 81 64 122t139 41h135l-23 -116h-95q-37 0 -57.5 -15t-28.5 -53l-32 -165q-4 -20 -12 -41.5t-22 -40t-34.5 -33t-49.5 -20.5q27 -6 42 -20.5t21.5 -33t6.5 -40t-4 -41.5l-38 -192q-8 -38 7 -53t52 -15h95l-22 -116h-127q-46 0 -77 14
t-48.5 38.5t-22 58.5t3.5 75l37 189q15 77 -87 77z" />
    <glyph glyph-name="bar" unicode="|" horiz-adv-x="316" 
d="M113 -164h-120l194 995h120z" />
    <glyph glyph-name="braceright" unicode="}" horiz-adv-x="456" 
d="M410 288q-102 0 -117 -77l-42 -214q-16 -81 -62 -121t-136 -40h-140l21 116h96q37 0 58 15t29 53l38 192q4 20 12 41.5t21.5 40t33.5 33t48 20.5q-26 6 -40.5 20.5t-21 33t-6 40t4.5 41.5l32 165q8 38 -7.5 53t-52.5 15h-96l23 116h115q97 0 136.5 -46.5t22.5 -129.5
l-34 -172q-15 -77 87 -77z" />
    <glyph glyph-name="asciitilde" unicode="~" horiz-adv-x="569" 
d="M356 249q-33 0 -54 10t-37 21.5t-30 21.5t-34 10q-26 0 -41 -19.5t-25 -46.5h-126q11 34 26.5 68t37.5 61.5t53 44.5t74 17q33 0 55 -10t38.5 -21.5t31 -21.5t34.5 -10q29 0 43 19t22 47h124q-8 -33 -21.5 -67t-36 -61.5t-55.5 -45t-79 -17.5z" />
    <glyph glyph-name="uni00A0" unicode="&#xa0;" horiz-adv-x="0" 
 />
    <glyph glyph-name="exclamdown" unicode="&#xa1;" horiz-adv-x="280" 
d="M-42 -165l120 519h117l-82 -519h-155zM225 441h-142l27 144h142z" />
    <glyph glyph-name="cent" unicode="&#xa2;" horiz-adv-x="505" 
d="M279 0h-80l17 92q-124 9 -167.5 79t-18.5 193l13 68q12 63 37.5 107.5t62 72.5t83.5 41t102 14l16 83h80l-16 -83q30 -3 57.5 -8.5t46.5 -13.5l-20 -103q-18 6 -45.5 10t-59.5 6l-69 -355q27 2 59 7.5t64 16.5l-22 -108q-24 -11 -57.5 -17t-65.5 -8zM161 345
q-12 -62 4 -96t73 -42l68 348q-59 -10 -88.5 -42t-42.5 -98z" />
    <glyph glyph-name="sterling" unicode="&#xa3;" horiz-adv-x="566" 
d="M51 423h70l13 64q14 70 37.5 121.5t60.5 86t90 51.5t126 17q24 0 55.5 -4t57.5 -13l-24 -126q-16 8 -43.5 11.5t-57.5 3.5q-31 0 -56 -6.5t-44.5 -23t-33.5 -44t-22 -69.5l-14 -69h201l-18 -98h-201q-7 -36 -14 -64t-16.5 -51t-23 -42t-34.5 -37h335l-24 -131h-509l19 99
q26 17 43.5 35.5t30.5 42t22.5 54t19.5 70.5l6 24h-70z" />
    <glyph glyph-name="currency" unicode="&#xa4;" horiz-adv-x="710" 
d="M555 502q18 -29 28 -63.5t10 -73.5t-10 -74t-29 -64l86 -85l-76 -76l-87 87q-54 -31 -122 -31t-122 31l-87 -87l-76 76l86 86q-18 29 -28 63.5t-10 73.5q0 77 37 136l-85 86l76 76l87 -88q26 15 56.5 23.5t65.5 8.5q68 0 122 -31l87 87l76 -76zM355 225q60 0 95 39.5
t35 100.5q0 62 -35 100.5t-95 38.5t-94.5 -38.5t-34.5 -100.5q0 -61 34.5 -100.5t94.5 -39.5z" />
    <glyph glyph-name="yen" unicode="&#xa5;" horiz-adv-x="643" 
d="M357 166l-32 -166h-148l32 166h-179l18 97h179l6 32l-3 35h-168l18 97h116l-109 323h148l58 -204q8 -32 17 -67.5t15 -74.5q20 39 43 75t43 67l135 204h156l-235 -323h117l-18 -97h-167l-18 -34l-6 -33h177l-18 -97h-177z" />
    <glyph glyph-name="brokenbar" unicode="&#xa6;" horiz-adv-x="317" 
d="M187 216l-74 -380h-119l74 380h119zM114 451l74 380h119l-74 -380h-119z" />
    <glyph glyph-name="section" unicode="&#xa7;" horiz-adv-x="546" 
d="M28 267q0 63 32 112t95 79q-12 15 -18.5 38t-6.5 43q0 100 62 150.5t187 50.5q49 0 90.5 -6.5t64.5 -14.5l-20 -104q-27 8 -65.5 14t-75.5 6q-66 0 -89 -21t-23 -59q0 -21 15 -32.5t53 -22.5l33 -10q78 -24 108.5 -60.5t30.5 -83.5q0 -26 -6.5 -53t-21.5 -52t-39 -47.5
t-58 -38.5q11 -16 17 -36t6 -47q0 -97 -61 -147t-189 -50q-49 0 -89.5 6t-64.5 14l22 105q27 -9 64 -14.5t75 -5.5q66 0 89.5 21t23.5 59q0 12 -5 20.5t-17 15t-31.5 12.5t-47.5 15l-39 12q-58 18 -79.5 54.5t-21.5 77.5zM278 219q38 8 64.5 35t26.5 69q0 18 -14 32t-56 25
l-49 13q-27 -5 -44.5 -16.5t-27.5 -25.5t-14 -30t-4 -31q0 -20 14 -32t55 -24z" />
    <glyph glyph-name="dieresis" unicode="&#xa8;" 
d="M215 730h105l-23 -118h-105zM401 730h105l-23 -118h-105z" />
    <glyph glyph-name="copyright" unicode="&#xa9;" horiz-adv-x="840" 
d="M419 27q66 0 121.5 23t95.5 63.5t62.5 97t22.5 124.5t-22.5 124.5t-63 97t-95.5 63t-121 22.5q-65 0 -120 -22.5t-95 -63t-62.5 -97t-22.5 -124.5t22.5 -124.5t62.5 -97t95 -63.5t120 -23zM419 -37q-81 0 -149 29.5t-117 80t-76 118t-27 144.5t27 144.5t76 118t117 79.5
t149 29q82 0 150.5 -29t117.5 -79.5t76 -118t27 -144.5t-27 -144.5t-76 -118t-117.5 -80t-150.5 -29.5zM564 442q-17 5 -44 9.5t-59 4.5q-56 0 -77 -24t-21 -74v-49q0 -26 5 -44t16 -29t30 -16t48 -5q25 0 52.5 3.5t56.5 14.5v-90q-12 -6 -28 -10t-33 -6.5t-33.5 -3.5
t-29.5 -1q-100 0 -150 44t-50 142v46q0 101 52.5 146.5t146.5 45.5q32 0 64 -4.5t54 -13.5v-86z" />
    <glyph glyph-name="ordfeminine" unicode="&#xaa;" horiz-adv-x="457" 
d="M403 289h-102l-3 40q-27 -18 -63 -33.5t-87 -15.5q-65 0 -97 37t-18 110l5 25q8 40 25.5 66t46 41t67.5 20.5t91 5.5h66l4 20q8 40 -3.5 54t-56.5 14q-13 0 -30.5 -1.5t-37 -5t-40 -9t-39.5 -12.5l20 105q42 12 83.5 18t79.5 6q55 0 87.5 -15.5t48 -42t17 -61t-5.5 -72.5
zM317 496h-55q-45 0 -67.5 -9.5t-30.5 -45.5l-2 -11q-5 -28 6 -39.5t34 -11.5q9 0 21.5 1.5t26 4.5t26.5 8t23 12z" />
    <glyph glyph-name="guillemotleft" unicode="&#xab;" horiz-adv-x="576" 
d="M7 245l11 60l201 194h130l-228 -227l-1 -5l141 -219h-124zM227 245l11 60l198 194h131l-226 -227l-1 -5l139 -219h-125z" />
    <glyph glyph-name="logicalnot" unicode="&#xac;" 
d="M57 394h467l-55 -282h-98l36 189h-369z" />
    <glyph glyph-name="uni00AD" unicode="&#xad;" horiz-adv-x="808" 
 />
    <glyph glyph-name="registered" unicode="&#xae;" horiz-adv-x="629" 
d="M314 230q45 0 82.5 16t64.5 44t42 66.5t15 83.5q0 46 -15.5 84t-42.5 66t-64.5 43.5t-81.5 15.5t-81 -15.5t-64 -43.5t-42 -66t-15 -84q0 -45 15 -83.5t42 -66.5t64 -44t81 -16zM313 173q-59 0 -107.5 21t-83 57.5t-54 85t-19.5 103.5t19.5 103.5t54 85t83 57.5t107.5 21
q60 0 109 -21t84 -57.5t54.5 -85t19.5 -103.5t-19.5 -103.5t-55 -85t-84.5 -57.5t-108 -21zM213 584h108q23 0 42.5 -3.5t34 -12t22.5 -23t8 -37.5v-21q0 -56 -43 -74l57 -113h-75l-47 101h-38v-101h-69v284zM282 533v-79h27q26 0 37 6.5t11 27.5v13q0 19 -9.5 25.5
t-31.5 6.5h-34z" />
    <glyph glyph-name="macron" unicode="&#xaf;" 
d="M214 729h291l-19 -98h-291z" />
    <glyph glyph-name="degree" unicode="&#xb0;" horiz-adv-x="401" 
d="M225 501q18 0 34 7t28 19.5t19 29.5t7 38q0 26 -15.5 40.5t-43.5 14.5q-18 0 -34 -7t-28 -19.5t-19 -29.5t-7 -38q0 -26 15.5 -40.5t43.5 -14.5zM209 420q-32 0 -56 10t-40 27.5t-24.5 41t-8.5 49.5q0 36 14 69t39 58.5t60 40.5t77 15q31 0 55.5 -10t40.5 -27.5t24.5 -41
t8.5 -49.5q0 -36 -14 -69t-39 -58.5t-60 -40.5t-77 -15z" />
    <glyph glyph-name="plusminus" unicode="&#xb1;" horiz-adv-x="568" 
d="M389 605l-35 -181h185l-23 -117h-185l-35 -178h185l-23 -117h-493l23 117h184l35 178h-184l23 117h184l35 181h124z" />
    <glyph glyph-name="twosuperior" unicode="&#xb2;" horiz-adv-x="400" 
d="M12 289l17 84l195 163q16 13 26.5 22.5t17 18.5t10 18.5t6.5 22.5l2 11q5 25 -8 36t-56 11q-29 0 -61 -6.5t-61 -17.5l19 97q27 10 65 17.5t72 7.5q49 0 81 -9.5t49 -27t21.5 -42.5t-1.5 -55l-3 -15q-5 -23 -10.5 -40.5t-16.5 -34t-28.5 -34t-45.5 -39.5l-112 -91h181
l-20 -97h-339z" />
    <glyph glyph-name="threesuperior" unicode="&#xb3;" horiz-adv-x="393" 
d="M135 487l17 91h60q42 0 59 14.5t17 53.5q0 18 -13.5 25t-45.5 7q-30 0 -65 -6t-64 -16l18 94q26 10 64.5 17t76.5 7q43 0 72 -8t46.5 -22.5t25 -34.5t7.5 -44q0 -11 -2.5 -29t-12.5 -38t-28.5 -37.5t-50.5 -26.5q38 -11 51.5 -36t13.5 -56q0 -90 -55 -126t-166 -36
q-41 0 -80.5 7.5t-61.5 16.5l19 95q26 -11 63.5 -16.5t70.5 -5.5q51 0 71.5 17t20.5 60q0 22 -16 27.5t-53 5.5h-59z" />
    <glyph glyph-name="acute" unicode="&#xb4;" 
d="M339 745h155l-139 -142h-131z" />
    <glyph glyph-name="mu" unicode="&#xb5;" horiz-adv-x="592" 
d="M86 -216h-143l150 768h143l-71 -361q-8 -42 10 -63t55 -21q29 0 55.5 11.5t54.5 29.5l79 404h143l-107 -552h-112l-3 46q-24 -23 -56.5 -40t-75.5 -17q-11 0 -23 2.5t-22.5 7.5t-18 12.5t-10.5 18.5z" />
    <glyph glyph-name="paragraph" unicode="&#xb6;" horiz-adv-x="565" 
d="M571 750l-169 -872h-104l150 774h-62l-150 -774h-103l88 456q-49 1 -83.5 17t-54 44t-25 65t3.5 80l8 38q18 88 79.5 130t163.5 42h258z" />
    <glyph glyph-name="periodcentered" unicode="&#xb7;" horiz-adv-x="274" 
d="M85 425h147l-28 -147h-147z" />
    <glyph glyph-name="cedilla" unicode="&#xb8;" 
d="M191 -269q-23 0 -49 2t-46 6l16 78q14 -2 31.5 -3.5t39.5 -1.5q38 0 53 10.5t18 24.5l2 10q4 18 -10 27.5t-59 9.5h-21l27 137h97l-16 -81q31 -3 50 -13t28.5 -24t10.5 -32.5t-3 -38.5l-2 -10q-11 -57 -54.5 -79t-112.5 -22z" />
    <glyph glyph-name="onesuperior" unicode="&#xb9;" horiz-adv-x="387" 
d="M30 289l18 92h102l52 264l-115 -49l19 99l150 71h89l-75 -385h91l-18 -92h-313z" />
    <glyph glyph-name="ordmasculine" unicode="&#xba;" horiz-adv-x="495" 
d="M488 482q-20 -106 -83.5 -154t-166.5 -48q-107 0 -155.5 59.5t-27.5 165.5l12 65q20 104 81.5 154t165.5 50q55 0 95 -16t63.5 -45.5t30.5 -71.5t-3 -94zM369 555q13 64 -5 89t-61 25q-42 0 -69 -24.5t-40 -89.5l-11 -57q-13 -64 5.5 -89t60.5 -25q43 0 69.5 25t39.5 89z
" />
    <glyph glyph-name="guillemotright" unicode="&#xbb;" horiz-adv-x="576" 
d="M526 302l-11 -60l-201 -194h-130l228 227l1 5l-141 219h124zM306 302l-11 -60l-198 -194h-131l226 227l1 5l-139 219h125z" />
    <glyph glyph-name="onequarter" unicode="&#xbc;" horiz-adv-x="920" 
d="M436 8l18 87l266 305h128l-57 -304h61l-18 -88h-59l-16 -85h-111l16 85h-228zM681 96l34 183l-158 -183h124zM82 -80l709 853h119l-709 -853h-119zM30 289l18 92h102l52 264l-115 -49l19 99l150 71h89l-75 -385h91l-18 -92h-313z" />
    <glyph glyph-name="onehalf" unicode="&#xbd;" horiz-adv-x="973" 
d="M82 -80l709 853h119l-709 -853h-119zM30 289l18 92h102l52 264l-115 -49l19 99l150 71h89l-75 -385h91l-18 -92h-313zM525 -77l17 84l195 163q16 13 26.5 22.5t17 18.5t10 18.5t6.5 22.5l2 11q5 25 -8 36t-56 11q-29 0 -61 -6.5t-61 -17.5l19 97q27 10 65 17.5t72 7.5
q49 0 81 -9.5t49 -27t21.5 -42.5t-1.5 -55l-3 -15q-5 -23 -10.5 -40.5t-16.5 -34t-28.5 -34t-45.5 -39.5l-112 -91h181l-20 -97h-339z" />
    <glyph glyph-name="threequarters" unicode="&#xbe;" horiz-adv-x="920" 
d="M135 487l17 91h60q42 0 59 14.5t17 53.5q0 18 -13.5 25t-45.5 7q-30 0 -65 -6t-64 -16l18 94q26 10 64.5 17t76.5 7q43 0 72 -8t46.5 -22.5t25 -34.5t7.5 -44q0 -11 -2.5 -29t-12.5 -38t-28.5 -37.5t-50.5 -26.5q38 -11 51.5 -36t13.5 -56q0 -90 -55 -126t-166 -36
q-41 0 -80.5 7.5t-61.5 16.5l19 95q26 -11 63.5 -16.5t70.5 -5.5q51 0 71.5 17t20.5 60q0 22 -16 27.5t-53 5.5h-59zM436 8l18 87l266 305h128l-57 -304h61l-18 -88h-59l-16 -85h-111l16 85h-228zM681 96l34 183l-158 -183h124zM82 -80l709 853h119l-709 -853h-119z" />
    <glyph glyph-name="questiondown" unicode="&#xbf;" horiz-adv-x="494" 
d="M369 360l-10 -53q-6 -30 -14 -51t-23.5 -39t-40 -36t-61.5 -40q-24 -15 -41.5 -26.5t-29 -26t-17 -34t-5.5 -49.5q0 -32 23.5 -45.5t82.5 -13.5q45 0 91.5 11t88.5 27l-22 -118q-38 -16 -91 -27t-107 -11q-59 0 -98.5 12t-64.5 33t-35.5 49.5t-10.5 62.5q0 61 15.5 100
t38 64.5t47.5 41t44 27.5q31 20 50.5 32.5t30.5 23t16.5 21.5t8.5 27l7 38h127zM392 441h-142l27 144h142z" />
    <glyph glyph-name="Agrave" unicode="&#xc0;" horiz-adv-x="704" 
d="M504 750l120 -750h-158l-24 180h-252l-92 -180h-162l401 750h167zM252 309h177l-20 173q-4 35 -5 64t-3 69q-16 -40 -29 -69t-31 -64zM487 803h-126l-85 142h151z" />
    <glyph glyph-name="Aacute" unicode="&#xc1;" horiz-adv-x="720" 
d="M504 750l120 -750h-158l-24 180h-252l-92 -180h-162l401 750h167zM252 309h177l-20 173q-4 35 -5 64t-3 69q-16 -40 -29 -69t-31 -64zM481 945h159l-139 -142h-135z" />
    <glyph glyph-name="Acircumflex" unicode="&#xc2;" horiz-adv-x="704" 
d="M504 750l120 -750h-158l-24 180h-252l-92 -180h-162l401 750h167zM252 309h177l-20 173q-4 35 -5 64t-3 69q-16 -40 -29 -69t-31 -64zM407 962h105l72 -161h-92l-43 77l-76 -77h-100z" />
    <glyph glyph-name="Atilde" unicode="&#xc3;" horiz-adv-x="705" 
d="M504 750l120 -750h-158l-24 180h-252l-92 -180h-162l401 750h167zM252 309h177l-20 173q-4 35 -5 64t-3 69q-16 -40 -29 -69t-31 -64zM494 803q-23 0 -36.5 7.5t-24 17t-19.5 17t-21 7.5q-16 0 -26 -14.5t-17 -34.5h-88q7 24 17.5 49t26.5 46t37 34t49 13q23 0 37.5 -7.5
t25.5 -17t20 -17t20 -7.5q19 0 28 15.5t14 35.5h88q-5 -22 -15 -47.5t-25.5 -47t-38 -35.5t-52.5 -14z" />
    <glyph glyph-name="Adieresis" unicode="&#xc4;" horiz-adv-x="704" 
d="M504 750l120 -750h-158l-24 180h-252l-92 -180h-162l401 750h167zM252 309h177l-20 173q-4 35 -5 64t-3 69q-16 -40 -29 -69t-31 -64zM309 930h105l-23 -118h-105zM495 930h105l-23 -118h-105z" />
    <glyph glyph-name="Aring" unicode="&#xc5;" horiz-adv-x="704" 
d="M504 750l120 -750h-158l-24 180h-252l-92 -180h-162l401 750h167zM252 309h177l-20 173q-4 35 -5 64t-3 69q-16 -40 -29 -69t-31 -64zM437 847q23 0 38.5 15.5t15.5 41.5q0 17 -9 26.5t-26 9.5q-23 0 -38.5 -15.5t-15.5 -41.5q0 -17 9 -26.5t26 -9.5zM425 785
q-42 0 -66 26t-24 63q0 27 10 50.5t28 41t42.5 27t52.5 9.5q42 0 66 -26t24 -63q0 -27 -10 -50.5t-28 -41t-42.5 -27t-52.5 -9.5z" />
    <glyph glyph-name="AE" unicode="&#xc6;" horiz-adv-x="1041" 
d="M1060 750l-24 -125h-329l-35 -179h297l-24 -124h-297l-39 -197h343l-23 -125h-495l35 180h-215l-140 -180h-179l591 750h534zM345 309h149l53 276q-17 -29 -33.5 -53.5t-30.5 -43.5z" />
    <glyph glyph-name="Ccedilla" unicode="&#xc7;" horiz-adv-x="611" 
d="M219 -269q-23 0 -49 2t-46 6l16 78q14 -2 31.5 -3.5t39.5 -1.5q38 0 53 10.5t18 24.5l2 10q4 18 -10 27.5t-59 9.5h-21l20 102q-125 17 -166 97.5t-10 234.5l23 118q18 94 50 154.5t79 96t111 49.5t146 14q53 0 105.5 -6t84.5 -19l-25 -127q-33 9 -78.5 13.5t-93.5 4.5
q-54 0 -93.5 -10t-66.5 -32t-43.5 -57t-26.5 -85l-25 -127q-10 -53 -8 -89t20 -59t53 -33t90 -10q42 0 92.5 5t99.5 19l-25 -127q-43 -17 -97 -23.5t-100 -7.5l-8 -40q31 -3 50 -13t28.5 -24t10.5 -32.5t-3 -38.5l-2 -10q-11 -57 -54.5 -79t-112.5 -22z" />
    <glyph glyph-name="Egrave" unicode="&#xc8;" horiz-adv-x="598" 
d="M617 750l-24 -125h-329l-35 -179h298l-24 -124h-298l-39 -197h344l-23 -125h-493l145 750h478zM479 803h-126l-85 142h151z" />
    <glyph glyph-name="Eacute" unicode="&#xc9;" horiz-adv-x="598" 
d="M617 750l-24 -125h-329l-35 -179h298l-24 -124h-298l-39 -197h344l-23 -125h-493l145 750h478zM424 945h159l-139 -142h-135z" />
    <glyph glyph-name="Ecircumflex" unicode="&#xca;" horiz-adv-x="598" 
d="M617 750l-24 -125h-329l-35 -179h298l-24 -124h-298l-39 -197h344l-23 -125h-493l145 750h478zM372 962h105l72 -161h-92l-43 77l-76 -77h-100z" />
    <glyph glyph-name="Edieresis" unicode="&#xcb;" horiz-adv-x="598" 
d="M617 750l-24 -125h-329l-35 -179h298l-24 -124h-298l-39 -197h344l-23 -125h-493l145 750h478zM279 930h105l-23 -118h-105zM465 930h105l-23 -118h-105z" />
    <glyph glyph-name="Igrave" unicode="&#xcc;" horiz-adv-x="281" 
d="M143 0h-149l145 750h149zM284 803h-126l-85 142h151z" />
    <glyph glyph-name="Iacute" unicode="&#xcd;" horiz-adv-x="281" 
d="M143 0h-149l145 750h149zM273 945h159l-139 -142h-135z" />
    <glyph glyph-name="Icircumflex" unicode="&#xce;" horiz-adv-x="281" 
d="M143 0h-149l145 750h149zM204 962h105l72 -161h-92l-43 77l-76 -77h-100z" />
    <glyph glyph-name="Idieresis" unicode="&#xcf;" horiz-adv-x="281" 
d="M143 0h-149l145 750h149zM106 930h105l-23 -118h-105zM292 930h105l-23 -118h-105z" />
    <glyph glyph-name="Eth" unicode="&#xd0;" horiz-adv-x="718" 
d="M12 440h73l60 310h288q84 0 139 -19.5t84.5 -60t35 -101.5t-10.5 -145l-31 -156q-16 -80 -43.5 -132t-71 -82t-105.5 -42t-146 -12h-284l63 329h-73zM269 621l-36 -181h185l-22 -111h-184l-39 -200h124q55 0 92 11.5t60.5 33.5t37 55t21.5 76l28 139q8 41 7.5 74
t-15.5 56t-46 35t-85 12h-128z" />
    <glyph glyph-name="Ntilde" unicode="&#xd1;" horiz-adv-x="708" 
d="M570 0h-155l-160 457q-6 17 -11.5 36t-10.5 46l-104 -539h-135l145 750h154l162 -475q6 -18 9.5 -31.5t9.5 -38.5l106 545h135zM502 803q-23 0 -36.5 7.5t-24 17t-19.5 17t-21 7.5q-16 0 -26 -14.5t-17 -34.5h-88q7 24 17.5 49t26.5 46t37 34t49 13q23 0 37.5 -7.5
t25.5 -17t20 -17t20 -7.5q19 0 28 15.5t14 35.5h88q-5 -22 -15 -47.5t-25.5 -47t-38 -35.5t-52.5 -14z" />
    <glyph glyph-name="Ograve" unicode="&#xd2;" horiz-adv-x="735" 
d="M676 293q-32 -162 -128 -234t-253 -72q-80 0 -136.5 24t-89 69t-41 110t8.5 147l24 120q16 81 49 138.5t81.5 95t112 55t139.5 17.5q77 0 133 -24t89 -69t42 -110t-7 -147zM551 426q21 110 -13 158.5t-120 48.5q-88 0 -140.5 -48t-73.5 -159l-20 -102q-22 -111 12 -159
t121 -48q86 0 139 48t75 159zM518 803h-126l-85 142h151z" />
    <glyph glyph-name="Oacute" unicode="&#xd3;" horiz-adv-x="735" 
d="M676 293q-32 -162 -128 -234t-253 -72q-80 0 -136.5 24t-89 69t-41 110t8.5 147l24 120q16 81 49 138.5t81.5 95t112 55t139.5 17.5q77 0 133 -24t89 -69t42 -110t-7 -147zM551 426q21 110 -13 158.5t-120 48.5q-88 0 -140.5 -48t-73.5 -159l-20 -102q-22 -111 12 -159
t121 -48q86 0 139 48t75 159zM488 945h159l-139 -142h-135z" />
    <glyph glyph-name="Ocircumflex" unicode="&#xd4;" horiz-adv-x="735" 
d="M676 293q-32 -162 -128 -234t-253 -72q-80 0 -136.5 24t-89 69t-41 110t8.5 147l24 120q16 81 49 138.5t81.5 95t112 55t139.5 17.5q77 0 133 -24t89 -69t42 -110t-7 -147zM551 426q21 110 -13 158.5t-120 48.5q-88 0 -140.5 -48t-73.5 -159l-20 -102q-22 -111 12 -159
t121 -48q86 0 139 48t75 159zM429 962h105l72 -161h-92l-43 77l-76 -77h-100z" />
    <glyph glyph-name="Otilde" unicode="&#xd5;" horiz-adv-x="735" 
d="M676 293q-32 -162 -128 -234t-253 -72q-80 0 -136.5 24t-89 69t-41 110t8.5 147l24 120q16 81 49 138.5t81.5 95t112 55t139.5 17.5q77 0 133 -24t89 -69t42 -110t-7 -147zM551 426q21 110 -13 158.5t-120 48.5q-88 0 -140.5 -48t-73.5 -159l-20 -102q-22 -111 12 -159
t121 -48q86 0 139 48t75 159zM516 803q-23 0 -36.5 7.5t-24 17t-19.5 17t-21 7.5q-16 0 -26 -14.5t-17 -34.5h-88q7 24 17.5 49t26.5 46t37 34t49 13q23 0 37.5 -7.5t25.5 -17t20 -17t20 -7.5q19 0 28 15.5t14 35.5h88q-5 -22 -15 -47.5t-25.5 -47t-38 -35.5t-52.5 -14z" />
    <glyph glyph-name="Odieresis" unicode="&#xd6;" horiz-adv-x="735" 
d="M676 293q-32 -162 -128 -234t-253 -72q-80 0 -136.5 24t-89 69t-41 110t8.5 147l24 120q16 81 49 138.5t81.5 95t112 55t139.5 17.5q77 0 133 -24t89 -69t42 -110t-7 -147zM551 426q21 110 -13 158.5t-120 48.5q-88 0 -140.5 -48t-73.5 -159l-20 -102q-22 -111 12 -159
t121 -48q86 0 139 48t75 159zM330 930h105l-23 -118h-105zM516 930h105l-23 -118h-105z" />
    <glyph glyph-name="multiply" unicode="&#xd7;" horiz-adv-x="584" 
d="M547 496l-179 -154l118 -158l-92 -68l-113 152l-177 -152l-63 80l179 154l-118 159l92 68l113 -152l177 152z" />
    <glyph glyph-name="Oslash" unicode="&#xd8;" horiz-adv-x="735" 
d="M-52 -43l114 133q-57 92 -25 247l24 120q16 81 49 138.5t81.5 95t112 55t139.5 17.5q99 0 162 -39l58 68h124l-115 -134q58 -91 28 -245l-24 -120q-32 -162 -128 -234t-253 -72q-101 0 -165 38l-58 -68h-124zM184 324q-12 -61 -8 -100l333 388q-35 21 -91 21
q-88 0 -140.5 -48t-73.5 -159zM551 426q11 57 6 98l-331 -387q33 -20 91 -20q86 0 139 48t75 159z" />
    <glyph glyph-name="Ugrave" unicode="&#xd9;" horiz-adv-x="729" 
d="M283 750l-86 -440q-10 -53 -7.5 -88t17.5 -56t42.5 -29.5t68.5 -8.5q42 0 73 8.5t53.5 29.5t37.5 56t25 88l86 440h149l-92 -473q-15 -76 -41.5 -131t-67 -90t-97.5 -52t-132 -17q-157 0 -227.5 75.5t-39.5 233.5l88 454h150zM516 803h-126l-85 142h151z" />
    <glyph glyph-name="Uacute" unicode="&#xda;" horiz-adv-x="729" 
d="M283 750l-86 -440q-10 -53 -7.5 -88t17.5 -56t42.5 -29.5t68.5 -8.5q42 0 73 8.5t53.5 29.5t37.5 56t25 88l86 440h149l-92 -473q-15 -76 -41.5 -131t-67 -90t-97.5 -52t-132 -17q-157 0 -227.5 75.5t-39.5 233.5l88 454h150zM488 945h159l-139 -142h-135z" />
    <glyph glyph-name="Ucircumflex" unicode="&#xdb;" horiz-adv-x="729" 
d="M283 750l-86 -440q-10 -53 -7.5 -88t17.5 -56t42.5 -29.5t68.5 -8.5q42 0 73 8.5t53.5 29.5t37.5 56t25 88l86 440h149l-92 -473q-15 -76 -41.5 -131t-67 -90t-97.5 -52t-132 -17q-157 0 -227.5 75.5t-39.5 233.5l88 454h150zM426 962h105l72 -161h-92l-43 77l-76 -77
h-100z" />
    <glyph glyph-name="Udieresis" unicode="&#xdc;" horiz-adv-x="729" 
d="M283 750l-86 -440q-10 -53 -7.5 -88t17.5 -56t42.5 -29.5t68.5 -8.5q42 0 73 8.5t53.5 29.5t37.5 56t25 88l86 440h149l-92 -473q-15 -76 -41.5 -131t-67 -90t-97.5 -52t-132 -17q-157 0 -227.5 75.5t-39.5 233.5l88 454h150zM327 930h105l-23 -118h-105zM513 930h105
l-23 -118h-105z" />
    <glyph glyph-name="Yacute" unicode="&#xdd;" horiz-adv-x="640" 
d="M380 296l-56 -296h-149l56 294l-154 456h154l59 -205q10 -35 18 -67t16 -73q21 43 40 75.5t41 64.5l139 205h165zM436 945h159l-139 -142h-135z" />
    <glyph glyph-name="Thorn" unicode="&#xde;" horiz-adv-x="609" 
d="M139 750h149l-27 -139h138q59 0 104 -10.5t72.5 -35.5t37 -67t-2.5 -104l-13 -71q-12 -58 -34.5 -93.5t-59.5 -54.5t-88.5 -25t-120.5 -6h-124l-27 -144h-149zM239 496l-47 -239h103q40 0 67.5 4t46 14.5t29 29t15.5 47.5l11 55q10 49 -12 69t-88 20h-125z" />
    <glyph glyph-name="germandbls" unicode="&#xdf;" horiz-adv-x="579" 
d="M201 111h61q52 0 78 26.5t36 77.5l4 22q6 29 5 49.5t-11.5 33.5t-31 19t-53.5 6h-33l21 106h29q48 0 70.5 28t31.5 74l4 23q8 42 -7 62.5t-58 20.5q-42 0 -68 -21.5t-35 -70.5l-110 -567h-144l110 569q9 48 28 86.5t49.5 64.5t74 40t101.5 14q64 0 106 -18t65.5 -47
t30.5 -65t0 -71l-5 -26q-9 -47 -40 -86.5t-85 -57.5q35 -7 57 -24.5t33.5 -42t13 -53.5t-4.5 -58l-9 -44q-9 -45 -27 -78.5t-49 -56.5t-76.5 -34.5t-108.5 -11.5h-74z" />
    <glyph glyph-name="agrave" unicode="&#xe0;" horiz-adv-x="542" 
d="M416 0h-111l-4 48q-30 -21 -73 -39.5t-105 -18.5q-77 0 -112 46t-21 127l5 29q7 43 26.5 71.5t52 45.5t79.5 24.5t109 7.5h79l5 29q4 25 4 42t-8 27t-25 14t-45 4q-16 0 -36.5 -2t-43 -6t-45.5 -9.5t-44 -12.5l21 108q19 7 43 12.5t49.5 9.5t50.5 6.5t46 2.5
q67 0 105 -18.5t55 -49.5t17.5 -70t-7.5 -79zM321 244h-70q-58 0 -85 -14.5t-33 -55.5l-2 -13q-5 -35 6 -48.5t41 -13.5q28 0 60.5 9.5t61.5 26.5zM409 603h-126l-85 142h151z" />
    <glyph glyph-name="aacute" unicode="&#xe1;" horiz-adv-x="542" 
d="M416 0h-111l-4 48q-30 -21 -73 -39.5t-105 -18.5q-77 0 -112 46t-21 127l5 29q7 43 26.5 71.5t52 45.5t79.5 24.5t109 7.5h79l5 29q4 25 4 42t-8 27t-25 14t-45 4q-16 0 -36.5 -2t-43 -6t-45.5 -9.5t-44 -12.5l21 108q19 7 43 12.5t49.5 9.5t50.5 6.5t46 2.5
q67 0 105 -18.5t55 -49.5t17.5 -70t-7.5 -79zM321 244h-70q-58 0 -85 -14.5t-33 -55.5l-2 -13q-5 -35 6 -48.5t41 -13.5q28 0 60.5 9.5t61.5 26.5zM361 745h159l-139 -142h-135z" />
    <glyph glyph-name="acircumflex" unicode="&#xe2;" horiz-adv-x="542" 
d="M416 0h-111l-4 48q-30 -21 -73 -39.5t-105 -18.5q-77 0 -112 46t-21 127l5 29q7 43 26.5 71.5t52 45.5t79.5 24.5t109 7.5h79l5 29q4 25 4 42t-8 27t-25 14t-45 4q-16 0 -36.5 -2t-43 -6t-45.5 -9.5t-44 -12.5l21 108q19 7 43 12.5t49.5 9.5t50.5 6.5t46 2.5
q67 0 105 -18.5t55 -49.5t17.5 -70t-7.5 -79zM321 244h-70q-58 0 -85 -14.5t-33 -55.5l-2 -13q-5 -35 6 -48.5t41 -13.5q28 0 60.5 9.5t61.5 26.5zM304 762h105l72 -161h-92l-43 77l-76 -77h-100z" />
    <glyph glyph-name="atilde" unicode="&#xe3;" horiz-adv-x="542" 
d="M416 0h-111l-4 48q-30 -21 -73 -39.5t-105 -18.5q-77 0 -112 46t-21 127l5 29q7 43 26.5 71.5t52 45.5t79.5 24.5t109 7.5h79l5 29q4 25 4 42t-8 27t-25 14t-45 4q-16 0 -36.5 -2t-43 -6t-45.5 -9.5t-44 -12.5l21 108q19 7 43 12.5t49.5 9.5t50.5 6.5t46 2.5
q67 0 105 -18.5t55 -49.5t17.5 -70t-7.5 -79zM321 244h-70q-58 0 -85 -14.5t-33 -55.5l-2 -13q-5 -35 6 -48.5t41 -13.5q28 0 60.5 9.5t61.5 26.5zM384 603q-23 0 -36.5 7.5t-24 17t-19.5 17t-21 7.5q-16 0 -26 -14.5t-17 -34.5h-88q7 24 17.5 49t26.5 46t37 34t49 13
q23 0 37.5 -7.5t25.5 -17t20 -17t20 -7.5q19 0 28 15.5t14 35.5h88q-5 -22 -15 -47.5t-25.5 -47t-38 -35.5t-52.5 -14z" />
    <glyph glyph-name="adieresis" unicode="&#xe4;" horiz-adv-x="542" 
d="M416 0h-111l-4 48q-30 -21 -73 -39.5t-105 -18.5q-77 0 -112 46t-21 127l5 29q7 43 26.5 71.5t52 45.5t79.5 24.5t109 7.5h79l5 29q4 25 4 42t-8 27t-25 14t-45 4q-16 0 -36.5 -2t-43 -6t-45.5 -9.5t-44 -12.5l21 108q19 7 43 12.5t49.5 9.5t50.5 6.5t46 2.5
q67 0 105 -18.5t55 -49.5t17.5 -70t-7.5 -79zM321 244h-70q-58 0 -85 -14.5t-33 -55.5l-2 -13q-5 -35 6 -48.5t41 -13.5q28 0 60.5 9.5t61.5 26.5zM196 730h105l-23 -118h-105zM382 730h105l-23 -118h-105z" />
    <glyph glyph-name="aring" unicode="&#xe5;" horiz-adv-x="542" 
d="M416 0h-111l-4 48q-30 -21 -73 -39.5t-105 -18.5q-77 0 -112 46t-21 127l5 29q7 43 26.5 71.5t52 45.5t79.5 24.5t109 7.5h79l5 29q4 25 4 42t-8 27t-25 14t-45 4q-16 0 -36.5 -2t-43 -6t-45.5 -9.5t-44 -12.5l21 108q19 7 43 12.5t49.5 9.5t50.5 6.5t46 2.5
q67 0 105 -18.5t55 -49.5t17.5 -70t-7.5 -79zM321 244h-70q-58 0 -85 -14.5t-33 -55.5l-2 -13q-5 -35 6 -48.5t41 -13.5q28 0 60.5 9.5t61.5 26.5zM324 647q23 0 38.5 15.5t15.5 41.5q0 17 -9 26.5t-26 9.5q-23 0 -38.5 -15.5t-15.5 -41.5q0 -17 9 -26.5t26 -9.5zM312 585
q-42 0 -66 26t-24 63q0 27 10 50.5t28 41t42.5 27t52.5 9.5q42 0 66 -26t24 -63q0 -27 -10 -50.5t-28 -41t-42.5 -27t-52.5 -9.5z" />
    <glyph glyph-name="ae" unicode="&#xe6;" horiz-adv-x="872" 
d="M806 235h-345l-4 -21q-12 -64 15.5 -90t105.5 -26q32 0 77 5t85 19l-20 -105q-18 -7 -41 -12.5t-47 -9t-47.5 -5t-43.5 -1.5q-70 0 -110.5 18.5t-68.5 53.5q-54 -35 -109.5 -53t-126.5 -18q-77 0 -114 45t-21 126l4 20q9 44 27.5 72.5t50 45.5t76 24t105.5 7h87l7 40
q5 25 4.5 42t-8.5 27t-25 14t-45 4q-16 0 -36.5 -2t-43 -6t-45.5 -9.5t-44 -12.5l21 108q21 7 46 12.5t50.5 9.5t50 6.5t45.5 2.5q63 0 97.5 -14.5t51.5 -37.5q42 29 84.5 40.5t84.5 11.5q50 0 89.5 -16t64 -51t32 -90t-7.5 -132zM689 330l2 9q9 52 -8.5 84.5t-73.5 32.5
q-54 0 -86 -32.5t-42 -85.5l-1 -8h209zM321 233h-70q-29 0 -49 -2t-33.5 -8t-21.5 -17.5t-12 -31.5l-1 -10q-8 -35 4 -50t42 -15q28 0 60.5 9.5t61.5 26.5z" />
    <glyph glyph-name="ccedilla" unicode="&#xe7;" horiz-adv-x="511" 
d="M163 -269q-23 0 -49 2t-46 6l16 78q14 -2 31.5 -3.5t39.5 -1.5q38 0 53 10.5t18 24.5l2 10q4 18 -10 27.5t-59 9.5h-21l20 101q-93 18 -126 84t-11 178l13 66q13 69 39.5 115.5t65 75t90 40.5t115.5 12q41 0 83.5 -5.5t68.5 -17.5l-21 -110q-22 8 -57.5 13t-74.5 5
q-42 0 -71 -9t-48.5 -27t-31 -44.5t-18.5 -60.5l-13 -68q-7 -36 -5.5 -62t14.5 -42.5t39 -24.5t68 -8q30 0 69 5t78 19l-23 -117q-31 -11 -72 -16.5t-76 -7.5l-7 -38q31 -3 50 -13t28.5 -24t10.5 -32.5t-3 -38.5l-2 -10q-11 -57 -54.5 -79t-112.5 -22z" />
    <glyph glyph-name="egrave" unicode="&#xe8;" horiz-adv-x="572" 
d="M503 225h-347l-2 -11q-13 -64 15 -90t106 -26q32 0 77 5t85 19l-20 -107q-37 -14 -86 -20t-91 -6q-270 0 -219 265l13 67q13 69 40 116t63.5 75.5t81.5 41t96 12.5q55 0 98.5 -15t71 -48t36.5 -86t-6 -129zM384 320l4 19q9 52 -8.5 84.5t-73.5 32.5q-57 0 -88.5 -32.5
t-41.5 -85.5l-3 -18h211zM420 603h-126l-85 142h151z" />
    <glyph glyph-name="eacute" unicode="&#xe9;" horiz-adv-x="572" 
d="M503 225h-347l-2 -11q-13 -64 15 -90t106 -26q32 0 77 5t85 19l-20 -107q-37 -14 -86 -20t-91 -6q-270 0 -219 265l13 67q13 69 40 116t63.5 75.5t81.5 41t96 12.5q55 0 98.5 -15t71 -48t36.5 -86t-6 -129zM384 320l4 19q9 52 -8.5 84.5t-73.5 32.5q-57 0 -88.5 -32.5
t-41.5 -85.5l-3 -18h211zM384 745h159l-139 -142h-135z" />
    <glyph glyph-name="ecircumflex" unicode="&#xea;" horiz-adv-x="572" 
d="M503 225h-347l-2 -11q-13 -64 15 -90t106 -26q32 0 77 5t85 19l-20 -107q-37 -14 -86 -20t-91 -6q-270 0 -219 265l13 67q13 69 40 116t63.5 75.5t81.5 41t96 12.5q55 0 98.5 -15t71 -48t36.5 -86t-6 -129zM384 320l4 19q9 52 -8.5 84.5t-73.5 32.5q-57 0 -88.5 -32.5
t-41.5 -85.5l-3 -18h211zM306 762h105l72 -161h-92l-43 77l-76 -77h-100z" />
    <glyph glyph-name="edieresis" unicode="&#xeb;" horiz-adv-x="572" 
d="M503 225h-347l-2 -11q-13 -64 15 -90t106 -26q32 0 77 5t85 19l-20 -107q-37 -14 -86 -20t-91 -6q-270 0 -219 265l13 67q13 69 40 116t63.5 75.5t81.5 41t96 12.5q55 0 98.5 -15t71 -48t36.5 -86t-6 -129zM384 320l4 19q9 52 -8.5 84.5t-73.5 32.5q-57 0 -88.5 -32.5
t-41.5 -85.5l-3 -18h211zM212 730h105l-23 -118h-105zM398 730h105l-23 -118h-105z" />
    <glyph glyph-name="igrave" unicode="&#xec;" horiz-adv-x="276" 
d="M136 0h-146l107 552h146zM240 603h-126l-85 142h151z" />
    <glyph glyph-name="iacute" unicode="&#xed;" horiz-adv-x="276" 
d="M136 0h-146l107 552h146zM230 745h159l-139 -142h-135z" />
    <glyph glyph-name="icircumflex" unicode="&#xee;" horiz-adv-x="276" 
d="M136 0h-146l107 552h146zM158 762h105l72 -161h-92l-43 77l-76 -77h-100z" />
    <glyph glyph-name="idieresis" unicode="&#xef;" horiz-adv-x="276" 
d="M136 0h-146l107 552h146zM60 730h105l-23 -118h-105zM246 730h105l-23 -118h-105z" />
    <glyph glyph-name="eth" unicode="&#xf0;" horiz-adv-x="590" 
d="M178 627l78 31q-14 9 -27 17t-27 16l57 87q64 -34 115 -72l129 52l13 -71l-82 -33q40 -41 63.5 -86t33.5 -94t8 -102.5t-13 -110.5l-8 -36q-24 -124 -98.5 -180.5t-198.5 -56.5q-122 0 -173.5 71t-27.5 194l10 51q24 121 96 179t178 58q23 0 47.5 -4.5t38.5 -16.5
q-26 50 -68 89l-132 -53zM387 279q15 79 -4.5 113.5t-75.5 34.5q-52 0 -85.5 -32t-50.5 -111l-8 -38q-8 -39 -6 -66.5t13 -45t29.5 -25t44.5 -7.5q51 0 86 31t50 110z" />
    <glyph glyph-name="ntilde" unicode="&#xf1;" horiz-adv-x="596" 
d="M463 0h-146l69 359q4 20 4.5 35t-4 25t-15 15t-29.5 5q-28 0 -62 -9.5t-66 -29.5l-78 -400h-146l107 552h114l1 -45q46 28 99 43.5t94 15.5q48 0 77 -16t43 -43t15.5 -62t-5.5 -72zM406 603q-23 0 -36.5 7.5t-24 17t-19.5 17t-21 7.5q-16 0 -26 -14.5t-17 -34.5h-88
q7 24 17.5 49t26.5 46t37 34t49 13q23 0 37.5 -7.5t25.5 -17t20 -17t20 -7.5q19 0 28 15.5t14 35.5h88q-5 -22 -15 -47.5t-25.5 -47t-38 -35.5t-52.5 -14z" />
    <glyph glyph-name="ograve" unicode="&#xf2;" horiz-adv-x="589" 
d="M516 224q-24 -124 -97.5 -180t-198.5 -56q-63 0 -106.5 19t-68.5 54.5t-31 85t6 111.5l15 76q23 118 97 175t196 57q63 0 107 -19t69.5 -53.5t32 -84t-5.5 -109.5zM388 308q15 79 -6 111t-72 32q-52 0 -86 -32t-49 -111l-12 -62q-16 -79 6 -110.5t74 -31.5q51 0 84 31.5
t49 110.5zM405 603h-126l-85 142h151z" />
    <glyph glyph-name="oacute" unicode="&#xf3;" horiz-adv-x="589" 
d="M516 224q-24 -124 -97.5 -180t-198.5 -56q-63 0 -106.5 19t-68.5 54.5t-31 85t6 111.5l15 76q23 118 97 175t196 57q63 0 107 -19t69.5 -53.5t32 -84t-5.5 -109.5zM388 308q15 79 -6 111t-72 32q-52 0 -86 -32t-49 -111l-12 -62q-16 -79 6 -110.5t74 -31.5q51 0 84 31.5
t49 110.5zM380 745h159l-139 -142h-135z" />
    <glyph glyph-name="ocircumflex" unicode="&#xf4;" horiz-adv-x="589" 
d="M516 224q-24 -124 -97.5 -180t-198.5 -56q-63 0 -106.5 19t-68.5 54.5t-31 85t6 111.5l15 76q23 118 97 175t196 57q63 0 107 -19t69.5 -53.5t32 -84t-5.5 -109.5zM388 308q15 79 -6 111t-72 32q-52 0 -86 -32t-49 -111l-12 -62q-16 -79 6 -110.5t74 -31.5q51 0 84 31.5
t49 110.5zM317 762h105l72 -161h-92l-43 77l-76 -77h-100z" />
    <glyph glyph-name="otilde" unicode="&#xf5;" horiz-adv-x="589" 
d="M516 224q-24 -124 -97.5 -180t-198.5 -56q-63 0 -106.5 19t-68.5 54.5t-31 85t6 111.5l15 76q23 118 97 175t196 57q63 0 107 -19t69.5 -53.5t32 -84t-5.5 -109.5zM388 308q15 79 -6 111t-72 32q-52 0 -86 -32t-49 -111l-12 -62q-16 -79 6 -110.5t74 -31.5q51 0 84 31.5
t49 110.5zM404 603q-23 0 -36.5 7.5t-24 17t-19.5 17t-21 7.5q-16 0 -26 -14.5t-17 -34.5h-88q7 24 17.5 49t26.5 46t37 34t49 13q23 0 37.5 -7.5t25.5 -17t20 -17t20 -7.5q19 0 28 15.5t14 35.5h88q-5 -22 -15 -47.5t-25.5 -47t-38 -35.5t-52.5 -14z" />
    <glyph glyph-name="odieresis" unicode="&#xf6;" horiz-adv-x="589" 
d="M516 224q-24 -124 -97.5 -180t-198.5 -56q-63 0 -106.5 19t-68.5 54.5t-31 85t6 111.5l15 76q23 118 97 175t196 57q63 0 107 -19t69.5 -53.5t32 -84t-5.5 -109.5zM388 308q15 79 -6 111t-72 32q-52 0 -86 -32t-49 -111l-12 -62q-16 -79 6 -110.5t74 -31.5q51 0 84 31.5
t49 110.5zM219 730h105l-23 -118h-105zM405 730h105l-23 -118h-105z" />
    <glyph glyph-name="divide" unicode="&#xf7;" horiz-adv-x="570" 
d="M45 406h493l-23 -118h-493zM266 618h137l-28 -140h-137zM187 216h137l-27 -140h-137z" />
    <glyph glyph-name="oslash" unicode="&#xf8;" horiz-adv-x="591" 
d="M-43 -43l88 105q-48 71 -24 196l15 76q23 118 97 175t196 57q71 0 120 -26l37 44h117l-89 -105q39 -70 18 -179l-15 -76q-24 -124 -97.5 -180t-198.5 -56q-32 0 -58 5t-48 14l-42 -50h-116zM164 246q-3 -15 -4.5 -27.5t-2.5 -23.5l206 244q-20 12 -52 12q-52 0 -86 -32
t-49 -111zM389 308q2 8 2.5 14.5t1.5 13.5l-191 -226q18 -6 42 -6q51 0 84 31.5t49 110.5z" />
    <glyph glyph-name="ugrave" unicode="&#xf9;" horiz-adv-x="593" 
d="M93 552h146l-70 -357q-8 -40 -1 -60.5t44 -20.5q28 0 61.5 10t65.5 30l78 398h146l-107 -552h-114l-3 46q-92 -57 -189 -57q-48 0 -77 16t-43 42.5t-15.5 61t5.5 72.5zM420 603h-126l-85 142h151z" />
    <glyph glyph-name="uacute" unicode="&#xfa;" horiz-adv-x="593" 
d="M93 552h146l-70 -357q-8 -40 -1 -60.5t44 -20.5q28 0 61.5 10t65.5 30l78 398h146l-107 -552h-114l-3 46q-92 -57 -189 -57q-48 0 -77 16t-43 42.5t-15.5 61t5.5 72.5zM387 745h159l-139 -142h-135z" />
    <glyph glyph-name="ucircumflex" unicode="&#xfb;" horiz-adv-x="593" 
d="M93 552h146l-70 -357q-8 -40 -1 -60.5t44 -20.5q28 0 61.5 10t65.5 30l78 398h146l-107 -552h-114l-3 46q-92 -57 -189 -57q-48 0 -77 16t-43 42.5t-15.5 61t5.5 72.5zM318 762h105l72 -161h-92l-43 77l-76 -77h-100z" />
    <glyph glyph-name="udieresis" unicode="&#xfc;" horiz-adv-x="593" 
d="M93 552h146l-70 -357q-8 -40 -1 -60.5t44 -20.5q28 0 61.5 10t65.5 30l78 398h146l-107 -552h-114l-3 46q-92 -57 -189 -57q-48 0 -77 16t-43 42.5t-15.5 61t5.5 72.5zM219 730h105l-23 -118h-105zM405 730h105l-23 -118h-105z" />
    <glyph glyph-name="yacute" unicode="&#xfd;" horiz-adv-x="562" 
d="M589 552l-418 -765h-152l116 214l-91 551h142l39 -310q3 -23 5 -50t3 -68q16 42 30 71t22 46l156 311h148zM371 745h159l-139 -142h-135z" />
    <glyph glyph-name="thorn" unicode="&#xfe;" horiz-adv-x="604" 
d="M154 121q21 -8 47 -12t48 -4q33 0 56 8t38 24t24.5 40.5t15.5 58.5l21 109q10 52 -2.5 76t-59.5 24q-32 0 -68 -12t-65 -29zM131 744l151 30l-50 -256q37 20 83.5 34t94.5 14t79 -16.5t48.5 -44t21 -64.5t-4.5 -78l-33 -170q-11 -59 -34 -98t-56 -62.5t-75 -33.5t-91 -10
q-32 0 -66 5t-66 16l-44 -226h-146z" />
    <glyph glyph-name="ydieresis" unicode="&#xff;" horiz-adv-x="562" 
d="M589 552l-418 -765h-152l116 214l-91 551h142l39 -310q3 -23 5 -50t3 -68q16 42 30 71t22 46l156 311h148zM199 730h105l-23 -118h-105zM385 730h105l-23 -118h-105z" />
    <glyph glyph-name="Amacron" unicode="&#x100;" horiz-adv-x="704" 
d="M504 750l120 -750h-158l-24 180h-252l-92 -180h-162l401 750h167zM252 309h177l-20 173q-4 35 -5 64t-3 69q-16 -40 -29 -69t-31 -64zM303 927h291l-19 -94h-291z" />
    <glyph glyph-name="amacron" unicode="&#x101;" horiz-adv-x="542" 
d="M416 0h-111l-4 48q-30 -21 -73 -39.5t-105 -18.5q-77 0 -112 46t-21 127l5 29q7 43 26.5 71.5t52 45.5t79.5 24.5t109 7.5h79l5 29q4 25 4 42t-8 27t-25 14t-45 4q-16 0 -36.5 -2t-43 -6t-45.5 -9.5t-44 -12.5l21 108q19 7 43 12.5t49.5 9.5t50.5 6.5t46 2.5
q67 0 105 -18.5t55 -49.5t17.5 -70t-7.5 -79zM321 244h-70q-58 0 -85 -14.5t-33 -55.5l-2 -13q-5 -35 6 -48.5t41 -13.5q28 0 60.5 9.5t61.5 26.5zM195 727h291l-19 -94h-291z" />
    <glyph glyph-name="Abreve" unicode="&#x102;" horiz-adv-x="704" 
d="M504 750l120 -750h-158l-24 180h-252l-92 -180h-162l401 750h167zM252 309h177l-20 173q-4 35 -5 64t-3 69q-16 -40 -29 -69t-31 -64zM434 804q-33 0 -57 11.5t-39 31t-21 46t-3 57.5h80q-2 -30 8.5 -45.5t38.5 -15.5q29 0 46 16t26 45h86q-13 -64 -55 -105t-110 -41z
" />
    <glyph glyph-name="abreve" unicode="&#x103;" horiz-adv-x="542" 
d="M416 0h-111l-4 48q-30 -21 -73 -39.5t-105 -18.5q-77 0 -112 46t-21 127l5 29q7 43 26.5 71.5t52 45.5t79.5 24.5t109 7.5h79l5 29q4 25 4 42t-8 27t-25 14t-45 4q-16 0 -36.5 -2t-43 -6t-45.5 -9.5t-44 -12.5l21 108q19 7 43 12.5t49.5 9.5t50.5 6.5t46 2.5
q67 0 105 -18.5t55 -49.5t17.5 -70t-7.5 -79zM321 244h-70q-58 0 -85 -14.5t-33 -55.5l-2 -13q-5 -35 6 -48.5t41 -13.5q28 0 60.5 9.5t61.5 26.5zM322 604q-33 0 -57 11.5t-39 31t-21 46t-3 57.5h80q-2 -30 8.5 -45.5t38.5 -15.5q29 0 46 16t26 45h86q-13 -64 -55 -105
t-110 -41z" />
    <glyph glyph-name="Aogonek" unicode="&#x104;" horiz-adv-x="704" 
d="M517 -228q-35 0 -59 8.5t-38.5 22.5t-19 33t-0.5 40l2 11q3 19 15.5 37t29.5 33t37 26t40 17h-58l-24 180h-252l-92 -180h-162l401 750h167l120 -750q-21 -10 -39.5 -22.5t-33 -26t-24 -27.5t-11.5 -27l-1 -6q-3 -20 8.5 -26.5t33.5 -6.5q15 0 33 2t29 5l-17 -82
q-14 -4 -36 -7.5t-49 -3.5zM252 309h177l-20 173q-4 35 -5 64t-3 69q-16 -40 -29 -69t-31 -64z" />
    <glyph glyph-name="aogonek" unicode="&#x105;" horiz-adv-x="542" 
d="M309 -228q-35 0 -59 8.5t-38.5 22.5t-19 33t-0.5 40l2 11q3 18 13.5 35t26 31t34 25.5t37.5 18.5l-4 51q-30 -21 -73 -39.5t-105 -18.5q-77 0 -112 46t-21 127l5 29q7 43 26.5 71.5t52 45.5t79.5 24.5t109 7.5h79l5 29q4 25 4 42t-8 27t-25 14t-45 4q-16 0 -36.5 -2
t-43 -6t-45.5 -9.5t-44 -12.5l21 108q19 7 43 12.5t49.5 9.5t50.5 6.5t46 2.5q67 0 105 -18.5t55 -49.5t17.5 -70t-7.5 -79l-67 -349q-21 -10 -39.5 -22.5t-33 -26t-24 -27.5t-11.5 -27l-1 -6q-3 -20 8.5 -26.5t33.5 -6.5q15 0 33 2t29 5l-17 -82q-14 -4 -36 -7.5t-49 -3.5z
M321 244h-70q-58 0 -85 -14.5t-33 -55.5l-2 -13q-5 -35 6 -48.5t41 -13.5q28 0 60.5 9.5t61.5 26.5z" />
    <glyph glyph-name="Cacute" unicode="&#x106;" horiz-adv-x="611" 
d="M612 608q-33 9 -78.5 13.5t-93.5 4.5q-54 0 -93.5 -10t-66.5 -32t-43.5 -57t-26.5 -85l-25 -127q-10 -53 -8 -89t20 -59t53 -33t90 -10q42 0 92.5 5t99.5 19l-25 -127q-23 -9 -49.5 -15t-54 -9.5t-54.5 -5t-51 -1.5q-87 0 -145 19.5t-89.5 61t-37.5 105t12 152.5l23 118
q18 94 50 154.5t79 96t111 49.5t146 14q53 0 105.5 -6t84.5 -19zM464 945h159l-139 -142h-135z" />
    <glyph glyph-name="cacute" unicode="&#x107;" horiz-adv-x="511" 
d="M475 433q-22 8 -57.5 13t-74.5 5q-42 0 -71 -9t-48.5 -27t-31 -44.5t-18.5 -60.5l-13 -68q-7 -36 -5.5 -62t14.5 -42.5t39 -24.5t68 -8q30 0 69 5t78 19l-23 -117q-18 -6 -39.5 -10.5t-44 -7.5t-44.5 -4.5t-40 -1.5q-135 0 -186.5 69t-25.5 200l13 66q13 69 39.5 115.5
t65 75t90 40.5t115.5 12q41 0 83.5 -5.5t68.5 -17.5zM364 745h159l-139 -142h-135z" />
    <glyph glyph-name="Ccircumflex" unicode="&#x108;" horiz-adv-x="611" 
d="M612 608q-33 9 -78.5 13.5t-93.5 4.5q-54 0 -93.5 -10t-66.5 -32t-43.5 -57t-26.5 -85l-25 -127q-10 -53 -8 -89t20 -59t53 -33t90 -10q42 0 92.5 5t99.5 19l-25 -127q-23 -9 -49.5 -15t-54 -9.5t-54.5 -5t-51 -1.5q-87 0 -145 19.5t-89.5 61t-37.5 105t12 152.5l23 118
q18 94 50 154.5t79 96t111 49.5t146 14q53 0 105.5 -6t84.5 -19zM407 962h105l72 -161h-92l-43 77l-76 -77h-100z" />
    <glyph glyph-name="ccircumflex" unicode="&#x109;" horiz-adv-x="511" 
d="M475 433q-22 8 -57.5 13t-74.5 5q-42 0 -71 -9t-48.5 -27t-31 -44.5t-18.5 -60.5l-13 -68q-7 -36 -5.5 -62t14.5 -42.5t39 -24.5t68 -8q30 0 69 5t78 19l-23 -117q-18 -6 -39.5 -10.5t-44 -7.5t-44.5 -4.5t-40 -1.5q-135 0 -186.5 69t-25.5 200l13 66q13 69 39.5 115.5
t65 75t90 40.5t115.5 12q41 0 83.5 -5.5t68.5 -17.5zM310 762h105l72 -161h-92l-43 77l-76 -77h-100z" />
    <glyph glyph-name="Cdotaccent" unicode="&#x10a;" horiz-adv-x="611" 
d="M612 608q-33 9 -78.5 13.5t-93.5 4.5q-54 0 -93.5 -10t-66.5 -32t-43.5 -57t-26.5 -85l-25 -127q-10 -53 -8 -89t20 -59t53 -33t90 -10q42 0 92.5 5t99.5 19l-25 -127q-23 -9 -49.5 -15t-54 -9.5t-54.5 -5t-51 -1.5q-87 0 -145 19.5t-89.5 61t-37.5 105t12 152.5l23 118
q18 94 50 154.5t79 96t111 49.5t146 14q53 0 105.5 -6t84.5 -19zM401 930h106l-23 -118h-106z" />
    <glyph glyph-name="cdotaccent" unicode="&#x10b;" horiz-adv-x="511" 
d="M475 433q-22 8 -57.5 13t-74.5 5q-42 0 -71 -9t-48.5 -27t-31 -44.5t-18.5 -60.5l-13 -68q-7 -36 -5.5 -62t14.5 -42.5t39 -24.5t68 -8q30 0 69 5t78 19l-23 -117q-18 -6 -39.5 -10.5t-44 -7.5t-44.5 -4.5t-40 -1.5q-135 0 -186.5 69t-25.5 200l13 66q13 69 39.5 115.5
t65 75t90 40.5t115.5 12q41 0 83.5 -5.5t68.5 -17.5zM308 730h106l-23 -118h-106z" />
    <glyph glyph-name="Ccaron" unicode="&#x10c;" horiz-adv-x="611" 
d="M612 608q-33 9 -78.5 13.5t-93.5 4.5q-54 0 -93.5 -10t-66.5 -32t-43.5 -57t-26.5 -85l-25 -127q-10 -53 -8 -89t20 -59t53 -33t90 -10q42 0 92.5 5t99.5 19l-25 -127q-23 -9 -49.5 -15t-54 -9.5t-54.5 -5t-51 -1.5q-87 0 -145 19.5t-89.5 61t-37.5 105t12 152.5l23 118
q18 94 50 154.5t79 96t111 49.5t146 14q53 0 105.5 -6t84.5 -19zM479 792h-104l-72 161h92l44 -78l74 78h102z" />
    <glyph glyph-name="ccaron" unicode="&#x10d;" horiz-adv-x="511" 
d="M475 433q-22 8 -57.5 13t-74.5 5q-42 0 -71 -9t-48.5 -27t-31 -44.5t-18.5 -60.5l-13 -68q-7 -36 -5.5 -62t14.5 -42.5t39 -24.5t68 -8q30 0 69 5t78 19l-23 -117q-18 -6 -39.5 -10.5t-44 -7.5t-44.5 -4.5t-40 -1.5q-135 0 -186.5 69t-25.5 200l13 66q13 69 39.5 115.5
t65 75t90 40.5t115.5 12q41 0 83.5 -5.5t68.5 -17.5zM382 592h-104l-72 161h92l44 -78l74 78h102z" />
    <glyph glyph-name="Dcaron" unicode="&#x10e;" horiz-adv-x="712" 
d="M-6 0l145 750h288q84 0 139 -19.5t84.5 -60t35 -101.5t-10.5 -145l-31 -156q-16 -80 -43.5 -132t-71 -82t-105.5 -42t-146 -12h-284zM263 621l-96 -492h124q55 0 92 11.5t60.5 33.5t37 55t21.5 76l28 139q8 41 7.5 74t-15.5 56t-46 35t-85 12h-128zM494 792h-104l-72 161
h92l44 -78l74 78h102z" />
    <glyph glyph-name="dcaron" unicode="&#x10f;" horiz-adv-x="688" 
d="M792 761l-66 -178h-86l44 178h108zM159 -10q-49 0 -81 17.5t-49 46.5t-20 66.5t5 78.5l32 160q12 59 34.5 99t55 64t74.5 34t92 10q36 0 70.5 -7t60.5 -21l41 206l150 30l-150 -774h-119l-5 47q-40 -27 -85.5 -42t-105.5 -15zM411 426q-17 14 -44.5 20.5t-50.5 6.5
q-52 0 -84 -24t-45 -91l-26 -134q-9 -46 4 -71.5t56 -25.5q30 0 65.5 9t70.5 30z" />
    <glyph glyph-name="Dcroat" unicode="&#x110;" horiz-adv-x="712" 
d="M14 435h64l61 315h288q84 0 139 -19.5t84.5 -60t35 -101.5t-10.5 -145l-31 -156q-16 -80 -43.5 -132t-71 -82t-105.5 -42t-146 -12h-284l64 334h-64zM263 621l-37 -186h185l-20 -101h-184l-40 -205h124q55 0 92 11.5t60.5 33.5t37 55t21.5 76l28 139q8 41 7.5 74
t-15.5 56t-46 35t-85 12h-128z" />
    <glyph glyph-name="dcroat" unicode="&#x111;" horiz-adv-x="617" 
d="M335 689h128l11 55l150 30l-17 -85h59l-17 -89h-59l-116 -600h-119l-5 47q-40 -27 -85.5 -42t-105.5 -15q-49 0 -81 17.5t-49 46.5t-20 66.5t5 78.5l29 146q12 59 34.5 99t55 64t74.5 34t92 10q36 0 70.5 -7t60.5 -21l15 76h-127zM408 412q-17 14 -44.5 20.5t-50.5 6.5
q-52 0 -84 -24t-45 -91l-23 -120q-9 -46 4 -71.5t56 -25.5q30 0 65.5 9t70.5 30z" />
    <glyph glyph-name="Emacron" unicode="&#x112;" horiz-adv-x="598" 
d="M617 750l-24 -125h-329l-35 -179h298l-24 -124h-298l-39 -197h344l-23 -125h-493l145 750h478zM268 927h291l-19 -94h-291z" />
    <glyph glyph-name="emacron" unicode="&#x113;" horiz-adv-x="572" 
d="M503 225h-347l-2 -11q-13 -64 15 -90t106 -26q32 0 77 5t85 19l-20 -107q-37 -14 -86 -20t-91 -6q-270 0 -219 265l13 67q13 69 40 116t63.5 75.5t81.5 41t96 12.5q55 0 98.5 -15t71 -48t36.5 -86t-6 -129zM384 320l4 19q9 52 -8.5 84.5t-73.5 32.5q-57 0 -88.5 -32.5
t-41.5 -85.5l-3 -18h211zM207 727h291l-19 -94h-291z" />
    <glyph glyph-name="Ebreve" unicode="&#x114;" horiz-adv-x="598" 
d="M617 750l-24 -125h-329l-35 -179h298l-24 -124h-298l-39 -197h344l-23 -125h-493l145 750h478zM397 804q-33 0 -57 11.5t-39 31t-21 46t-3 57.5h80q-2 -30 8.5 -45.5t38.5 -15.5q29 0 46 16t26 45h86q-13 -64 -55 -105t-110 -41z" />
    <glyph glyph-name="ebreve" unicode="&#x115;" horiz-adv-x="572" 
d="M503 225h-347l-2 -11q-13 -64 15 -90t106 -26q32 0 77 5t85 19l-20 -107q-37 -14 -86 -20t-91 -6q-270 0 -219 265l13 67q13 69 40 116t63.5 75.5t81.5 41t96 12.5q55 0 98.5 -15t71 -48t36.5 -86t-6 -129zM384 320l4 19q9 52 -8.5 84.5t-73.5 32.5q-57 0 -88.5 -32.5
t-41.5 -85.5l-3 -18h211zM332 604q-33 0 -57 11.5t-39 31t-21 46t-3 57.5h80q-2 -30 8.5 -45.5t38.5 -15.5q29 0 46 16t26 45h86q-13 -64 -55 -105t-110 -41z" />
    <glyph glyph-name="Edotaccent" unicode="&#x116;" horiz-adv-x="598" 
d="M617 750l-24 -125h-329l-35 -179h298l-24 -124h-298l-39 -197h344l-23 -125h-493l145 750h478zM362 930h106l-23 -118h-106z" />
    <glyph glyph-name="edotaccent" unicode="&#x117;" horiz-adv-x="572" 
d="M503 225h-347l-2 -11q-13 -64 15 -90t106 -26q32 0 77 5t85 19l-20 -107q-37 -14 -86 -20t-91 -6q-270 0 -219 265l13 67q13 69 40 116t63.5 75.5t81.5 41t96 12.5q55 0 98.5 -15t71 -48t36.5 -86t-6 -129zM384 320l4 19q9 52 -8.5 84.5t-73.5 32.5q-57 0 -88.5 -32.5
t-41.5 -85.5l-3 -18h211zM297 730h106l-23 -118h-106z" />
    <glyph glyph-name="Eogonek" unicode="&#x118;" horiz-adv-x="598" 
d="M322 -228q-35 0 -59 8.5t-38.5 22.5t-19 33t-0.5 40l2 11q3 19 15.5 37t29.5 33t37 26t40 17h-335l145 750h478l-24 -125h-329l-35 -179h298l-24 -124h-298l-39 -197h344l-23 -125h-58q-21 -10 -39.5 -22.5t-33 -26t-24 -27.5t-11.5 -27l-1 -6q-3 -20 8.5 -26.5
t33.5 -6.5q15 0 33 2t29 5l-17 -82q-14 -4 -36 -7.5t-49 -3.5z" />
    <glyph glyph-name="eogonek" unicode="&#x119;" horiz-adv-x="572" 
d="M503 225h-347l-2 -11q-13 -64 15 -90t106 -26q32 0 77 5t85 19l-20 -107q-3 -2 -6.5 -2.5t-6.5 -1.5q-21 -10 -41.5 -23.5t-37.5 -28.5t-28.5 -30.5t-14.5 -30.5l-2 -10q-4 -20 9 -25t35 -5q15 0 32 2t28 5l-17 -82q-14 -4 -34.5 -7.5t-47.5 -3.5q-71 0 -100 30.5
t-21 72.5l2 11q6 33 33.5 59.5t62.5 43.5h-22q-270 0 -219 265l13 67q13 69 40 116t63.5 75.5t81.5 41t96 12.5q55 0 98.5 -15t71 -48t36.5 -86t-6 -129zM384 320l4 19q9 52 -8.5 84.5t-73.5 32.5q-57 0 -88.5 -32.5t-41.5 -85.5l-3 -18h211z" />
    <glyph glyph-name="Ecaron" unicode="&#x11a;" horiz-adv-x="598" 
d="M617 750l-24 -125h-329l-35 -179h298l-24 -124h-298l-39 -197h344l-23 -125h-493l145 750h478zM440 792h-104l-72 161h92l44 -78l74 78h102z" />
    <glyph glyph-name="ecaron" unicode="&#x11b;" horiz-adv-x="572" 
d="M503 225h-347l-2 -11q-13 -64 15 -90t106 -26q32 0 77 5t85 19l-20 -107q-37 -14 -86 -20t-91 -6q-270 0 -219 265l13 67q13 69 40 116t63.5 75.5t81.5 41t96 12.5q55 0 98.5 -15t71 -48t36.5 -86t-6 -129zM384 320l4 19q9 52 -8.5 84.5t-73.5 32.5q-57 0 -88.5 -32.5
t-41.5 -85.5l-3 -18h211zM388 592h-104l-72 161h92l44 -78l74 78h102z" />
    <glyph glyph-name="Gcircumflex" unicode="&#x11c;" horiz-adv-x="677" 
d="M621 611q-32 9 -83.5 14t-98.5 5q-59 0 -98.5 -12t-65 -35.5t-40.5 -58t-24 -80.5l-26 -132q-9 -45 -8.5 -80.5t17.5 -60t54 -37.5t101 -13q20 0 43 1.5t47 6.5l34 176h-127l23 117h269l-77 -398q-55 -19 -123 -26.5t-130 -7.5q-175 0 -240.5 80.5t-30.5 257.5l22 117
q19 94 51 155t79.5 96.5t111.5 49.5t146 14q25 0 53 -1.5t54.5 -4.5t50 -7.5t41.5 -11.5zM410 962h105l72 -161h-92l-43 77l-76 -77h-100z" />
    <glyph glyph-name="gcircumflex" unicode="&#x11d;" horiz-adv-x="612" 
d="M156 -6q-47 0 -78 15.5t-48 42t-21 62t4 76.5l33 166q12 59 34 99.5t54.5 65t74 35t91.5 10.5q19 0 40.5 -2.5t42.5 -7.5t40.5 -13.5t34.5 -21.5l15 31h109l-109 -559q-10 -52 -28 -92t-50 -67.5t-81.5 -42t-121.5 -14.5q-41 0 -84 4.5t-74 13.5l21 108q33 -8 66.5 -11.5
t71.5 -3.5q66 0 97.5 23.5t42.5 77.5l11 57q-39 -25 -83.5 -38.5t-104.5 -13.5zM412 426q-17 14 -42.5 20.5t-48.5 6.5q-52 0 -86 -24t-47 -91l-25 -130q-9 -46 4 -71.5t56 -25.5q30 0 65 9t70 30zM329 762h105l72 -161h-92l-43 77l-76 -77h-100z" />
    <glyph glyph-name="Gbreve" unicode="&#x11e;" horiz-adv-x="677" 
d="M621 611q-32 9 -83.5 14t-98.5 5q-59 0 -98.5 -12t-65 -35.5t-40.5 -58t-24 -80.5l-26 -132q-9 -45 -8.5 -80.5t17.5 -60t54 -37.5t101 -13q20 0 43 1.5t47 6.5l34 176h-127l23 117h269l-77 -398q-55 -19 -123 -26.5t-130 -7.5q-175 0 -240.5 80.5t-30.5 257.5l22 117
q19 94 51 155t79.5 96.5t111.5 49.5t146 14q25 0 53 -1.5t54.5 -4.5t50 -7.5t41.5 -11.5zM442 804q-33 0 -57 11.5t-39 31t-21 46t-3 57.5h80q-2 -30 8.5 -45.5t38.5 -15.5q29 0 46 16t26 45h86q-13 -64 -55 -105t-110 -41z" />
    <glyph glyph-name="gbreve" unicode="&#x11f;" horiz-adv-x="612" 
d="M156 -6q-47 0 -78 15.5t-48 42t-21 62t4 76.5l33 166q12 59 34 99.5t54.5 65t74 35t91.5 10.5q19 0 40.5 -2.5t42.5 -7.5t40.5 -13.5t34.5 -21.5l15 31h109l-109 -559q-10 -52 -28 -92t-50 -67.5t-81.5 -42t-121.5 -14.5q-41 0 -84 4.5t-74 13.5l21 108q33 -8 66.5 -11.5
t71.5 -3.5q66 0 97.5 23.5t42.5 77.5l11 57q-39 -25 -83.5 -38.5t-104.5 -13.5zM412 426q-17 14 -42.5 20.5t-48.5 6.5q-52 0 -86 -24t-47 -91l-25 -130q-9 -46 4 -71.5t56 -25.5q30 0 65 9t70 30zM356 604q-33 0 -57 11.5t-39 31t-21 46t-3 57.5h80q-2 -30 8.5 -45.5
t38.5 -15.5q29 0 46 16t26 45h86q-13 -64 -55 -105t-110 -41z" />
    <glyph glyph-name="Gdotaccent" unicode="&#x120;" horiz-adv-x="677" 
d="M621 611q-32 9 -83.5 14t-98.5 5q-59 0 -98.5 -12t-65 -35.5t-40.5 -58t-24 -80.5l-26 -132q-9 -45 -8.5 -80.5t17.5 -60t54 -37.5t101 -13q20 0 43 1.5t47 6.5l34 176h-127l23 117h269l-77 -398q-55 -19 -123 -26.5t-130 -7.5q-175 0 -240.5 80.5t-30.5 257.5l22 117
q19 94 51 155t79.5 96.5t111.5 49.5t146 14q25 0 53 -1.5t54.5 -4.5t50 -7.5t41.5 -11.5zM402 930h106l-23 -118h-106z" />
    <glyph glyph-name="gdotaccent" unicode="&#x121;" horiz-adv-x="612" 
d="M156 -6q-47 0 -78 15.5t-48 42t-21 62t4 76.5l33 166q12 59 34 99.5t54.5 65t74 35t91.5 10.5q19 0 40.5 -2.5t42.5 -7.5t40.5 -13.5t34.5 -21.5l15 31h109l-109 -559q-10 -52 -28 -92t-50 -67.5t-81.5 -42t-121.5 -14.5q-41 0 -84 4.5t-74 13.5l21 108q33 -8 66.5 -11.5
t71.5 -3.5q66 0 97.5 23.5t42.5 77.5l11 57q-39 -25 -83.5 -38.5t-104.5 -13.5zM412 426q-17 14 -42.5 20.5t-48.5 6.5q-52 0 -86 -24t-47 -91l-25 -130q-9 -46 4 -71.5t56 -25.5q30 0 65 9t70 30zM315 730h106l-23 -118h-106z" />
    <glyph glyph-name="uni0122" unicode="&#x122;" horiz-adv-x="677" 
d="M621 611q-32 9 -83.5 14t-98.5 5q-59 0 -98.5 -12t-65 -35.5t-40.5 -58t-24 -80.5l-26 -132q-9 -45 -8.5 -80.5t17.5 -60t54 -37.5t101 -13q20 0 43 1.5t47 6.5l34 176h-127l23 117h269l-77 -398q-55 -19 -123 -26.5t-130 -7.5q-175 0 -240.5 80.5t-30.5 257.5l22 117
q19 94 51 155t79.5 96.5t111.5 49.5t146 14q25 0 53 -1.5t54.5 -4.5t50 -7.5t41.5 -11.5zM277 -50h130l-100 -187h-105z" />
    <glyph glyph-name="uni0123" unicode="&#x123;" horiz-adv-x="612" 
d="M156 -6q-47 0 -78 15.5t-48 42t-21 62t4 76.5l33 166q12 59 34 99.5t54.5 65t74 35t91.5 10.5q19 0 40.5 -2.5t42.5 -7.5t40.5 -13.5t34.5 -21.5l15 31h109l-109 -559q-10 -52 -28 -92t-50 -67.5t-81.5 -42t-121.5 -14.5q-41 0 -84 4.5t-74 13.5l21 108q33 -8 66.5 -11.5
t71.5 -3.5q66 0 97.5 23.5t42.5 77.5l11 57q-39 -25 -83.5 -38.5t-104.5 -13.5zM412 426q-17 14 -42.5 20.5t-48.5 6.5q-52 0 -86 -24t-47 -91l-25 -130q-9 -46 4 -71.5t56 -25.5q30 0 65 9t70 30zM377 608h-130l100 187h105z" />
    <glyph glyph-name="Hcircumflex" unicode="&#x124;" horiz-adv-x="717" 
d="M724 750l-145 -750h-150l61 317h-286l-61 -317h-149l145 750h149l-57 -295h286l57 295h150zM419 962h105l72 -161h-92l-43 77l-76 -77h-100z" />
    <glyph glyph-name="hcircumflex" unicode="&#x125;" horiz-adv-x="607" 
d="M463 0h-146l69 359q8 40 1 60t-45 20q-29 0 -63 -10t-66 -27l-77 -402h-146l145 744l151 30l-50 -255q38 21 85 34t85 13q45 0 73.5 -15t43.5 -41t17.5 -60t-4.5 -71zM376 962h105l72 -161h-92l-43 77l-76 -77h-100z" />
    <glyph glyph-name="Hbar" unicode="&#x126;" horiz-adv-x="717" 
d="M39 611h73l27 139h149l-28 -139h286l28 139h150l-27 -139h73l-20 -103h-73l-98 -508h-150l53 274h-286l-53 -274h-149l98 508h-73zM508 412l18 96h-286l-18 -96h286z" />
    <glyph glyph-name="hbar" unicode="&#x127;" horiz-adv-x="594" 
d="M58 683h65l12 61l151 30l-18 -91h121l-18 -89h-120l-17 -89q38 21 85 34t85 13q45 0 73.5 -15t43.5 -41t17.5 -60t-4.5 -71l-71 -365h-146l67 345q8 40 1 60t-45 20q-29 0 -63 -10t-66 -27l-75 -388h-146l116 594h-66z" />
    <glyph glyph-name="Itilde" unicode="&#x128;" horiz-adv-x="281" 
d="M143 0h-149l145 750h149zM271 803q-23 0 -36.5 7.5t-24 17t-19.5 17t-21 7.5q-16 0 -26 -14.5t-17 -34.5h-88q7 24 17.5 49t26.5 46t37 34t49 13q23 0 37.5 -7.5t25.5 -17t20 -17t20 -7.5q19 0 28 15.5t14 35.5h88q-5 -22 -15 -47.5t-25.5 -47t-38 -35.5t-52.5 -14z" />
    <glyph glyph-name="itilde" unicode="&#x129;" horiz-adv-x="276" 
d="M136 0h-146l107 552h146zM235 603q-23 0 -36.5 7.5t-24 17t-19.5 17t-21 7.5q-16 0 -26 -14.5t-17 -34.5h-88q7 24 17.5 49t26.5 46t37 34t49 13q23 0 37.5 -7.5t25.5 -17t20 -17t20 -7.5q19 0 28 15.5t14 35.5h88q-5 -22 -15 -47.5t-25.5 -47t-38 -35.5t-52.5 -14z" />
    <glyph glyph-name="Imacron" unicode="&#x12a;" horiz-adv-x="281" 
d="M143 0h-149l145 750h149zM96 929h291l-19 -98h-291z" />
    <glyph glyph-name="imacron" unicode="&#x12b;" horiz-adv-x="276" 
d="M136 0h-146l107 552h146zM58 727h291l-19 -94h-291z" />
    <glyph glyph-name="Ibreve" unicode="&#x12c;" horiz-adv-x="281" 
d="M143 0h-149l145 750h149zM232 804q-33 0 -57 11.5t-39 31t-21 46t-3 57.5h80q-2 -30 8.5 -45.5t38.5 -15.5q29 0 46 16t26 45h86q-13 -64 -55 -105t-110 -41z" />
    <glyph glyph-name="ibreve" unicode="&#x12d;" horiz-adv-x="276" 
d="M136 0h-146l107 552h146zM185 604q-33 0 -57 11.5t-39 31t-21 46t-3 57.5h80q-2 -30 8.5 -45.5t38.5 -15.5q29 0 46 16t26 45h86q-13 -64 -55 -105t-110 -41z" />
    <glyph glyph-name="Iogonek" unicode="&#x12e;" horiz-adv-x="281" 
d="M36 -228q-35 0 -59 8.5t-38.5 22.5t-19 33t-0.5 40l2 11q3 19 15.5 37t29.5 33t37 26t40 17h-49l145 750h149l-145 -750q-21 -10 -39.5 -22.5t-33 -26t-24 -27.5t-11.5 -27l-1 -6q-3 -20 8.5 -26.5t33.5 -6.5q15 0 33 2t29 5l-17 -82q-14 -4 -36 -7.5t-49 -3.5z" />
    <glyph glyph-name="iogonek" unicode="&#x12f;" horiz-adv-x="276" 
d="M29 -228q-35 0 -59 8.5t-38.5 22.5t-19 33t-0.5 40l2 11q3 19 15.5 37t29.5 33t37 26t40 17h-46l107 552h146l-107 -552q-21 -10 -39.5 -22.5t-33 -26t-24 -27.5t-11.5 -27l-1 -6q-3 -20 8.5 -26.5t33.5 -6.5q15 0 33 2t29 5l-17 -82q-14 -4 -36 -7.5t-49 -3.5zM258 633
h-146l28 141h146z" />
    <glyph glyph-name="Idotaccent" unicode="&#x130;" horiz-adv-x="281" 
d="M143 0h-149l145 750h149zM195 930h106l-23 -118h-106z" />
    <glyph glyph-name="dotlessi" unicode="&#x131;" horiz-adv-x="276" 
d="M137 0h-146l107 552h146z" />
    <glyph glyph-name="IJ" unicode="&#x132;" horiz-adv-x="717" 
d="M143 0h-149l145 750h149zM726 750l-105 -541q-11 -53 -26 -93.5t-41.5 -68.5t-67.5 -42.5t-104 -14.5q-15 0 -34 1.5t-39.5 4.5t-39 8t-31.5 12l26 130q27 -11 55.5 -16t51.5 -5q48 0 70.5 21t33.5 77l102 527h149z" />
    <glyph glyph-name="ij" unicode="&#x133;" horiz-adv-x="566" 
d="M136 0h-146l107 552h146zM258 633h-146l28 141h146zM533 552l-118 -601q-10 -52 -25.5 -85.5t-39 -53t-55.5 -27.5t-76 -8q-31 0 -63.5 3t-56.5 10l23 118q20 -4 37.5 -5.5t35.5 -1.5q19 0 32 2.5t22 10.5t14.5 23t10.5 39l113 576h146zM548 633h-146l28 141h146z" />
    <glyph glyph-name="Jcircumflex" unicode="&#x134;" horiz-adv-x="436" 
d="M445 750l-105 -541q-11 -53 -26 -93.5t-41.5 -68.5t-67.5 -42.5t-104 -14.5q-15 0 -34 1.5t-39.5 4.5t-39 8t-31.5 12l26 130q27 -11 55.5 -16t51.5 -5q48 0 70.5 21t33.5 77l102 527h149zM358 962h105l72 -161h-92l-43 77l-76 -77h-100z" />
    <glyph glyph-name="jcircumflex" unicode="&#x135;" horiz-adv-x="298" 
d="M262 552l-118 -601q-10 -52 -25.5 -85.5t-39 -53t-55.5 -27.5t-76 -8q-31 0 -63.5 3t-56.5 10l23 118q20 -4 37.5 -5.5t35.5 -1.5q19 0 32 2.5t22 10.5t14.5 23t10.5 39l113 576h146zM172 762h105l72 -161h-92l-43 77l-76 -77h-100z" />
    <glyph glyph-name="uni0136" unicode="&#x136;" horiz-adv-x="698" 
d="M418 380l193 -380h-169l-151 316h-87l-61 -316h-149l145 750h149l-60 -309h76l248 309h176zM261 -50h130l-100 -187h-105z" />
    <glyph glyph-name="uni0137" unicode="&#x137;" horiz-adv-x="573" 
d="M285 774l-81 -416h49l175 194h170l-234 -257l133 -295h-160l-96 236h-61l-45 -236h-145l145 744zM187 -50h130l-100 -187h-105z" />
    <glyph glyph-name="kgreenlandic" unicode="&#x138;" horiz-adv-x="573" 
d="M242 552l-41 -210h58l176 210h161l-234 -269l135 -283h-172l-97 220h-51l-42 -220h-145l107 552h145z" />
    <glyph glyph-name="Lacute" unicode="&#x139;" horiz-adv-x="567" 
d="M288 750l-120 -616h333l-25 -134h-482l145 750h149zM272 945h159l-139 -142h-135z" />
    <glyph glyph-name="lacute" unicode="&#x13a;" horiz-adv-x="276" 
d="M-10 0l145 744l151 30l-150 -774h-146zM263 945h159l-139 -142h-135z" />
    <glyph glyph-name="uni013B" unicode="&#x13b;" horiz-adv-x="567" 
d="M288 750l-120 -616h333l-25 -134h-482l145 750h149zM208 -50h130l-100 -187h-105z" />
    <glyph glyph-name="uni013C" unicode="&#x13c;" horiz-adv-x="276" 
d="M-14 0l145 744l151 30l-150 -774h-146zM4 -50h130l-100 -187h-105z" />
    <glyph glyph-name="Lcaron" unicode="&#x13d;" horiz-adv-x="567" 
d="M455 750l-71 -192h-85l49 192h107zM288 750l-120 -616h333l-25 -134h-482l145 750h149z" />
    <glyph glyph-name="lcaron" unicode="&#x13e;" horiz-adv-x="345" 
d="M449 761l-66 -178h-85l44 178h107zM-14 0l145 744l151 30l-150 -774h-146z" />
    <glyph glyph-name="Ldot" unicode="&#x13f;" horiz-adv-x="567" 
d="M288 750l-120 -616h333l-25 -134h-482l145 750h149zM424 482h106l-23 -118h-106z" />
    <glyph glyph-name="ldot" unicode="&#x140;" horiz-adv-x="389" 
d="M-10 0l145 744l151 30l-150 -774h-146zM298 457h106l-23 -118h-106z" />
    <glyph glyph-name="Lslash" unicode="&#x141;" horiz-adv-x="577" 
d="M298 750l-62 -317l238 103l-20 -104l-238 -103l-38 -195h333l-25 -134h-482l50 259l-69 -30l21 104l68 29l75 388h149z" />
    <glyph glyph-name="lslash" unicode="&#x142;" horiz-adv-x="344" 
d="M2 355l94 55l65 334l151 30l-52 -267l94 56l-22 -114l-94 -55l-76 -394h-146l58 297l-95 -56z" />
    <glyph glyph-name="Nacute" unicode="&#x143;" horiz-adv-x="708" 
d="M570 0h-155l-160 457q-6 17 -11.5 36t-10.5 46l-104 -539h-135l145 750h154l162 -475q6 -18 9.5 -31.5t9.5 -38.5l106 545h135zM478 945h159l-139 -142h-135z" />
    <glyph glyph-name="nacute" unicode="&#x144;" horiz-adv-x="613" 
d="M463 0h-146l69 359q4 20 4.5 35t-4 25t-15 15t-29.5 5q-28 0 -62 -9.5t-66 -29.5l-78 -400h-146l107 552h114l1 -45q46 28 99 43.5t94 15.5q48 0 77 -16t43 -43t15.5 -62t-5.5 -72zM400 745h159l-139 -142h-135z" />
    <glyph glyph-name="uni0145" unicode="&#x145;" horiz-adv-x="708" 
d="M570 0h-155l-160 457q-6 17 -11.5 36t-10.5 46l-104 -539h-135l145 750h154l162 -475q6 -18 9.5 -31.5t9.5 -38.5l106 545h135zM245 -50h130l-100 -187h-105z" />
    <glyph glyph-name="uni0146" unicode="&#x146;" horiz-adv-x="596" 
d="M463 0h-146l69 359q4 20 4.5 35t-4 25t-15 15t-29.5 5q-28 0 -62 -9.5t-66 -29.5l-78 -400h-146l107 552h114l1 -45q46 28 99 43.5t94 15.5q48 0 77 -16t43 -43t15.5 -62t-5.5 -72zM179 -50h130l-100 -187h-105z" />
    <glyph glyph-name="Ncaron" unicode="&#x147;" horiz-adv-x="708" 
d="M570 0h-155l-160 457q-6 17 -11.5 36t-10.5 46l-104 -539h-135l145 750h154l162 -475q6 -18 9.5 -31.5t9.5 -38.5l106 545h135zM490 792h-104l-72 161h92l44 -78l74 78h102z" />
    <glyph glyph-name="ncaron" unicode="&#x148;" horiz-adv-x="599" 
d="M463 0h-146l69 359q4 20 4.5 35t-4 25t-15 15t-29.5 5q-28 0 -62 -9.5t-66 -29.5l-78 -400h-146l107 552h114l1 -45q46 28 99 43.5t94 15.5q48 0 77 -16t43 -43t15.5 -62t-5.5 -72zM409 592h-104l-72 161h92l44 -78l74 78h102z" />
    <glyph glyph-name="napostrophe" unicode="&#x149;" horiz-adv-x="627" 
d="M158 700l-83 -207h-85l62 207h106zM494 0h-146l69 359q4 20 4.5 35t-4 25t-15 15t-29.5 5q-28 0 -62 -9.5t-66 -29.5l-78 -400h-146l107 552h114l1 -45q46 28 99 43.5t94 15.5q48 0 77 -16t43 -43t15.5 -62t-5.5 -72z" />
    <glyph glyph-name="Eng" unicode="&#x14a;" horiz-adv-x="708" 
d="M560 -44q-10 -53 -25.5 -87.5t-39 -54.5t-57 -28.5t-79.5 -8.5q-28 0 -61 3t-57 10l23 118q20 -4 37.5 -5.5t36.5 -1.5t34 2.5t25.5 10.5t18 23t12.5 40l-173 480q-6 17 -11.5 36t-10.5 46l-104 -539h-135l145 750h154l162 -475q6 -18 9.5 -31.5t9.5 -38.5l106 545h135z
" />
    <glyph glyph-name="eng" unicode="&#x14b;" horiz-adv-x="596" 
d="M386 359q4 20 4.5 35t-4 25t-15 15t-29.5 5q-28 0 -62 -9.5t-66 -29.5l-78 -400h-146l107 552h114l1 -45q46 28 99 43.5t94 15.5q48 0 77 -16t43 -43t15.5 -62t-5.5 -72l-82 -417q-11 -53 -25.5 -87.5t-37 -54.5t-54.5 -28.5t-76 -8.5q-26 0 -53 3t-51 10l23 118
q20 -4 33.5 -5.5t27.5 -1.5q16 0 27.5 2.5t19.5 10.5t13.5 23t10.5 39z" />
    <glyph glyph-name="Omacron" unicode="&#x14c;" horiz-adv-x="735" 
d="M676 293q-32 -162 -128 -234t-253 -72q-80 0 -136.5 24t-89 69t-41 110t8.5 147l24 120q16 81 49 138.5t81.5 95t112 55t139.5 17.5q77 0 133 -24t89 -69t42 -110t-7 -147zM551 426q21 110 -13 158.5t-120 48.5q-88 0 -140.5 -48t-73.5 -159l-20 -102q-22 -111 12 -159
t121 -48q86 0 139 48t75 159zM329 927h291l-19 -94h-291z" />
    <glyph glyph-name="omacron" unicode="&#x14d;" horiz-adv-x="589" 
d="M516 224q-24 -124 -97.5 -180t-198.5 -56q-63 0 -106.5 19t-68.5 54.5t-31 85t6 111.5l15 76q23 118 97 175t196 57q63 0 107 -19t69.5 -53.5t32 -84t-5.5 -109.5zM388 308q15 79 -6 111t-72 32q-52 0 -86 -32t-49 -111l-12 -62q-16 -79 6 -110.5t74 -31.5q51 0 84 31.5
t49 110.5zM218 727h291l-19 -94h-291z" />
    <glyph glyph-name="Obreve" unicode="&#x14e;" horiz-adv-x="735" 
d="M676 293q-32 -162 -128 -234t-253 -72q-80 0 -136.5 24t-89 69t-41 110t8.5 147l24 120q16 81 49 138.5t81.5 95t112 55t139.5 17.5q77 0 133 -24t89 -69t42 -110t-7 -147zM551 426q21 110 -13 158.5t-120 48.5q-88 0 -140.5 -48t-73.5 -159l-20 -102q-22 -111 12 -159
t121 -48q86 0 139 48t75 159zM456 804q-33 0 -57 11.5t-39 31t-21 46t-3 57.5h80q-2 -30 8.5 -45.5t38.5 -15.5q29 0 46 16t26 45h86q-13 -64 -55 -105t-110 -41z" />
    <glyph glyph-name="obreve" unicode="&#x14f;" horiz-adv-x="589" 
d="M516 224q-24 -124 -97.5 -180t-198.5 -56q-63 0 -106.5 19t-68.5 54.5t-31 85t6 111.5l15 76q23 118 97 175t196 57q63 0 107 -19t69.5 -53.5t32 -84t-5.5 -109.5zM388 308q15 79 -6 111t-72 32q-52 0 -86 -32t-49 -111l-12 -62q-16 -79 6 -110.5t74 -31.5q51 0 84 31.5
t49 110.5zM345 604q-33 0 -57 11.5t-39 31t-21 46t-3 57.5h80q-2 -30 8.5 -45.5t38.5 -15.5q29 0 46 16t26 45h86q-13 -64 -55 -105t-110 -41z" />
    <glyph glyph-name="Ohungarumlaut" unicode="&#x150;" horiz-adv-x="735" 
d="M676 293q-32 -162 -128 -234t-253 -72q-80 0 -136.5 24t-89 69t-41 110t8.5 147l24 120q16 81 49 138.5t81.5 95t112 55t139.5 17.5q77 0 133 -24t89 -69t42 -110t-7 -147zM551 426q21 110 -13 158.5t-120 48.5q-88 0 -140.5 -48t-73.5 -159l-20 -102q-22 -111 12 -159
t121 -48q86 0 139 48t75 159zM559 945h112l-96 -142h-90zM394 945h112l-96 -142h-92z" />
    <glyph glyph-name="ohungarumlaut" unicode="&#x151;" horiz-adv-x="589" 
d="M516 224q-24 -124 -97.5 -180t-198.5 -56q-63 0 -106.5 19t-68.5 54.5t-31 85t6 111.5l15 76q23 118 97 175t196 57q63 0 107 -19t69.5 -53.5t32 -84t-5.5 -109.5zM388 308q15 79 -6 111t-72 32q-52 0 -86 -32t-49 -111l-12 -62q-16 -79 6 -110.5t74 -31.5q51 0 84 31.5
t49 110.5zM452 745h112l-96 -142h-90zM287 745h112l-96 -142h-92z" />
    <glyph glyph-name="OE" unicode="&#x152;" horiz-adv-x="1006" 
d="M1025 750l-24 -125h-329l-35 -179h297l-24 -124h-297l-39 -197h343l-23 -125h-602q-156 0 -222 89t-35 252l24 120q16 81 49 136t81 89t111 49t138 15h587zM182 324q-11 -56 -4.5 -94t26.5 -61t53.5 -33.5t76.5 -10.5h90l98 500h-91q-93 0 -150.5 -44.5t-78.5 -154.5z
" />
    <glyph glyph-name="oe" unicode="&#x153;" horiz-adv-x="923" 
d="M862 225h-347l-2 -11q-13 -64 15 -90t106 -26q32 0 77 5t85 19l-20 -107q-37 -14 -86 -20t-91 -6q-65 0 -110 17.5t-72 49.5q-35 -32 -83.5 -50t-113.5 -18q-63 0 -106.5 19t-68.5 54.5t-31 85t6 111.5l15 76q23 118 97 175t196 57q68 0 106 -21t61 -52q30 32 77 52.5
t102 20.5t98.5 -15t71 -48t36.5 -86t-6 -129zM388 308q15 79 -6 111t-72 32q-52 0 -86 -32t-49 -111l-12 -62q-16 -79 6 -110.5t74 -31.5q51 0 84 31.5t49 110.5zM743 320l4 19q9 52 -8.5 84.5t-73.5 32.5q-57 0 -88.5 -32.5t-41.5 -85.5l-3 -18h211z" />
    <glyph glyph-name="Racute" unicode="&#x154;" horiz-adv-x="664" 
d="M139 750h291q59 0 104 -10.5t72.5 -35.5t37 -66.5t-2.5 -102.5l-12 -61q-14 -74 -47.5 -109t-89.5 -52l83 -313h-154l-75 293h-147l-56 -293h-149zM265 635l-44 -230h106q40 0 67.5 4t46 14.5t29 29.5t16.5 48l9 46q9 48 -16 68t-91 20h-123zM447 945h159l-139 -142h-135
z" />
    <glyph glyph-name="racute" unicode="&#x155;" horiz-adv-x="416" 
d="M389 429q-51 -3 -100 -18.5t-82 -38.5l-72 -372h-145l107 552h113l-3 -71q15 13 37.5 27.5t50 26.5t58.5 20.5t63 10.5zM286 745h159l-139 -142h-135z" />
    <glyph glyph-name="uni0156" unicode="&#x156;" horiz-adv-x="664" 
d="M139 750h291q59 0 104 -10.5t72.5 -35.5t37 -66.5t-2.5 -102.5l-12 -61q-14 -74 -47.5 -109t-89.5 -52l83 -313h-154l-75 293h-147l-56 -293h-149zM265 635l-44 -230h106q40 0 67.5 4t46 14.5t29 29.5t16.5 48l9 46q9 48 -16 68t-91 20h-123zM236 -50h130l-100 -187h-105
z" />
    <glyph glyph-name="uni0157" unicode="&#x157;" horiz-adv-x="416" 
d="M389 429q-51 -3 -100 -18.5t-82 -38.5l-72 -372h-145l107 552h113l-3 -71q15 13 37.5 27.5t50 26.5t58.5 20.5t63 10.5zM10 -50h130l-100 -187h-105z" />
    <glyph glyph-name="Rcaron" unicode="&#x158;" horiz-adv-x="664" 
d="M139 750h291q59 0 104 -10.5t72.5 -35.5t37 -66.5t-2.5 -102.5l-12 -61q-14 -74 -47.5 -109t-89.5 -52l83 -313h-154l-75 293h-147l-56 -293h-149zM265 635l-44 -230h106q40 0 67.5 4t46 14.5t29 29.5t16.5 48l9 46q9 48 -16 68t-91 20h-123zM471 792h-104l-72 161h92
l44 -78l74 78h102z" />
    <glyph glyph-name="rcaron" unicode="&#x159;" horiz-adv-x="416" 
d="M389 429q-51 -3 -100 -18.5t-82 -38.5l-72 -372h-145l107 552h113l-3 -71q15 13 37.5 27.5t50 26.5t58.5 20.5t63 10.5zM316 592h-104l-72 161h92l44 -78l74 78h102z" />
    <glyph glyph-name="Sacute" unicode="&#x15a;" horiz-adv-x="600" 
d="M543 266q0 -141 -80.5 -208.5t-233.5 -67.5q-27 0 -59.5 2t-66 6t-66.5 11t-60 17l25 126q66 -23 122.5 -30t97.5 -7q46 0 77.5 7.5t50 22t26.5 36.5t8 51q0 13 -4 23t-15.5 19t-32 17.5t-53.5 17.5l-74 21q-64 18 -97.5 59t-33.5 114q0 131 80.5 194t228.5 63
q29 0 59 -1.5t57.5 -5t51 -8t40.5 -10.5l-23 -117q-37 11 -85 15.5t-90 4.5q-47 0 -79 -6.5t-51 -20t-27 -34.5t-8 -49q0 -32 23.5 -45.5t71.5 -27.5l73 -21q80 -23 113.5 -65.5t33.5 -102.5zM423 945h159l-139 -142h-135z" />
    <glyph glyph-name="sacute" unicode="&#x15b;" horiz-adv-x="471" 
d="M412 199q0 -105 -63.5 -157t-185.5 -52q-20 0 -45 1.5t-51.5 5t-52.5 9.5t-48 15l22 111q60 -20 104.5 -25t76.5 -5q61 0 82.5 17.5t21.5 56.5q0 17 -13 24.5t-50 16.5l-52 13q-66 17 -93 55t-27 84q0 105 62 151t189 46q50 0 89.5 -6t62.5 -14l-21 -107
q-27 8 -64.5 13.5t-69.5 5.5q-65 0 -89.5 -14.5t-24.5 -51.5q0 -17 15 -25t53 -19l52 -14q36 -10 59 -24t36.5 -31.5t19 -37.5t5.5 -42zM309 745h159l-139 -142h-135z" />
    <glyph glyph-name="Scircumflex" unicode="&#x15c;" horiz-adv-x="600" 
d="M543 266q0 -141 -80.5 -208.5t-233.5 -67.5q-27 0 -59.5 2t-66 6t-66.5 11t-60 17l25 126q66 -23 122.5 -30t97.5 -7q46 0 77.5 7.5t50 22t26.5 36.5t8 51q0 13 -4 23t-15.5 19t-32 17.5t-53.5 17.5l-74 21q-64 18 -97.5 59t-33.5 114q0 131 80.5 194t228.5 63
q29 0 59 -1.5t57.5 -5t51 -8t40.5 -10.5l-23 -117q-37 11 -85 15.5t-90 4.5q-47 0 -79 -6.5t-51 -20t-27 -34.5t-8 -49q0 -32 23.5 -45.5t71.5 -27.5l73 -21q80 -23 113.5 -65.5t33.5 -102.5zM371 962h105l72 -161h-92l-43 77l-76 -77h-100z" />
    <glyph glyph-name="scircumflex" unicode="&#x15d;" horiz-adv-x="471" 
d="M412 199q0 -105 -63.5 -157t-185.5 -52q-20 0 -45 1.5t-51.5 5t-52.5 9.5t-48 15l22 111q60 -20 104.5 -25t76.5 -5q61 0 82.5 17.5t21.5 56.5q0 17 -13 24.5t-50 16.5l-52 13q-66 17 -93 55t-27 84q0 105 62 151t189 46q50 0 89.5 -6t62.5 -14l-21 -107
q-27 8 -64.5 13.5t-69.5 5.5q-65 0 -89.5 -14.5t-24.5 -51.5q0 -17 15 -25t53 -19l52 -14q36 -10 59 -24t36.5 -31.5t19 -37.5t5.5 -42zM259 762h105l72 -161h-92l-43 77l-76 -77h-100z" />
    <glyph glyph-name="Scedilla" unicode="&#x15e;" horiz-adv-x="600" 
d="M175 -269q-23 0 -49 2t-46 6l16 78q14 -2 31.5 -3.5t39.5 -1.5q38 0 53 10.5t18 24.5l2 10q4 18 -10 27.5t-59 9.5h-21l19 98q-48 3 -99.5 11t-92.5 23l25 126q66 -23 122.5 -30t97.5 -7q46 0 77.5 7.5t50 22t26.5 36.5t8 51q0 13 -4 23t-15.5 19t-32 17.5t-53.5 17.5
l-74 21q-64 18 -97.5 59t-33.5 114q0 131 80.5 194t228.5 63q29 0 59 -1.5t57.5 -5t51 -8t40.5 -10.5l-23 -117q-37 11 -85 15.5t-90 4.5q-47 0 -79 -6.5t-51 -20t-27 -34.5t-8 -49q0 -32 23.5 -45.5t71.5 -27.5l73 -21q80 -23 113.5 -65.5t33.5 -102.5q0 -133 -71 -200
t-206 -75l-8 -41q31 -3 50 -13t28.5 -24t10.5 -32.5t-3 -38.5l-2 -10q-11 -57 -54.5 -79t-112.5 -22z" />
    <glyph glyph-name="scedilla" unicode="&#x15f;" horiz-adv-x="471" 
d="M113 -269q-23 0 -49 2t-46 6l16 78q14 -2 31.5 -3.5t39.5 -1.5q38 0 53 10.5t18 24.5l2 10q4 18 -10 27.5t-59 9.5h-21l19 98q-35 3 -72 9.5t-69 19.5l22 111q60 -20 104.5 -25t76.5 -5q61 0 82.5 17.5t21.5 56.5q0 17 -13 24.5t-50 16.5l-52 13q-66 17 -93 55t-27 84
q0 105 62 151t189 46q50 0 89.5 -6t62.5 -14l-21 -107q-27 8 -64.5 13.5t-69.5 5.5q-65 0 -89.5 -14.5t-24.5 -51.5q0 -17 15 -25t53 -19l52 -14q36 -10 59 -24t36.5 -31.5t19 -37.5t5.5 -42q0 -96 -53 -147.5t-155 -59.5l-8 -42q31 -3 50 -13t28.5 -24t10.5 -32.5t-3 -38.5
l-2 -10q-11 -57 -54.5 -79t-112.5 -22z" />
    <glyph glyph-name="Scaron" unicode="&#x160;" horiz-adv-x="600" 
d="M543 266q0 -141 -80.5 -208.5t-233.5 -67.5q-27 0 -59.5 2t-66 6t-66.5 11t-60 17l25 126q66 -23 122.5 -30t97.5 -7q46 0 77.5 7.5t50 22t26.5 36.5t8 51q0 13 -4 23t-15.5 19t-32 17.5t-53.5 17.5l-74 21q-64 18 -97.5 59t-33.5 114q0 131 80.5 194t228.5 63
q29 0 59 -1.5t57.5 -5t51 -8t40.5 -10.5l-23 -117q-37 11 -85 15.5t-90 4.5q-47 0 -79 -6.5t-51 -20t-27 -34.5t-8 -49q0 -32 23.5 -45.5t71.5 -27.5l73 -21q80 -23 113.5 -65.5t33.5 -102.5zM434 792h-104l-72 161h92l44 -78l74 78h102z" />
    <glyph glyph-name="scaron" unicode="&#x161;" horiz-adv-x="471" 
d="M412 199q0 -105 -63.5 -157t-185.5 -52q-20 0 -45 1.5t-51.5 5t-52.5 9.5t-48 15l22 111q60 -20 104.5 -25t76.5 -5q61 0 82.5 17.5t21.5 56.5q0 17 -13 24.5t-50 16.5l-52 13q-66 17 -93 55t-27 84q0 105 62 151t189 46q50 0 89.5 -6t62.5 -14l-21 -107
q-27 8 -64.5 13.5t-69.5 5.5q-65 0 -89.5 -14.5t-24.5 -51.5q0 -17 15 -25t53 -19l52 -14q36 -10 59 -24t36.5 -31.5t19 -37.5t5.5 -42zM333 592h-104l-72 161h92l44 -78l74 78h102z" />
    <glyph glyph-name="uni0162" unicode="&#x162;" horiz-adv-x="623" 
d="M196 -269q-23 0 -49 2t-46 6l16 78q14 -2 31.5 -3.5t39.5 -1.5q38 0 53 10.5t18 24.5l2 10q4 18 -10 27.5t-59 9.5h-21l21 106h-27l119 616h-218l26 134h584l-26 -134h-217l-119 -616h-25l-10 -50q31 -3 50 -13t28.5 -24t10.5 -32.5t-3 -38.5l-2 -10q-11 -57 -54.5 -79
t-112.5 -22z" />
    <glyph glyph-name="uni0163" unicode="&#x163;" horiz-adv-x="429" 
d="M102 -269q-23 0 -49 2t-46 6l16 78q14 -2 31.5 -3.5t39.5 -1.5q38 0 53 10.5t18 24.5l2 10q4 18 -10 27.5t-59 9.5h-21l23 118q-29 20 -38 57t1 86l56 287h-87l22 110h87l22 115l151 33l-28 -148h143l-22 -110h-143l-52 -266q-8 -39 0.5 -54.5t40.5 -15.5q23 0 47.5 4
t44.5 14l-21 -110q-27 -12 -60.5 -17.5t-70.5 -6.5l-8 -40q31 -3 50 -13t28.5 -24t10.5 -32.5t-3 -38.5l-2 -10q-11 -57 -54.5 -79t-112.5 -22z" />
    <glyph glyph-name="Tcaron" unicode="&#x164;" horiz-adv-x="623" 
d="M66 616l26 134h584l-26 -134h-217l-119 -616h-149l119 616h-218zM443 792h-104l-72 161h92l44 -78l74 78h102z" />
    <glyph glyph-name="tcaron" unicode="&#x165;" horiz-adv-x="429" 
d="M481 772l-66 -178h-86l44 178h108zM407 442h-143l-52 -266q-8 -39 0.5 -54.5t40.5 -15.5q23 0 47.5 4t44.5 14l-21 -110q-29 -13 -64.5 -18.5t-75.5 -5.5t-66.5 12t-41 33.5t-17.5 52t4 67.5l56 287h-87l22 110h87l22 115l151 33l-28 -148h143z" />
    <glyph glyph-name="Tbar" unicode="&#x166;" horiz-adv-x="631" 
d="M74 616l26 134h584l-26 -134h-217l-35 -182h171l-20 -103h-171l-64 -331h-149l64 331h-171l20 103h171l35 182h-218z" />
    <glyph glyph-name="tbar" unicode="&#x167;" horiz-adv-x="429" 
d="M407 442h-143l-19 -95h143l-17 -89h-143l-16 -82q-8 -39 0.5 -54.5t40.5 -15.5q23 0 47.5 4t44.5 14l-21 -110q-29 -13 -64.5 -18.5t-75.5 -5.5t-66.5 12t-41 33.5t-17.5 52t4 67.5l20 103h-87l17 89h87l19 95h-87l22 110h87l22 115l151 33l-28 -148h143z" />
    <glyph glyph-name="Utilde" unicode="&#x168;" horiz-adv-x="729" 
d="M283 750l-86 -440q-10 -53 -7.5 -88t17.5 -56t42.5 -29.5t68.5 -8.5q42 0 73 8.5t53.5 29.5t37.5 56t25 88l86 440h149l-92 -473q-15 -76 -41.5 -131t-67 -90t-97.5 -52t-132 -17q-157 0 -227.5 75.5t-39.5 233.5l88 454h150zM513 803q-23 0 -36.5 7.5t-24 17t-19.5 17
t-21 7.5q-16 0 -26 -14.5t-17 -34.5h-88q7 24 17.5 49t26.5 46t37 34t49 13q23 0 37.5 -7.5t25.5 -17t20 -17t20 -7.5q19 0 28 15.5t14 35.5h88q-5 -22 -15 -47.5t-25.5 -47t-38 -35.5t-52.5 -14z" />
    <glyph glyph-name="utilde" unicode="&#x169;" horiz-adv-x="593" 
d="M93 552h146l-70 -357q-8 -40 -1 -60.5t44 -20.5q28 0 61.5 10t65.5 30l78 398h146l-107 -552h-114l-3 46q-92 -57 -189 -57q-48 0 -77 16t-43 42.5t-15.5 61t5.5 72.5zM405 603q-23 0 -36.5 7.5t-24 17t-19.5 17t-21 7.5q-16 0 -26 -14.5t-17 -34.5h-88q7 24 17.5 49
t26.5 46t37 34t49 13q23 0 37.5 -7.5t25.5 -17t20 -17t20 -7.5q19 0 28 15.5t14 35.5h88q-5 -22 -15 -47.5t-25.5 -47t-38 -35.5t-52.5 -14z" />
    <glyph glyph-name="Umacron" unicode="&#x16a;" horiz-adv-x="729" 
d="M283 750l-86 -440q-10 -53 -7.5 -88t17.5 -56t42.5 -29.5t68.5 -8.5q42 0 73 8.5t53.5 29.5t37.5 56t25 88l86 440h149l-92 -473q-15 -76 -41.5 -131t-67 -90t-97.5 -52t-132 -17q-157 0 -227.5 75.5t-39.5 233.5l88 454h150zM326 927h291l-19 -94h-291z" />
    <glyph glyph-name="umacron" unicode="&#x16b;" horiz-adv-x="593" 
d="M93 552h146l-70 -357q-8 -40 -1 -60.5t44 -20.5q28 0 61.5 10t65.5 30l78 398h146l-107 -552h-114l-3 46q-92 -57 -189 -57q-48 0 -77 16t-43 42.5t-15.5 61t5.5 72.5zM218 727h291l-19 -94h-291z" />
    <glyph glyph-name="Ubreve" unicode="&#x16c;" horiz-adv-x="729" 
d="M283 750l-86 -440q-10 -53 -7.5 -88t17.5 -56t42.5 -29.5t68.5 -8.5q42 0 73 8.5t53.5 29.5t37.5 56t25 88l86 440h149l-92 -473q-15 -76 -41.5 -131t-67 -90t-97.5 -52t-132 -17q-157 0 -227.5 75.5t-39.5 233.5l88 454h150zM453 804q-33 0 -57 11.5t-39 31t-21 46
t-3 57.5h80q-2 -30 8.5 -45.5t38.5 -15.5q29 0 46 16t26 45h86q-13 -64 -55 -105t-110 -41z" />
    <glyph glyph-name="ubreve" unicode="&#x16d;" horiz-adv-x="593" 
d="M93 552h146l-70 -357q-8 -40 -1 -60.5t44 -20.5q28 0 61.5 10t65.5 30l78 398h146l-107 -552h-114l-3 46q-92 -57 -189 -57q-48 0 -77 16t-43 42.5t-15.5 61t5.5 72.5zM346 604q-33 0 -57 11.5t-39 31t-21 46t-3 57.5h80q-2 -30 8.5 -45.5t38.5 -15.5q29 0 46 16t26 45
h86q-13 -64 -55 -105t-110 -41z" />
    <glyph glyph-name="Uring" unicode="&#x16e;" horiz-adv-x="729" 
d="M283 750l-86 -440q-10 -53 -7.5 -88t17.5 -56t42.5 -29.5t68.5 -8.5q42 0 73 8.5t53.5 29.5t37.5 56t25 88l86 440h149l-92 -473q-15 -76 -41.5 -131t-67 -90t-97.5 -52t-132 -17q-157 0 -227.5 75.5t-39.5 233.5l88 454h150zM455 847q23 0 38.5 15.5t15.5 41.5
q0 17 -9 26.5t-26 9.5q-23 0 -38.5 -15.5t-15.5 -41.5q0 -17 9 -26.5t26 -9.5zM443 785q-42 0 -66 26t-24 63q0 27 10 50.5t28 41t42.5 27t52.5 9.5q42 0 66 -26t24 -63q0 -27 -10 -50.5t-28 -41t-42.5 -27t-52.5 -9.5z" />
    <glyph glyph-name="uring" unicode="&#x16f;" horiz-adv-x="593" 
d="M93 552h146l-70 -357q-8 -40 -1 -60.5t44 -20.5q28 0 61.5 10t65.5 30l78 398h146l-107 -552h-114l-3 46q-92 -57 -189 -57q-48 0 -77 16t-43 42.5t-15.5 61t5.5 72.5zM347 647q23 0 38.5 15.5t15.5 41.5q0 17 -9 26.5t-26 9.5q-23 0 -38.5 -15.5t-15.5 -41.5
q0 -17 9 -26.5t26 -9.5zM335 585q-42 0 -66 26t-24 63q0 27 10 50.5t28 41t42.5 27t52.5 9.5q42 0 66 -26t24 -63q0 -27 -10 -50.5t-28 -41t-42.5 -27t-52.5 -9.5z" />
    <glyph glyph-name="Uhungarumlaut" unicode="&#x170;" horiz-adv-x="729" 
d="M283 750l-86 -440q-10 -53 -7.5 -88t17.5 -56t42.5 -29.5t68.5 -8.5q42 0 73 8.5t53.5 29.5t37.5 56t25 88l86 440h149l-92 -473q-15 -76 -41.5 -131t-67 -90t-97.5 -52t-132 -17q-157 0 -227.5 75.5t-39.5 233.5l88 454h150zM556 945h112l-96 -142h-90zM391 945h112
l-96 -142h-92z" />
    <glyph glyph-name="uhungarumlaut" unicode="&#x171;" horiz-adv-x="593" 
d="M93 552h146l-70 -357q-8 -40 -1 -60.5t44 -20.5q28 0 61.5 10t65.5 30l78 398h146l-107 -552h-114l-3 46q-92 -57 -189 -57q-48 0 -77 16t-43 42.5t-15.5 61t5.5 72.5zM441 745h112l-96 -142h-90zM276 745h112l-96 -142h-92z" />
    <glyph glyph-name="Uogonek" unicode="&#x172;" horiz-adv-x="729" 
d="M322 -228q-35 0 -59 8.5t-38.5 22.5t-19 33t-0.5 40l2 11q5 32 31.5 58t58.5 42q-150 4 -216 79t-36 230l88 454h150l-86 -440q-10 -53 -7.5 -88t17.5 -56t42.5 -29.5t68.5 -8.5q42 0 73 8.5t53.5 29.5t37.5 56t25 88l86 440h149l-92 -473q-24 -121 -76.5 -188
t-146.5 -90q-42 -20 -71.5 -48t-34.5 -54l-1 -6q-3 -20 8.5 -26.5t33.5 -6.5q15 0 33 2t29 5l-17 -82q-14 -4 -36 -7.5t-49 -3.5z" />
    <glyph glyph-name="uogonek" unicode="&#x173;" horiz-adv-x="593" 
d="M349 -228q-35 0 -59 8.5t-38.5 22.5t-19 33t-0.5 40l2 11q3 18 13.5 34.5t25.5 31t33.5 25.5t36.5 18l-4 50q-92 -57 -189 -57q-48 0 -77 16t-43 42.5t-15.5 61t5.5 72.5l73 371h146l-70 -357q-8 -40 -1 -60.5t44 -20.5q28 0 61.5 10t65.5 30l78 398h146l-107 -552
q-21 -10 -39.5 -22.5t-33 -26t-24 -27.5t-11.5 -27l-1 -6q-3 -20 8.5 -26.5t33.5 -6.5q15 0 33 2t29 5l-17 -82q-14 -4 -36 -7.5t-49 -3.5z" />
    <glyph glyph-name="Wcircumflex" unicode="&#x174;" horiz-adv-x="955" 
d="M511 416q-1 31 1 77.5t6 92.5q-16 -46 -33 -92.5t-30 -77.5l-173 -416h-175l-32 750h151l5 -425q1 -37 0 -78t-4 -87q17 46 33.5 87t31.5 78l175 425h160l18 -425q2 -36 0.5 -76t-3.5 -83q15 43 28.5 83t29.5 76l176 425h150l-334 -750h-166zM538 962h105l72 -161h-92
l-43 77l-76 -77h-100z" />
    <glyph glyph-name="wcircumflex" unicode="&#x175;" horiz-adv-x="832" 
d="M186 552l20 -308q2 -21 1 -44t-3 -50h2q8 28 16.5 50.5t18.5 43.5l142 308h138l20 -308q2 -20 2 -43.5t-2 -50.5h1q18 53 35 94l146 308h128l-262 -552h-146l-23 299q-2 24 1 53.5t5 59.5h-1q-8 -30 -17.5 -59.5t-20.5 -53.5l-138 -299h-144l-53 552h134zM442 762h105
l72 -161h-92l-43 77l-76 -77h-100z" />
    <glyph glyph-name="Ycircumflex" unicode="&#x176;" horiz-adv-x="640" 
d="M380 296l-56 -296h-149l56 294l-154 456h154l59 -205q10 -35 18 -67t16 -73q21 43 40 75.5t41 64.5l139 205h165zM376 962h105l72 -161h-92l-43 77l-76 -77h-100z" />
    <glyph glyph-name="ycircumflex" unicode="&#x177;" horiz-adv-x="562" 
d="M589 552l-418 -765h-152l116 214l-91 551h142l39 -310q3 -23 5 -50t3 -68q16 42 30 71t22 46l156 311h148zM300 762h105l72 -161h-92l-43 77l-76 -77h-100z" />
    <glyph glyph-name="Ydieresis" unicode="&#x178;" horiz-adv-x="640" 
d="M380 296l-56 -296h-149l56 294l-154 456h154l59 -205q10 -35 18 -67t16 -73q21 43 40 75.5t41 64.5l139 205h165zM276 930h105l-23 -118h-105zM462 930h105l-23 -118h-105z" />
    <glyph glyph-name="Zacute" unicode="&#x179;" horiz-adv-x="611" 
d="M218 198q-16 -17 -33 -34.5t-36 -34.5h389l-24 -129h-563l22 120l401 433q15 16 33 34t37 35h-357l24 128h536l-23 -119zM413 945h159l-139 -142h-135z" />
    <glyph glyph-name="zacute" unicode="&#x17a;" horiz-adv-x="495" 
d="M475 457l-253 -278q-16 -17 -33 -34t-39 -37h269l-20 -108h-443l18 95l252 277q15 17 33.5 36t36.5 36h-243l21 108h419zM322 745h159l-139 -142h-135z" />
    <glyph glyph-name="Zdotaccent" unicode="&#x17b;" horiz-adv-x="611" 
d="M218 198q-16 -17 -33 -34.5t-36 -34.5h389l-24 -129h-563l22 120l401 433q15 16 33 34t37 35h-357l24 128h536l-23 -119zM359 930h106l-23 -118h-106z" />
    <glyph glyph-name="zdotaccent" unicode="&#x17c;" horiz-adv-x="495" 
d="M475 457l-253 -278q-16 -17 -33 -34t-39 -37h269l-20 -108h-443l18 95l252 277q15 17 33.5 36t36.5 36h-243l21 108h419zM266 730h106l-23 -118h-106z" />
    <glyph glyph-name="Zcaron" unicode="&#x17d;" horiz-adv-x="611" 
d="M218 198q-16 -17 -33 -34.5t-36 -34.5h389l-24 -129h-563l22 120l401 433q15 16 33 34t37 35h-357l24 128h536l-23 -119zM438 792h-104l-72 161h92l44 -78l74 78h102z" />
    <glyph glyph-name="zcaron" unicode="&#x17e;" horiz-adv-x="495" 
d="M475 457l-253 -278q-16 -17 -33 -34t-39 -37h269l-20 -108h-443l18 95l252 277q15 17 33.5 36t36.5 36h-243l21 108h419zM341 592h-104l-72 161h92l44 -78l74 78h102z" />
    <glyph glyph-name="longs" unicode="&#x17f;" horiz-adv-x="359" 
d="M135 0h-145l122 629q14 72 61 109.5t136 37.5q34 0 67 -4.5t50 -9.5l-19 -100q-16 3 -33.5 5t-35.5 2q-23 0 -38 -4t-25 -12t-15 -22t-9 -33z" />
    <glyph glyph-name="uni0180" unicode="&#x180;" horiz-adv-x="606" 
d="M51 682h72l12 62l151 30l-18 -92h138l-20 -101h-137l-15 -77q37 20 83.5 34t94.5 14t79 -16.5t48.5 -44t21 -64.5t-4.5 -78l-32 -161q-12 -60 -35 -98t-55 -60.5t-71.5 -31t-83.5 -8.5q-37 0 -79.5 11t-76.5 40l-15 -41h-118l113 581h-72zM162 141q24 -19 52.5 -25
t48.5 -6q59 0 85 27.5t37 86.5l21 107q10 52 -2.5 76t-59.5 24q-32 0 -68 -12t-65 -29z" />
    <glyph glyph-name="uni0181" unicode="&#x181;" horiz-adv-x="757" 
d="M218 640h-24q-21 0 -33 -10t-17.5 -25t-6.5 -33.5t0 -35.5h-110q-2 46 6 85t28.5 67.5t55.5 45t88 16.5h320q54 0 96 -10t69 -31t37.5 -55t1.5 -82l-10 -50q-9 -44 -35 -82.5t-84 -56.5q60 -14 80 -52t10 -87l-16 -78q-10 -54 -31 -86.5t-56 -50.5t-86 -23.5t-120 -5.5
h-286zM308 333l-43 -217h118q39 0 64.5 4t42 14.5t25.5 27.5t14 44l7 35q10 51 -11 71.5t-89 20.5h-128zM366 634l-37 -193h123q22 0 41 3t33.5 12.5t25 27t15.5 45.5l6 30q9 46 -12 60.5t-81 14.5h-114z" />
    <glyph glyph-name="uni0182" unicode="&#x182;" horiz-adv-x="641" 
d="M207 330l-42 -216h113q37 0 62.5 4.5t42.5 14.5t26.5 27t14.5 43l5 25q6 31 4.5 51t-14.5 31t-37 15.5t-63 4.5h-112zM566 169q-11 -58 -34 -91.5t-59 -51t-85.5 -22t-112.5 -4.5h-281l145 750h482l-23 -116h-333l-37 -193h131q70 0 117 -12.5t73 -37t33.5 -62
t-2.5 -88.5z" />
    <glyph glyph-name="uni0183" unicode="&#x183;" horiz-adv-x="608" 
d="M403 508q45 0 76 -16t48.5 -43t22.5 -63.5t-3 -77.5l-23 -117q-12 -61 -35 -100t-54.5 -61.5t-71 -31t-83.5 -8.5q-18 0 -39.5 3t-42.5 9t-40.5 15.5t-34.5 23.5l-15 -41h-118l147 760h458l-23 -117h-312l-36 -183q38 20 83 34t96 14zM162 141q24 -19 52.5 -25t48.5 -6
q59 0 85 27.5t37 86.5l12 63q10 52 -2.5 76t-59.5 24q-32 0 -68 -12t-65 -29z" />
    <glyph glyph-name="uni0184" unicode="&#x184;" horiz-adv-x="648" 
d="M136 749h145l-46 -238h168q121 0 164.5 -48.5t22.5 -159.5l-19 -99q-12 -60 -31.5 -99.5t-49 -62.5t-70.5 -32.5t-96 -9.5h-91q-55 0 -98 10.5t-70 34.5t-36.5 63t1.5 96zM322 118q27 0 44.5 4.5t29.5 14.5t18.5 26t11.5 39l17 86q7 34 8 54.5t-8.5 31.5t-33 14t-66.5 3
h-131l-38 -191q-9 -46 7.5 -64t67.5 -18h73z" />
    <glyph glyph-name="uni0185" unicode="&#x185;" horiz-adv-x="605" 
d="M411 566q46 0 77.5 -15.5t49 -42.5t21.5 -63t-4 -77l-34 -175q-12 -60 -36 -99t-58.5 -62.5t-78 -32.5t-94.5 -9h-48q-47 0 -85.5 11t-64 34.5t-35.5 60.5t0 89l110 559l151 30l-50 -256q37 20 84 34t95 14zM168 189q-5 -25 -1 -40.5t14 -24t25.5 -11.5t33.5 -3h25
q30 0 49.5 7t32.5 21t20.5 35.5t13.5 50.5l23 121q10 52 -2.5 76t-59.5 24q-32 0 -68 -12t-65 -29z" />
    <glyph glyph-name="uni0186" unicode="&#x186;" horiz-adv-x="606" 
d="M118 738q42 12 92 17t104 5q81 0 138.5 -19.5t90.5 -62t40.5 -109.5t-10.5 -161l-23 -118q-18 -89 -47 -146.5t-75 -92t-111 -48t-154 -13.5q-49 0 -103 6.5t-94 24.5l25 127q43 -14 91.5 -19t90.5 -5q55 0 94 10t65.5 33t43 59t26.5 89l25 127q10 50 7 85t-21 57t-53 32
t-89 10q-48 0 -96 -4.5t-83 -13.5z" />
    <glyph glyph-name="uni0187" unicode="&#x187;" horiz-adv-x="613" 
d="M612 608q-33 9 -78.5 13.5t-93.5 4.5q-54 0 -93.5 -10t-66.5 -32t-43.5 -57t-26.5 -85l-25 -127q-10 -53 -8 -89t20 -59t53 -33t90 -10q42 0 92.5 5t99.5 19l-25 -127q-23 -9 -49.5 -15t-54 -9.5t-54.5 -5t-51 -1.5q-87 0 -145 19.5t-89.5 61t-37.5 105t12 152.5l23 118
q18 94 50 154.5t79 96t111 49.5t146 14q17 0 33 -0.5t33 -1.5q19 79 61.5 115t122.5 36q18 0 38.5 -2t37.5 -8l-21 -107q-21 6 -46 6q-29 0 -45 -13.5t-23 -45.5l-17 -85z" />
    <glyph glyph-name="uni0188" unicode="&#x188;" horiz-adv-x="529" 
d="M475 433q-22 8 -57.5 13t-74.5 5q-42 0 -71 -9t-48.5 -27t-31 -44.5t-18.5 -60.5l-13 -68q-7 -36 -5.5 -62t14.5 -42.5t39 -24.5t68 -8q30 0 69 5t78 19l-23 -117q-18 -6 -39.5 -10.5t-44 -7.5t-44.5 -4.5t-40 -1.5q-135 0 -186.5 69t-25.5 200l13 66q13 69 39.5 115.5
t65 75t90 40.5t115.5 12q11 0 21 -0.5t21 -1.5q18 72 57 105t110 33q19 0 38 -2t38 -7l-18 -94q-12 3 -24 4t-24 1q-29 0 -44.5 -12t-21.5 -44l-15 -78z" />
    <glyph glyph-name="uni0189" unicode="&#x189;" horiz-adv-x="724" 
d="M19 438h71l61 312h288q84 0 139 -19.5t84.5 -60t35 -101.5t-10.5 -145l-31 -156q-16 -80 -43.5 -132t-71 -82t-105.5 -42t-146 -12h-284l64 331h-72zM275 621l-36 -183h184l-21 -107h-184l-39 -202h124q55 0 92 11.5t60.5 33.5t37 55t21.5 76l28 139q8 41 7.5 74
t-15.5 56t-46 35t-85 12h-128z" />
    <glyph glyph-name="uni018A" unicode="&#x18a;" horiz-adv-x="825" 
d="M107 0l123 640h-36q-21 0 -33 -10t-17.5 -25t-6.5 -33.5t0 -35.5h-110q-2 46 6 85t28.5 67.5t55.5 45t88 16.5h335q84 0 139 -19.5t84.5 -60t35 -101.5t-10.5 -145l-31 -156q-16 -80 -43.5 -132t-71 -82t-105.5 -42t-146 -12h-284zM376 621l-96 -492h124q55 0 92 11.5
t60.5 33.5t37 55t21.5 76l28 139q8 41 7.5 74t-15.5 56t-46 35t-85 12h-128z" />
    <glyph glyph-name="uni018B" unicode="&#x18b;" horiz-adv-x="622" 
d="M306 330q-39 0 -65 -4.5t-43 -15.5t-26.5 -31t-15.5 -51l-5 -25q-11 -51 13.5 -70t98.5 -19h113l42 216h-112zM16 273q10 51 31.5 83.5t57.5 51t87.5 26t121.5 7.5h125l37 193h-333l23 116h482l-145 -750h-279q-63 0 -110 9.5t-75.5 33t-38 62t1.5 96.5z" />
    <glyph glyph-name="uni018C" unicode="&#x18c;" horiz-adv-x="609" 
d="M254 508q48 0 89.5 -14t70.5 -34l36 183h-312l23 117h458l-147 -760h-117l-2 41q-42 -28 -89.5 -39.5t-84.5 -11.5q-44 0 -79.5 12.5t-58 40t-30.5 70.5t4 104l23 117q16 82 69.5 128t146.5 46zM392 346q-21 17 -52 29t-63 12q-47 0 -69.5 -24t-32.5 -76l-12 -63
q-6 -29 -5.5 -50.5t9 -35.5t26.5 -21t48 -7q20 0 50 6t61 25z" />
    <glyph glyph-name="uni018D" unicode="&#x18d;" horiz-adv-x="587" 
d="M245 -81q3 16 -4.5 26t-25 21.5t-45.5 28.5t-67 48q-57 45 -75.5 109.5t-4.5 133.5l9 47q24 121 99.5 177t183.5 56q60 0 105.5 -16t74 -47.5t38 -78t-2.5 -106.5l-9 -47q-22 -110 -83.5 -162t-155.5 -62q36 -22 57.5 -41.5t32.5 -38t13 -37t-2 -38.5l-2 -10
q-5 -22 -18.5 -41t-38.5 -33.5t-62.5 -22.5t-88.5 -8q-18 0 -39.5 1.5t-43.5 5.5t-42.5 10t-35.5 14l21 108q35 -16 71.5 -23.5t68.5 -7.5q30 0 49.5 7t21.5 21zM305 450q-53 0 -87.5 -30.5t-48.5 -102.5l-6 -27q-14 -73 8 -107t75 -34q54 0 88.5 34t48.5 107l6 27
q14 72 -8 102.5t-76 30.5z" />
    <glyph glyph-name="uni018E" unicode="&#x18e;" horiz-adv-x="599" 
d="M606 750l-145 -750h-493l23 125h343l39 197h-298l24 124h298l35 179h-329l24 125h479z" />
    <glyph glyph-name="uni018F" unicode="&#x18f;" horiz-adv-x="709" 
d="M51 434h481l6 36q7 37 4 67t-21.5 51.5t-55 33t-94.5 11.5q-51 0 -109 -9.5t-117 -29.5l25 131q51 19 112 28.5t115 9.5q179 0 244 -92t32 -267l-17 -91q-17 -93 -52.5 -155.5t-84.5 -100t-110 -53.5t-128 -16q-60 0 -113.5 19t-89.5 62.5t-49 114t7 172.5zM172 318
l-5 -24q-7 -36 -4 -68.5t19 -57t45.5 -39t75.5 -14.5q44 0 78.5 14t59.5 38t41 56.5t23 70.5l5 24h-338z" />
    <glyph glyph-name="uni0190" unicode="&#x190;" horiz-adv-x="592" 
d="M330 326q-29 0 -59.5 -5t-55 -19t-40 -39.5t-15.5 -66.5q0 -83 142 -83q57 0 116 10t104 27l-25 -126q-39 -15 -97 -25.5t-126 -10.5q-134 0 -200.5 49t-66.5 134q0 103 57.5 159.5t156.5 60.5q-33 3 -57 15t-39 30.5t-22.5 42t-7.5 48.5q0 118 85 177t235 59
q61 0 114 -7.5t87 -21.5l-24 -122q-40 14 -82 20.5t-90 6.5q-81 0 -129 -28t-48 -94q0 -40 30 -58t83 -18h112l-22 -115h-116z" />
    <glyph glyph-name="uni0191" unicode="&#x191;" horiz-adv-x="578" 
d="M609 750l-25 -130h-321l-39 -200h290l-26 -130h-290l-58 -305q-17 -86 -60 -122.5t-131 -36.5q-30 0 -54 2.5t-50 8.5l23 119q17 -5 32.5 -6.5t27.5 -1.5q24 0 42 10.5t24 41.5l145 750h470z" />
    <glyph glyph-name="florin" unicode="&#x192;" horiz-adv-x="407" 
d="M29 438l21 112h88l16 79q14 71 59.5 109t137.5 38q35 0 67.5 -4t49.5 -9l-19 -101q-16 3 -33.5 5t-35.5 2q-23 0 -38 -4t-25 -12t-15 -22t-9 -33l-10 -48h135l-21 -112h-135l-89 -453q-17 -86 -61 -122.5t-126 -36.5q-33 0 -56.5 2.5t-48.5 8.5l22 114q17 -5 33 -6.5
t27 -1.5q26 0 43.5 12.5t25.5 44.5l85 438h-88z" />
    <glyph glyph-name="uni0193" unicode="&#x193;" horiz-adv-x="679" 
d="M640 705l-19 -94q-32 9 -83.5 14t-98.5 5q-59 0 -98.5 -12t-65 -35.5t-40.5 -58t-24 -80.5l-26 -132q-9 -45 -8.5 -80.5t17.5 -60t54 -37.5t101 -13q20 0 43 1.5t47 6.5l34 176h-127l23 117h269l-77 -398q-55 -19 -123 -26.5t-130 -7.5q-175 0 -240.5 80.5t-30.5 257.5
l22 117q19 94 51 155t79.5 96.5t111.5 49.5t146 14q37 0 75 -3q18 80 60.5 116t123.5 36q18 0 38.5 -2t37.5 -8l-21 -107q-21 6 -46 6q-29 0 -45 -13.5t-23 -45.5z" />
    <glyph glyph-name="uni0194" unicode="&#x194;" horiz-adv-x="610" 
d="M382 391l42 -103q7 -16 13.5 -34t11 -36.5t6 -36.5t-1.5 -34l-3 -15q-6 -30 -21.5 -56.5t-41.5 -46t-63 -31t-85 -11.5q-49 0 -84 14t-56.5 35.5t-29.5 49t-3 54.5l2 11q7 35 24 63.5t35 50.5l108 133l-151 352h152l95 -234l190 234h156zM288 277q-20 -23 -34.5 -40
t-24 -30t-15.5 -23t-7 -19l-1 -5q-5 -26 9.5 -40t40.5 -14q55 0 66 54l1 5q1 7 0 15.5t-4.5 20t-10 28t-16.5 39.5z" />
    <glyph glyph-name="uni0195" unicode="&#x195;" horiz-adv-x="906" 
d="M494 215q-10 -50 4.5 -75.5t62.5 -25.5t72 25.5t34 75.5l66 337h145l-70 -356q-8 -38 -22 -75t-42.5 -66.5t-75.5 -47.5t-121 -18q-72 0 -115.5 20t-64.5 52t-24 72.5t5 81.5l28 144q8 40 2.5 60t-43.5 20q-29 0 -59.5 -10t-62.5 -27l-77 -402h-146l145 744l151 30
l-50 -255q38 21 81.5 34t81.5 13q45 0 73.5 -15t42.5 -41t16 -60t-5 -71z" />
    <glyph glyph-name="uni0196" unicode="&#x196;" horiz-adv-x="342" 
d="M169 176q-8 -39 0.5 -54.5t40.5 -15.5q23 0 47.5 4t44.5 14l-21 -108q-29 -14 -66.5 -20t-73.5 -6q-41 0 -67.5 12t-41 33.5t-17 51.5t4.5 67l116 590l150 30z" />
    <glyph glyph-name="uni0197" unicode="&#x197;" horiz-adv-x="334" 
d="M254 442h102l-20 -105h-102l-65 -337h-149l65 337h-101l20 105h101l60 308h149z" />
    <glyph glyph-name="uni0198" unicode="&#x198;" horiz-adv-x="698" 
d="M481 655q25 32 47.5 53t44.5 33.5t46 17.5t53 5q23 0 39 -2t38 -9l-24 -119q-15 5 -26 6.5t-22 1.5q-13 0 -23 -3t-20 -10t-20.5 -18t-23.5 -26l-172 -205l193 -380h-169l-151 316h-87l-61 -316h-149l145 750h149l-60 -309h76z" />
    <glyph glyph-name="uni0199" unicode="&#x199;" horiz-adv-x="573" 
d="M204 358h49l175 194h170l-234 -257l133 -295h-160l-96 236h-61l-45 -236h-145l117 606q16 84 60.5 126t134.5 42q29 0 53.5 -2t50.5 -8l-21 -110q-15 4 -30.5 5t-29.5 1q-29 0 -48.5 -14t-25.5 -46z" />
    <glyph glyph-name="uni019A" unicode="&#x19a;" horiz-adv-x="372" 
d="M6 439h115l60 305l151 30l-65 -335h115l-19 -98h-115l-66 -341h-146l66 341h-115z" />
    <glyph glyph-name="uni019B" unicode="&#x19b;" horiz-adv-x="558" 
d="M100 528l135 57l-1 13q-2 32 -8 50.5t-34 18.5q-26 0 -57 -14l20 103q21 9 44 14t50 5q31 0 51 -8.5t33 -24t19.5 -37t11.5 -48.5l3 -16l146 61l-19 -96l-112 -47l100 -559h-136l-37 276q-5 30 -7 57t-1 65q-15 -37 -28.5 -64t-30.5 -58l-149 -276h-151l291 496l-152 -64
z" />
    <glyph glyph-name="uni019C" unicode="&#x19c;" horiz-adv-x="966" 
d="M136 750h149l-107 -549q-4 -20 -3.5 -35.5t6.5 -26t19 -16t35 -5.5q29 0 65.5 10t65.5 27q1 9 2 17.5t3 17.5l109 560h149l-106 -547q-4 -20 -3.5 -35.5t6.5 -26.5t19 -17t35 -6q31 0 65.5 11t63.5 28l115 593h149l-145 -750h-118l-2 49q-89 -59 -189 -59
q-57 0 -89.5 17.5t-48.5 46.5q-51 -32 -104 -48t-105 -16q-54 0 -86 17t-47.5 45.5t-17.5 64t6 73.5z" />
    <glyph glyph-name="uni019D" unicode="&#x19d;" horiz-adv-x="708" 
d="M570 0h-155l-160 457q-6 17 -11.5 36t-10.5 46l-107 -554q-9 -43 -22 -73.5t-34.5 -49.5t-52.5 -27.5t-75 -8.5q-30 0 -50.5 2.5t-46.5 8.5l23 119q17 -5 32.5 -6.5t27.5 -1.5q24 0 42 10.5t24 41.5l145 750h154l162 -475q6 -18 9.5 -31.5t9.5 -38.5l106 545h135z" />
    <glyph glyph-name="uni019E" unicode="&#x19e;" horiz-adv-x="596" 
d="M420 -216h-146l112 575q4 20 4.5 35t-4 25t-15 15t-29.5 5q-28 0 -62 -9.5t-66 -29.5l-78 -400h-146l107 552h114l1 -45q46 28 99 43.5t94 15.5q48 0 77 -16t43 -43t15.5 -62t-5.5 -72z" />
    <glyph glyph-name="uni019F" unicode="&#x19f;" horiz-adv-x="735" 
d="M676 293q-32 -162 -128 -234t-253 -72q-80 0 -136.5 24t-89 69t-41 110t8.5 147l24 120q16 81 49 138.5t81.5 95t112 55t139.5 17.5q77 0 133 -24t89 -69t42 -110t-7 -147zM532 329h-347l-1 -5q-22 -111 12 -159t121 -48q86 0 139 48t75 159zM418 633q-86 0 -139 -47.5
t-75 -155.5h347q20 108 -14 155.5t-119 47.5z" />
    <glyph glyph-name="Ohorn" unicode="&#x1a0;" horiz-adv-x="784" 
d="M676 293q-32 -162 -128 -234t-253 -72q-80 0 -136.5 24t-89 69t-41 110t8.5 147l24 120q16 81 49 138.5t81.5 95t112 55t139.5 17.5q75 0 129.5 -22.5t87.5 -64.5h38q23 0 35.5 10.5t18.5 27.5t7 39t0 45h114q3 -53 -4 -95.5t-26.5 -72.5t-53 -46.5t-83.5 -18.5
q10 -67 -6 -152zM551 426q21 110 -13 158.5t-120 48.5q-88 0 -140.5 -48t-73.5 -159l-20 -102q-22 -111 12 -159t121 -48q86 0 139 48t75 159z" />
    <glyph glyph-name="ohorn" unicode="&#x1a1;" horiz-adv-x="640" 
d="M516 224q-24 -124 -97.5 -180t-198.5 -56q-63 0 -106.5 19t-68.5 54.5t-31 85t6 111.5l15 76q23 118 97 175t196 57q66 0 110.5 -20.5t69.5 -58.5h21q21 0 33.5 8.5t19 22.5t8 32.5t0.5 38.5h99q2 -37 -4.5 -73.5t-24.5 -65t-48 -46.5t-74 -19q1 -20 -0.5 -41t-6.5 -44z
M388 308q15 79 -6 111t-72 32q-52 0 -86 -32t-49 -111l-12 -62q-16 -79 6 -110.5t74 -31.5q51 0 84 31.5t49 110.5z" />
    <glyph glyph-name="uni01A2" unicode="&#x1a2;" horiz-adv-x="1032" 
d="M676 293q-32 -162 -128 -234t-253 -72q-80 0 -136.5 24t-89 69t-41 110t8.5 147l24 120q16 81 49 138.5t81.5 95t112 55t139.5 17.5q57 0 102.5 -13.5t79.5 -39.5q32 22 79 37.5t102 15.5q63 0 104.5 -16.5t64.5 -45t28.5 -67t-3.5 -83.5l-149 -767h-147l145 744
q5 27 5 47t-7.5 33t-23 19.5t-42.5 6.5q-22 0 -43 -5.5t-44 -15.5q14 -41 16 -90.5t-10 -109.5zM551 426q21 110 -13 158.5t-120 48.5q-88 0 -140.5 -48t-73.5 -159l-20 -102q-22 -111 12 -159t121 -48q86 0 139 48t75 159z" />
    <glyph glyph-name="uni01A3" unicode="&#x1a3;" horiz-adv-x="864" 
d="M516 224q-24 -124 -97.5 -180t-198.5 -56q-63 0 -106.5 19t-68.5 54.5t-31 85t6 111.5l15 76q23 118 97 175t196 57q47 0 83 -10.5t62 -30.5q34 18 74.5 29t86.5 11q63 0 101.5 -18t57 -49.5t20.5 -74.5t-7 -92l-106 -547h-144l109 561q5 27 5.5 47t-6.5 33t-21.5 19.5
t-39.5 6.5q-18 0 -35.5 -4.5t-36.5 -12.5q15 -57 0 -134zM388 308q15 79 -6 111t-72 32q-52 0 -86 -32t-49 -111l-12 -62q-16 -79 6 -110.5t74 -31.5q51 0 84 31.5t49 110.5z" />
    <glyph glyph-name="uni01A4" unicode="&#x1a4;" horiz-adv-x="745" 
d="M226 640h-32q-21 0 -33 -10t-17.5 -25t-6.5 -33.5t0 -35.5h-110q-2 46 6 85t28.5 67.5t55.5 45t88 16.5h330q59 0 104 -10.5t73 -35.5t37 -67t-3 -104l-14 -71q-11 -58 -33.5 -93.5t-59 -54.5t-88 -25t-120.5 -6h-124l-55 -283h-149zM374 635l-45 -239h103q40 0 67.5 4
t45.5 14.5t28.5 29t16.5 47.5l11 55q9 49 -16 69t-91 20h-120z" />
    <glyph glyph-name="uni01A5" unicode="&#x1a5;" horiz-adv-x="605" 
d="M-57 -216l137 701l23 121q16 84 60.5 126t134.5 42q29 0 53.5 -2t50.5 -8l-21 -110q-15 4 -30.5 5t-29.5 1q-29 0 -48.5 -14t-25.5 -46l-16 -80q46 25 91.5 35.5t87.5 10.5q47 0 78.5 -15.5t49 -42.5t21.5 -63t-4 -76l-34 -176q-11 -59 -34 -98t-56 -62.5t-75 -33.5
t-91 -10q-32 0 -66 5t-66 16l-44 -226h-146zM154 121q21 -8 47 -12t48 -4q33 0 56 8t38 24t24.5 40.5t15.5 58.5l21 108q10 52 -2.5 76.5t-59.5 24.5q-33 0 -68.5 -12.5t-64.5 -28.5z" />
    <glyph glyph-name="uni01A6" unicode="&#x1a6;" horiz-adv-x="646" 
d="M139 750h149l-18 -94h142q59 0 104 -10.5t72.5 -36t36.5 -67.5t-3 -104l-12 -61q-15 -74 -50.5 -109t-87.5 -49l81 -325h-158l-71 305h-143l-38 -199h-149zM247 541l-44 -230h106q40 0 67.5 4t45.5 14.5t28.5 29.5t16.5 48l10 46q8 48 -16.5 68t-90.5 20h-123z" />
    <glyph glyph-name="uni01A7" unicode="&#x1a7;" 
d="M312 456q33 8 57 16.5t40 21t24 32t8 49.5q0 16 -6.5 28t-21.5 19.5t-40.5 11.5t-63.5 4q-41 0 -90.5 -4.5t-89.5 -15.5l23 117q18 6 42 10.5t52 8t58.5 5t60.5 1.5q120 0 174.5 -45.5t54.5 -122.5q0 -61 -16.5 -105.5t-45.5 -75.5t-69 -50.5t-86 -31.5l-82 -21
q-44 -11 -72 -22.5t-44 -25.5t-22.5 -32.5t-6.5 -43.5q0 -35 29 -52t98 -17q40 0 99.5 7t136.5 30l-25 -128q-63 -20 -127 -27t-118 -7q-66 0 -113 14.5t-76.5 39.5t-43 58.5t-13.5 71.5q0 57 13.5 99t41.5 73t72 52.5t104 36.5z" />
    <glyph glyph-name="uni01A8" unicode="&#x1a8;" horiz-adv-x="457" 
d="M220 346q27 6 45 12t28.5 14t14.5 20t4 31q0 20 -20 27.5t-72 7.5q-33 0 -72.5 -5.5t-70.5 -13.5l21 107q26 8 68 14t92 6q98 0 142 -36t44 -97q0 -43 -10.5 -75.5t-34 -56.5t-59.5 -41t-85 -29l-53 -13q-26 -6 -43.5 -12t-28 -14t-14.5 -20t-4 -31q0 -20 18.5 -29.5
t65.5 -9.5q32 0 79 5t114 25l-22 -112q-26 -9 -54 -15t-55.5 -9t-53 -4.5t-45.5 -1.5q-50 0 -84.5 11t-55.5 30t-30.5 44t-9.5 53q0 50 12 84.5t35.5 57.5t58 37.5t79.5 25.5z" />
    <glyph glyph-name="uni01A9" unicode="&#x1a9;" horiz-adv-x="563" 
d="M603 750l-23 -120h-310l158 -258l-251 -251h311l-22 -121h-486l20 105l280 279l-175 265l20 101h478z" />
    <glyph glyph-name="uni01AA" unicode="&#x1aa;" horiz-adv-x="421" 
d="M167 468q-30 0 -52 9.5t-36.5 26t-21.5 38.5t-7 47q0 37 12.5 72t37 61.5t60 42.5t81.5 16q63 0 96.5 -35.5t33.5 -88.5q0 -16 -3 -32l-120 -614q-3 -14 -3.5 -26.5t3.5 -22t13.5 -15.5t27.5 -6q23 0 42 4t39 14l-21 -108q-55 -26 -129 -26q-38 0 -64.5 12.5t-41 34
t-18 52t3.5 66.5l93 480q-5 -1 -10.5 -1.5t-15.5 -0.5zM199 565q31 0 51 22t20 55q0 21 -13 32.5t-35 11.5q-31 0 -51 -22t-20 -55q0 -21 13 -32.5t35 -11.5z" />
    <glyph glyph-name="uni01AB" unicode="&#x1ab;" horiz-adv-x="429" 
d="M407 442h-143l-52 -266q-8 -39 0.5 -54.5t40.5 -15.5q23 0 47.5 4t44.5 14l-14 -73l-12 -66q-8 -41 -21 -71t-34.5 -49.5t-53 -29t-75.5 -9.5q-28 0 -49.5 2.5t-42.5 7.5l21 103q16 -5 32.5 -6.5t34.5 -1.5q28 0 45 12.5t24 45.5v1h-16q-40 0 -66.5 12t-41 33.5t-17.5 52
t4 67.5l56 287h-87l22 110h87l22 115l151 33l-28 -148h143z" />
    <glyph glyph-name="uni01AC" unicode="&#x1ac;" horiz-adv-x="676" 
d="M703 616h-217l-119 -616h-149l119 616h-59q-31 0 -48.5 -13t-26.5 -33t-11 -44t-2 -47h-122q-4 60 7 110t39 85.5t72.5 55.5t107.5 20h435z" />
    <glyph glyph-name="uni01AD" unicode="&#x1ad;" horiz-adv-x="429" 
d="M407 442h-143l-52 -266q-8 -39 0.5 -54.5t40.5 -15.5q23 0 47.5 4t44.5 14l-21 -110q-29 -13 -64.5 -18.5t-75.5 -5.5t-66.5 12t-41 33.5t-17.5 52t4 67.5l56 287h-87l22 110h86l11 54q16 84 60.5 126t134.5 42q29 0 53.5 -2t50.5 -8l-21 -110q-15 4 -30.5 5t-29.5 1
q-29 0 -48.5 -14t-25.5 -46l-9 -48h143z" />
    <glyph glyph-name="uni01AE" unicode="&#x1ae;" horiz-adv-x="623" 
d="M66 616l26 134h584l-26 -134h-217l-107 -554l-11 -57q-7 -32 5 -44.5t38 -12.5q12 0 30 1.5t36 6.5l-23 -120q-29 -6 -49.5 -8t-52.5 -2q-167 0 -134 174l12 62l107 554h-218z" />
    <glyph glyph-name="Uhorn" unicode="&#x1af;" horiz-adv-x="843" 
d="M283 750l-86 -440q-10 -53 -7.5 -88t17.5 -56t42.5 -29.5t68.5 -8.5q42 0 73 8.5t53.5 29.5t37.5 56t25 88l86 440h149l-15 -74h30q23 0 35.5 10.5t18.5 27.5t7 39t0 45h114q3 -55 -5 -98.5t-29 -73.5t-57 -45.5t-90 -15.5h-45l-56 -288q-15 -76 -41.5 -131t-67 -90
t-97.5 -52t-132 -17q-157 0 -227.5 75.5t-39.5 233.5l88 454h150z" />
    <glyph glyph-name="uhorn" unicode="&#x1b0;" horiz-adv-x="673" 
d="M89 552h146l-70 -357q-8 -40 -1 -60.5t44 -20.5q28 0 61.5 10t65.5 30l78 398h146l-13 -65h16q21 0 33.5 8.5t19 22.5t8 32.5t0.5 38.5h99q2 -38 -5 -74.5t-25 -65t-49 -46.5t-76 -18h-41l-74 -385h-114l-3 46q-92 -57 -189 -57q-48 0 -77 16t-43 42.5t-15.5 61t5.5 72.5
z" />
    <glyph glyph-name="uni01B1" unicode="&#x1b1;" horiz-adv-x="798" 
d="M342 120q175 0 216 206l16 86q16 81 4 131t-63 78l25 129h313l-24 -127h-170q18 -14 33 -36t23.5 -52t9.5 -69t-9 -87l-17 -84q-17 -82 -49.5 -140t-80.5 -95.5t-110 -55t-136 -17.5t-130.5 24t-91.5 69t-46.5 109.5t5.5 146.5l17 84q9 44 24 77t33.5 57t40 41t44.5 28
h-165l25 127h310l-25 -129q-61 -28 -93.5 -78t-48.5 -131l-16 -86q-42 -206 136 -206z" />
    <glyph glyph-name="uni01B2" unicode="&#x1b2;" horiz-adv-x="623" 
d="M518 579q10 18 15.5 30t5.5 20q0 10 -7 15.5t-30 5.5q-8 0 -17 -1t-18 -3l21 109q13 2 32.5 4.5t36.5 2.5q67 0 99 -22t32 -61q0 -42 -14.5 -73.5t-32.5 -65.5l-289 -540h-167l-115 750h157l55 -446q2 -19 4 -36t3 -35t1.5 -39t0.5 -49q19 50 37 85t39 74z" />
    <glyph glyph-name="uni01B3" unicode="&#x1b3;" horiz-adv-x="730" 
d="M492 652q21 29 39.5 50.5t39 35t43.5 20t52 6.5q50 0 81 -26.5t31 -79.5q0 -25 -4.5 -51.5t-18.5 -56.5h-104q6 17 9 31t4 31q1 12 -1.5 20.5t-11.5 8.5q-11 0 -19 -9t-27 -36l-215 -300l-56 -296h-149l56 294l-154 456h154l59 -205q10 -35 18 -67t16 -73q21 43 41 76
t42 64z" />
    <glyph glyph-name="uni01B4" unicode="&#x1b4;" horiz-adv-x="635" 
d="M171 -213h-152l116 214l-91 551h142l39 -310q3 -22 5.5 -47.5t4.5 -70.5q14 44 27.5 72.5t22.5 44.5l242 430q13 23 26.5 42t31.5 32.5t41.5 21t55.5 7.5q17 0 37.5 -2t35.5 -10l-22 -113q-8 4 -18 5.5t-18 1.5q-24 0 -39.5 -14t-29.5 -38z" />
    <glyph glyph-name="uni01B5" unicode="&#x1b5;" horiz-adv-x="611" 
d="M449 445h95l-21 -108h-175l-130 -139q-16 -17 -33 -34.5t-36 -34.5h389l-24 -129h-563l22 120l201 217h-123l21 108h202l100 108q15 16 33 34t37 35h-357l24 128h536l-23 -119z" />
    <glyph glyph-name="uni01B6" unicode="&#x1b6;" horiz-adv-x="495" 
d="M475 457l-110 -121h56l-21 -105h-131l-47 -52q-16 -17 -33 -34t-39 -37h269l-20 -108h-443l18 95l123 136h-63l21 105h138l33 36q15 17 33.5 36t36.5 36h-243l21 108h419z" />
    <glyph glyph-name="uni01B7" unicode="&#x1b7;" horiz-adv-x="668" 
d="M471 633h-363l23 117h535l-21 -109l-283 -289q83 0 130.5 -23.5t69 -62t22.5 -87.5t-9 -101l-9 -48q-11 -57 -37 -103.5t-71 -80t-111.5 -51.5t-158.5 -18q-42 0 -82 4t-75 10t-63.5 14t-47.5 17l23 127q48 -19 110.5 -32t145.5 -13q104 0 158 36.5t69 117.5l6 33
q16 86 -19 122t-131 36q-29 0 -53 -2t-55 -6l6 92z" />
    <glyph glyph-name="uni01B8" unicode="&#x1b8;" horiz-adv-x="654" 
d="M472 333l-29 -92q-30 4 -53.5 6t-53.5 2q-48 0 -83.5 -8t-61 -26t-41.5 -47.5t-24 -72.5l-7 -36q-16 -81 23.5 -118t142.5 -37q83 0 151 13t123 32l-24 -129q-47 -17 -121.5 -30t-158.5 -13q-92 0 -151.5 24t-92 64.5t-40 93.5t3.5 110l9 48q10 52 32.5 96.5t61.5 76.5
t95.5 49.5t134.5 16.5l-181 285l21 109h535l-23 -117h-371z" />
    <glyph glyph-name="uni01B9" unicode="&#x1b9;" horiz-adv-x="536" 
d="M380 219l-45 -87q-22 4 -39.5 5t-43.5 1q-75 0 -114 -26t-48 -82l-5 -28q-11 -61 22 -86.5t115 -25.5q60 0 108 10.5t95 26.5l-23 -116q-40 -15 -93 -25t-119 -10q-74 0 -123.5 19t-77 51.5t-35 76t1.5 91.5l7 37q8 42 29 77.5t55.5 60t83 37.5t113.5 11l-146 220l18 95
h427l-21 -107h-284q6 -6 15 -18.5t14 -20.5z" />
    <glyph glyph-name="uni01BA" unicode="&#x1ba;" horiz-adv-x="535" 
d="M-42 -101q0 42 17 69.5t46.5 44.5t70 28t88.5 20q54 10 86.5 21t50.5 25t23.5 31.5t5.5 41.5q0 31 -29 43t-93 12q-18 0 -42 -2t-47 -7l-14 82l113 92q19 14 38.5 28t39.5 23h-263l20 101h424l-18 -89l-187 -138q50 0 85 -11t57.5 -29t33 -42t10.5 -52q0 -59 -19.5 -98
t-54 -64.5t-81.5 -40t-103 -22.5q-40 -6 -65 -11.5t-39.5 -11.5t-19.5 -13.5t-5 -17.5q0 -17 22.5 -23.5t79.5 -6.5q45 0 90.5 9.5t93.5 26.5l-21 -112q-81 -30 -194 -30q-59 0 -97.5 10.5t-61.5 27.5t-32 39t-9 46z" />
    <glyph glyph-name="uni01BB" unicode="&#x1bb;" horiz-adv-x="610" 
d="M73 395h257q25 21 41.5 36.5t27 29.5t16 30t10.5 38l4 20q4 22 1.5 37t-15.5 24t-37.5 13t-64.5 4q-48 0 -105.5 -10t-102.5 -26l25 125q21 8 47.5 15t55 12.5t58.5 8.5t57 3q72 0 119.5 -15.5t74 -43.5t33.5 -66.5t-2 -84.5l-5 -25q-8 -41 -19 -69t-34 -56h44l-19 -97
h-129l-213 -175h313l-23 -123h-523l20 106l229 192h-160z" />
    <glyph glyph-name="uni01BC" unicode="&#x1bc;" horiz-adv-x="634" 
d="M99 745h521l-23 -122h-269l-52 -162q12 2 20.5 3t16 2t16 1h21.5q74 0 119.5 -18.5t68.5 -49.5t27.5 -71t-3.5 -82l-11 -56q-20 -100 -97 -150t-217 -50q-35 0 -69.5 3t-65 8.5t-56 12t-41.5 14.5l24 121q41 -16 96 -26t119 -10q73 0 112 26.5t49 75.5l6 30q6 31 1.5 51
t-20 32t-44 16.5t-70.5 4.5q-44 0 -92 -5t-90 -12l91 296h-111z" />
    <glyph glyph-name="uni01BD" unicode="&#x1bd;" horiz-adv-x="484" 
d="M64 553h400l-20 -105h-208l-33 -104q17 2 30 3t27 1q48 0 80.5 -14.5t50.5 -38.5t22.5 -56t-2.5 -67l-7 -37q-14 -75 -75 -110t-170 -35q-53 0 -101 8.5t-72 19.5l22 111q30 -11 72 -18.5t90 -7.5q18 0 36.5 1.5t33.5 7.5t25.5 17.5t14.5 31.5l3 18q7 34 -10.5 49
t-76.5 15q-38 0 -71.5 -4t-65.5 -9l67 218h-82z" />
    <glyph glyph-name="uni01BE" unicode="&#x1be;" horiz-adv-x="473" 
d="M423 443h-137q2 -16 14.5 -28.5t40.5 -35.5q12 -10 26.5 -22.5t27 -30t21 -40t8.5 -53.5q0 -125 -68 -184.5t-207 -59.5q-27 0 -55 3.5t-53.5 9t-47.5 12.5t-37 15l22 114q35 -16 78.5 -26t88.5 -10q40 0 67 5.5t43.5 18.5t23.5 35t7 54q0 29 -17 47.5t-47 42.5
q-21 17 -35 31.5t-21.5 29.5t-9.5 32t0 40h-107l21 110h106l22 114l133 33l-28 -147h141z" />
    <glyph glyph-name="uni01BF" unicode="&#x1bf;" horiz-adv-x="604" 
d="M-57 -216l150 768h114l5 -43q46 27 98 42t100 15q46 0 77.5 -15.5t49 -42.5t22 -64.5t-4.5 -80.5l-25 -129q-16 -82 -55.5 -129.5t-94 -72.5t-119.5 -34t-132 -15l-39 -199h-146zM149 98q50 4 90.5 13t70 26t48.5 44t27 68l19 95q4 23 4.5 42t-6 32t-20.5 20t-39 7
q-31 0 -66.5 -11.5t-67.5 -29.5z" />
    <glyph glyph-name="uni01C0" unicode="&#x1c0;" horiz-adv-x="273" 
d="M76 -216h-109l193 990h109z" />
    <glyph glyph-name="uni01C1" unicode="&#x1c1;" horiz-adv-x="506" 
d="M76 -216h-109l193 990h109zM309 -216h-109l193 990h109z" />
    <glyph glyph-name="uni01C2" unicode="&#x1c2;" horiz-adv-x="333" 
d="M233 435h112l-17 -86h-112l-21 -109h112l-17 -86h-112l-72 -370h-108l72 370h-112l17 86h112l21 109h-112l17 86h112l66 339h108z" />
    <glyph glyph-name="uni01C3" unicode="&#x1c3;" horiz-adv-x="280" 
d="M290 750l-120 -519h-117l82 519h155zM23 144h142l-27 -144h-142z" />
    <glyph glyph-name="uni01C4" unicode="&#x1c4;" horiz-adv-x="1313" 
d="M-6 0l145 750h288q84 0 139 -19.5t84.5 -60t35 -101.5t-10.5 -145l-31 -156q-16 -80 -43.5 -132t-71 -82t-105.5 -42t-146 -12h-284zM263 621l-96 -492h124q55 0 92 11.5t60.5 33.5t37 55t21.5 76l28 139q8 41 7.5 74t-15.5 56t-46 35t-85 12h-128zM920 198
q-16 -17 -33 -34.5t-36 -34.5h389l-24 -129h-563l22 120l401 433q15 16 33 34t37 35h-357l24 128h536l-23 -119zM1149 792h-104l-72 161h92l44 -78l74 78h102z" />
    <glyph glyph-name="uni01C5" unicode="&#x1c5;" horiz-adv-x="1197" 
d="M-6 0l145 750h288q84 0 139 -19.5t84.5 -60t35 -101.5t-10.5 -145l-31 -156q-16 -80 -43.5 -132t-71 -82t-105.5 -42t-146 -12h-284zM263 621l-96 -492h124q55 0 92 11.5t60.5 33.5t37 55t21.5 76l28 139q8 41 7.5 74t-15.5 56t-46 35t-85 12h-128zM1177 457l-253 -278
q-16 -17 -33 -34t-39 -37h269l-20 -108h-443l18 95l252 277q15 17 33.5 36t36.5 36h-243l21 108h419zM1053 592h-104l-72 161h92l44 -78l74 78h102z" />
    <glyph glyph-name="uni01C6" unicode="&#x1c6;" horiz-adv-x="1099" 
d="M159 -10q-49 0 -81 17.5t-49 46.5t-20 66.5t5 78.5l32 160q12 59 34.5 99t55 64t74.5 34t92 10q36 0 70.5 -7t60.5 -21l41 206l150 30l-150 -774h-119l-5 47q-40 -27 -85.5 -42t-105.5 -15zM411 426q-17 14 -44.5 20.5t-50.5 6.5q-52 0 -84 -24t-45 -91l-26 -134
q-9 -46 4 -71.5t56 -25.5q30 0 65.5 9t70.5 30zM1079 457l-253 -278q-16 -17 -33 -34t-39 -37h269l-20 -108h-443l18 95l252 277q15 17 33.5 36t36.5 36h-243l21 108h419zM955 592h-104l-72 161h92l44 -78l74 78h102z" />
    <glyph glyph-name="uni01C7" unicode="&#x1c7;" horiz-adv-x="1003" 
d="M288 750l-120 -616h333l-25 -134h-482l145 750h149zM1012 750l-105 -541q-11 -53 -26 -93.5t-41.5 -68.5t-67.5 -42.5t-104 -14.5q-15 0 -34 1.5t-39.5 4.5t-39 8t-31.5 12l26 130q27 -11 55.5 -16t51.5 -5q48 0 70.5 21t33.5 77l102 527h149z" />
    <glyph glyph-name="uni01C8" unicode="&#x1c8;" horiz-adv-x="862" 
d="M288 750l-120 -616h333l-25 -134h-482l145 750h149zM829 552l-118 -601q-10 -52 -25.5 -85.5t-39 -53t-55.5 -27.5t-76 -8q-31 0 -63.5 3t-56.5 10l23 118q20 -4 37.5 -5.5t35.5 -1.5q19 0 32 2.5t22 10.5t14.5 23t10.5 39l113 576h146zM844 633h-146l28 141h146z" />
    <glyph glyph-name="uni01C9" unicode="&#x1c9;" horiz-adv-x="561" 
d="M-10 0l145 744l151 30l-150 -774h-146zM528 552l-118 -601q-10 -52 -25.5 -85.5t-39 -53t-55.5 -27.5t-76 -8q-31 0 -63.5 3t-56.5 10l23 118q20 -4 37.5 -5.5t35.5 -1.5q19 0 32 2.5t22 10.5t14.5 23t10.5 39l113 576h146zM543 633h-146l28 141h146z" />
    <glyph glyph-name="uni01CA" unicode="&#x1ca;" horiz-adv-x="1144" 
d="M570 0h-155l-160 457q-6 17 -11.5 36t-10.5 46l-104 -539h-135l145 750h154l162 -475q6 -18 9.5 -31.5t9.5 -38.5l106 545h135zM1153 750l-105 -541q-11 -53 -26 -93.5t-41.5 -68.5t-67.5 -42.5t-104 -14.5q-15 0 -34 1.5t-39.5 4.5t-39 8t-31.5 12l26 130
q27 -11 55.5 -16t51.5 -5q48 0 70.5 21t33.5 77l102 527h149z" />
    <glyph glyph-name="uni01CB" unicode="&#x1cb;" horiz-adv-x="1003" 
d="M570 0h-155l-160 457q-6 17 -11.5 36t-10.5 46l-104 -539h-135l145 750h154l162 -475q6 -18 9.5 -31.5t9.5 -38.5l106 545h135zM970 552l-118 -601q-10 -52 -25.5 -85.5t-39 -53t-55.5 -27.5t-76 -8q-31 0 -63.5 3t-56.5 10l23 118q20 -4 37.5 -5.5t35.5 -1.5
q19 0 32 2.5t22 10.5t14.5 23t10.5 39l113 576h146zM985 633h-146l28 141h146z" />
    <glyph glyph-name="uni01CC" unicode="&#x1cc;" horiz-adv-x="884" 
d="M463 0h-146l69 359q4 20 4.5 35t-4 25t-15 15t-29.5 5q-28 0 -62 -9.5t-66 -29.5l-78 -400h-146l107 552h114l1 -45q46 28 99 43.5t94 15.5q48 0 77 -16t43 -43t15.5 -62t-5.5 -72zM851 552l-118 -601q-10 -52 -25.5 -85.5t-39 -53t-55.5 -27.5t-76 -8q-31 0 -63.5 3
t-56.5 10l23 118q20 -4 37.5 -5.5t35.5 -1.5q19 0 32 2.5t22 10.5t14.5 23t10.5 39l113 576h146zM866 633h-146l28 141h146z" />
    <glyph glyph-name="uni01CD" unicode="&#x1cd;" horiz-adv-x="704" 
d="M504 750l120 -750h-158l-24 180h-252l-92 -180h-162l401 750h167zM252 309h177l-20 173q-4 35 -5 64t-3 69q-16 -40 -29 -69t-31 -64zM478 792h-104l-72 161h92l44 -78l74 78h102z" />
    <glyph glyph-name="uni01CE" unicode="&#x1ce;" horiz-adv-x="542" 
d="M416 0h-111l-4 48q-30 -21 -73 -39.5t-105 -18.5q-77 0 -112 46t-21 127l5 29q7 43 26.5 71.5t52 45.5t79.5 24.5t109 7.5h79l5 29q4 25 4 42t-8 27t-25 14t-45 4q-16 0 -36.5 -2t-43 -6t-45.5 -9.5t-44 -12.5l21 108q19 7 43 12.5t49.5 9.5t50.5 6.5t46 2.5
q67 0 105 -18.5t55 -49.5t17.5 -70t-7.5 -79zM321 244h-70q-58 0 -85 -14.5t-33 -55.5l-2 -13q-5 -35 6 -48.5t41 -13.5q28 0 60.5 9.5t61.5 26.5zM366 592h-104l-72 161h92l44 -78l74 78h102z" />
    <glyph glyph-name="uni01CF" unicode="&#x1cf;" horiz-adv-x="281" 
d="M143 0h-149l145 750h149zM272 792h-104l-72 161h92l44 -78l74 78h102z" />
    <glyph glyph-name="uni01D0" unicode="&#x1d0;" horiz-adv-x="276" 
d="M136 0h-146l107 552h146zM229 592h-104l-72 161h92l44 -78l74 78h102z" />
    <glyph glyph-name="uni01D1" unicode="&#x1d1;" horiz-adv-x="735" 
d="M676 293q-32 -162 -128 -234t-253 -72q-80 0 -136.5 24t-89 69t-41 110t8.5 147l24 120q16 81 49 138.5t81.5 95t112 55t139.5 17.5q77 0 133 -24t89 -69t42 -110t-7 -147zM551 426q21 110 -13 158.5t-120 48.5q-88 0 -140.5 -48t-73.5 -159l-20 -102q-22 -111 12 -159
t121 -48q86 0 139 48t75 159zM500 792h-104l-72 161h92l44 -78l74 78h102z" />
    <glyph glyph-name="uni01D2" unicode="&#x1d2;" horiz-adv-x="589" 
d="M516 224q-24 -124 -97.5 -180t-198.5 -56q-63 0 -106.5 19t-68.5 54.5t-31 85t6 111.5l15 76q23 118 97 175t196 57q63 0 107 -19t69.5 -53.5t32 -84t-5.5 -109.5zM388 308q15 79 -6 111t-72 32q-52 0 -86 -32t-49 -111l-12 -62q-16 -79 6 -110.5t74 -31.5q51 0 84 31.5
t49 110.5zM388 592h-104l-72 161h92l44 -78l74 78h102z" />
    <glyph glyph-name="uni01D3" unicode="&#x1d3;" horiz-adv-x="729" 
d="M283 750l-86 -440q-10 -53 -7.5 -88t17.5 -56t42.5 -29.5t68.5 -8.5q42 0 73 8.5t53.5 29.5t37.5 56t25 88l86 440h149l-92 -473q-15 -76 -41.5 -131t-67 -90t-97.5 -52t-132 -17q-157 0 -227.5 75.5t-39.5 233.5l88 454h150zM497 792h-104l-72 161h92l44 -78l74 78h102z
" />
    <glyph glyph-name="uni01D4" unicode="&#x1d4;" horiz-adv-x="593" 
d="M93 552h146l-70 -357q-8 -40 -1 -60.5t44 -20.5q28 0 61.5 10t65.5 30l78 398h146l-107 -552h-114l-3 46q-92 -57 -189 -57q-48 0 -77 16t-43 42.5t-15.5 61t5.5 72.5zM389 592h-104l-72 161h92l44 -78l74 78h102z" />
    <glyph glyph-name="uni01D5" unicode="&#x1d5;" horiz-adv-x="729" 
d="M283 750l-86 -440q-10 -53 -7.5 -88t17.5 -56t42.5 -29.5t68.5 -8.5q42 0 73 8.5t53.5 29.5t37.5 56t25 88l86 440h149l-92 -473q-15 -76 -41.5 -131t-67 -90t-97.5 -52t-132 -17q-157 0 -227.5 75.5t-39.5 233.5l88 454h150zM322 905h105l-23 -118h-105zM508 905h105
l-23 -118h-105zM347 1036h291l-19 -94h-291z" />
    <glyph glyph-name="uni01D6" unicode="&#x1d6;" horiz-adv-x="593" 
d="M93 552h146l-70 -357q-8 -40 -1 -60.5t44 -20.5q28 0 61.5 10t65.5 30l78 398h146l-107 -552h-114l-3 46q-92 -57 -189 -57q-48 0 -77 16t-43 42.5t-15.5 61t5.5 72.5zM214 703h105l-23 -118h-105zM400 703h105l-23 -118h-105zM237 825h291l-19 -94h-291z" />
    <glyph glyph-name="uni01D7" unicode="&#x1d7;" horiz-adv-x="729" 
d="M283 750l-86 -440q-10 -53 -7.5 -88t17.5 -56t42.5 -29.5t68.5 -8.5q42 0 73 8.5t53.5 29.5t37.5 56t25 88l86 440h149l-92 -473q-15 -76 -41.5 -131t-67 -90t-97.5 -52t-132 -17q-157 0 -227.5 75.5t-39.5 233.5l88 454h150zM507 1065h159l-139 -142h-135zM322 905h105
l-23 -118h-105zM508 905h105l-23 -118h-105z" />
    <glyph glyph-name="uni01D8" unicode="&#x1d8;" horiz-adv-x="593" 
d="M93 552h146l-70 -357q-8 -40 -1 -60.5t44 -20.5q28 0 61.5 10t65.5 30l78 398h146l-107 -552h-114l-3 46q-92 -57 -189 -57q-48 0 -77 16t-43 42.5t-15.5 61t5.5 72.5zM398 867h159l-139 -142h-135zM214 703h105l-23 -118h-105zM400 703h105l-23 -118h-105z" />
    <glyph glyph-name="uni01D9" unicode="&#x1d9;" horiz-adv-x="729" 
d="M283 750l-86 -440q-10 -53 -7.5 -88t17.5 -56t42.5 -29.5t68.5 -8.5q42 0 73 8.5t53.5 29.5t37.5 56t25 88l86 440h149l-92 -473q-15 -76 -41.5 -131t-67 -90t-97.5 -52t-132 -17q-157 0 -227.5 75.5t-39.5 233.5l88 454h150zM523 922h-104l-72 161h92l44 -78l74 78h102z
M322 900h105l-23 -118h-105zM508 900h105l-23 -118h-105z" />
    <glyph glyph-name="uni01DA" unicode="&#x1da;" horiz-adv-x="593" 
d="M93 552h146l-70 -357q-8 -40 -1 -60.5t44 -20.5q28 0 61.5 10t65.5 30l78 398h146l-107 -552h-114l-3 46q-92 -57 -189 -57q-48 0 -77 16t-43 42.5t-15.5 61t5.5 72.5zM415 729h-104l-72 161h92l44 -78l74 78h102zM214 703h105l-23 -118h-105zM400 703h105l-23 -118h-105
z" />
    <glyph glyph-name="uni01DB" unicode="&#x1db;" horiz-adv-x="729" 
d="M283 750l-86 -440q-10 -53 -7.5 -88t17.5 -56t42.5 -29.5t68.5 -8.5q42 0 73 8.5t53.5 29.5t37.5 56t25 88l86 440h149l-92 -473q-15 -76 -41.5 -131t-67 -90t-97.5 -52t-132 -17q-157 0 -227.5 75.5t-39.5 233.5l88 454h150zM544 923h-126l-85 142h151zM322 900h105
l-23 -118h-105zM508 900h105l-23 -118h-105z" />
    <glyph glyph-name="uni01DC" unicode="&#x1dc;" horiz-adv-x="593" 
d="M93 552h146l-70 -357q-8 -40 -1 -60.5t44 -20.5q28 0 61.5 10t65.5 30l78 398h146l-107 -552h-114l-3 46q-92 -57 -189 -57q-48 0 -77 16t-43 42.5t-15.5 61t5.5 72.5zM438 725h-126l-85 142h151zM214 703h105l-23 -118h-105zM400 703h105l-23 -118h-105z" />
    <glyph glyph-name="uni01DD" unicode="&#x1dd;" horiz-adv-x="572" 
d="M31 330h347l2 11q13 64 -15 90t-106 26q-32 0 -77 -5t-85 -19l20 107q37 14 86 20t91 6q270 0 219 -265l-13 -67q-14 -69 -40.5 -116t-63 -75.5t-81.5 -41t-96 -12.5q-55 0 -98.5 15t-71 48t-36.5 86t6 129zM150 235l-4 -19q-9 -52 8.5 -84.5t73.5 -32.5q57 0 88.5 32.5
t41.5 85.5l3 18h-211z" />
    <glyph glyph-name="uni01DE" unicode="&#x1de;" horiz-adv-x="704" 
d="M504 750l120 -750h-158l-24 180h-252l-92 -180h-162l401 750h167zM252 309h177l-20 173q-4 35 -5 64t-3 69q-16 -40 -29 -69t-31 -64zM304 905h105l-23 -118h-105zM490 905h105l-23 -118h-105zM328 1036h291l-19 -94h-291z" />
    <glyph glyph-name="uni01DF" unicode="&#x1df;" horiz-adv-x="542" 
d="M416 0h-111l-4 48q-30 -21 -73 -39.5t-105 -18.5q-77 0 -112 46t-21 127l5 29q7 43 26.5 71.5t52 45.5t79.5 24.5t109 7.5h79l5 29q4 25 4 42t-8 27t-25 14t-45 4q-16 0 -36.5 -2t-43 -6t-45.5 -9.5t-44 -12.5l21 108q19 7 43 12.5t49.5 9.5t50.5 6.5t46 2.5
q67 0 105 -18.5t55 -49.5t17.5 -70t-7.5 -79zM321 244h-70q-58 0 -85 -14.5t-33 -55.5l-2 -13q-5 -35 6 -48.5t41 -13.5q28 0 60.5 9.5t61.5 26.5zM192 703h105l-23 -118h-105zM378 703h105l-23 -118h-105zM214 825h291l-19 -94h-291z" />
    <glyph glyph-name="uni01E0" unicode="&#x1e0;" horiz-adv-x="704" 
d="M504 750l120 -750h-158l-24 180h-252l-92 -180h-162l401 750h167zM252 309h177l-20 173q-4 35 -5 64t-3 69q-16 -40 -29 -69t-31 -64zM397 909h106l-23 -118h-106zM328 1036h291l-19 -94h-291z" />
    <glyph glyph-name="uni01E1" unicode="&#x1e1;" horiz-adv-x="542" 
d="M416 0h-111l-4 48q-30 -21 -73 -39.5t-105 -18.5q-77 0 -112 46t-21 127l5 29q7 43 26.5 71.5t52 45.5t79.5 24.5t109 7.5h79l5 29q4 25 4 42t-8 27t-25 14t-45 4q-16 0 -36.5 -2t-43 -6t-45.5 -9.5t-44 -12.5l21 108q19 7 43 12.5t49.5 9.5t50.5 6.5t46 2.5
q67 0 105 -18.5t55 -49.5t17.5 -70t-7.5 -79zM321 244h-70q-58 0 -85 -14.5t-33 -55.5l-2 -13q-5 -35 6 -48.5t41 -13.5q28 0 60.5 9.5t61.5 26.5zM283 705h106l-23 -118h-106zM214 825h291l-19 -94h-291z" />
    <glyph glyph-name="uni01E2" unicode="&#x1e2;" horiz-adv-x="1038" 
d="M1057 750l-24 -125h-329l-35 -179h297l-24 -124h-297l-39 -197h343l-23 -125h-495l35 180h-215l-140 -180h-179l591 750h534zM557 927h291l-19 -94h-291zM342 309h149l53 276q-17 -29 -33.5 -53.5t-30.5 -43.5z" />
    <glyph glyph-name="uni01E3" unicode="&#x1e3;" horiz-adv-x="872" 
d="M806 235h-345l-4 -21q-12 -64 15.5 -90t105.5 -26q32 0 77 5t85 19l-20 -105q-18 -7 -41 -12.5t-47 -9t-47.5 -5t-43.5 -1.5q-70 0 -110.5 18.5t-68.5 53.5q-54 -35 -109.5 -53t-126.5 -18q-77 0 -114 45t-21 126l4 20q9 44 27.5 72.5t50 45.5t76 24t105.5 7h87l7 40
q5 25 4.5 42t-8.5 27t-25 14t-45 4q-16 0 -36.5 -2t-43 -6t-45.5 -9.5t-44 -12.5l21 108q21 7 46 12.5t50.5 9.5t50 6.5t45.5 2.5q63 0 97.5 -14.5t51.5 -37.5q42 29 84.5 40.5t84.5 11.5q50 0 89.5 -16t64 -51t32 -90t-7.5 -132zM689 330l2 9q9 52 -8.5 84.5t-73.5 32.5
q-54 0 -86 -32.5t-42 -85.5l-1 -8h209zM321 233h-70q-29 0 -49 -2t-33.5 -8t-21.5 -17.5t-12 -31.5l-1 -10q-8 -35 4 -50t42 -15q28 0 60.5 9.5t61.5 26.5zM367 727h291l-19 -94h-291z" />
    <glyph glyph-name="uni01E4" unicode="&#x1e4;" horiz-adv-x="689" 
d="M343 288h127l10 49h-127l23 117h269l-33 -166h67l-21 -108h-67l-30 -156q-55 -19 -123 -26.5t-130 -7.5q-175 0 -240.5 80.5t-30.5 257.5l22 117q19 94 51 155t79.5 96.5t111.5 49.5t146 14q25 0 53 -1.5t54.5 -4.5t50 -7.5t41.5 -11.5l-25 -124q-32 9 -83.5 14t-98.5 5
q-59 0 -98.5 -12t-65 -35.5t-40.5 -58t-24 -80.5l-26 -132q-9 -45 -8.5 -80.5t17.5 -60t54 -37.5t101 -13q20 0 43 1.5t47 6.5l10 51h-127z" />
    <glyph glyph-name="uni01E5" unicode="&#x1e5;" horiz-adv-x="639" 
d="M197 25q-47 0 -78 15.5t-48 42t-21 62t4 76.5l27 135q12 59 34 99.5t54.5 65t74 35t91.5 10.5q19 0 40.5 -2.5t42.5 -7.5t40.5 -13.5t34.5 -21.5l15 31h109l-108 -550h71l-16 -86h-77q-14 -35 -34.5 -61.5t-51 -44.5t-74 -27.5t-101.5 -9.5q-41 0 -84 4.5t-74 13.5
l21 108q33 -8 66.5 -11.5t71.5 -3.5q75 0 107 32h-314l16 86h334l15 75q-39 -25 -83.5 -38.5t-104.5 -13.5zM447 426q-17 14 -42.5 20.5t-48.5 6.5q-52 0 -86 -24t-47 -91l-19 -99q-9 -46 4 -71.5t56 -25.5q30 0 65 9t70 30z" />
    <glyph glyph-name="Gcaron" unicode="&#x1e6;" horiz-adv-x="677" 
d="M621 611q-32 9 -83.5 14t-98.5 5q-59 0 -98.5 -12t-65 -35.5t-40.5 -58t-24 -80.5l-26 -132q-9 -45 -8.5 -80.5t17.5 -60t54 -37.5t101 -13q20 0 43 1.5t47 6.5l34 176h-127l23 117h269l-77 -398q-55 -19 -123 -26.5t-130 -7.5q-175 0 -240.5 80.5t-30.5 257.5l22 117
q19 94 51 155t79.5 96.5t111.5 49.5t146 14q25 0 53 -1.5t54.5 -4.5t50 -7.5t41.5 -11.5zM495 792h-104l-72 161h92l44 -78l74 78h102z" />
    <glyph glyph-name="gcaron" unicode="&#x1e7;" horiz-adv-x="612" 
d="M156 -6q-47 0 -78 15.5t-48 42t-21 62t4 76.5l33 166q12 59 34 99.5t54.5 65t74 35t91.5 10.5q19 0 40.5 -2.5t42.5 -7.5t40.5 -13.5t34.5 -21.5l15 31h109l-109 -559q-10 -52 -28 -92t-50 -67.5t-81.5 -42t-121.5 -14.5q-41 0 -84 4.5t-74 13.5l21 108q33 -8 66.5 -11.5
t71.5 -3.5q66 0 97.5 23.5t42.5 77.5l11 57q-39 -25 -83.5 -38.5t-104.5 -13.5zM412 426q-17 14 -42.5 20.5t-48.5 6.5q-52 0 -86 -24t-47 -91l-25 -130q-9 -46 4 -71.5t56 -25.5q30 0 65 9t70 30zM400 592h-104l-72 161h92l44 -78l74 78h102z" />
    <glyph glyph-name="uni01E8" unicode="&#x1e8;" horiz-adv-x="698" 
d="M418 380l193 -380h-169l-151 316h-87l-61 -316h-149l145 750h149l-60 -309h76l248 309h176zM472 792h-104l-72 161h92l44 -78l74 78h102z" />
    <glyph glyph-name="uni01E9" unicode="&#x1e9;" horiz-adv-x="573" 
d="M285 774l-81 -416h49l175 194h170l-234 -257l133 -295h-160l-96 236h-61l-45 -236h-145l145 744zM453 792h-104l-72 161h92l44 -78l74 78h102z" />
    <glyph glyph-name="uni01EA" unicode="&#x1ea;" horiz-adv-x="735" 
d="M676 293q-24 -122 -83.5 -192t-154.5 -96h1q-45 -20 -79 -51t-39 -57l-1 -6q-3 -20 8.5 -26.5t33.5 -6.5q15 0 33 2t29 5l-17 -82q-14 -4 -36 -7.5t-49 -3.5q-35 0 -59 8.5t-38.5 22.5t-19 33t-0.5 40l2 11q5 32 31.5 58t58.5 42h-2q-80 0 -136.5 24t-89 69t-41 110
t8.5 147l24 120q16 81 49 138.5t81.5 95t112 55t139.5 17.5q77 0 133 -24t89 -69t42 -110t-7 -147zM551 426q21 110 -13 158.5t-120 48.5q-88 0 -140.5 -48t-73.5 -159l-20 -102q-22 -111 12 -159t121 -48q86 0 139 48t75 159z" />
    <glyph glyph-name="uni01EB" unicode="&#x1eb;" horiz-adv-x="589" 
d="M516 224q-17 -85 -55.5 -136.5t-101.5 -76.5q-23 -11 -44.5 -25t-39 -29.5t-28.5 -31t-13 -28.5l-1 -6q-3 -20 8.5 -26.5t33.5 -6.5q15 0 33 2t29 5l-17 -82q-14 -4 -36 -7.5t-49 -3.5q-35 0 -59 8.5t-38.5 22.5t-19 33t-0.5 40l2 11q5 32 32.5 58.5t59.5 42.5
q-61 1 -103 21t-65.5 55t-29.5 84t6 110l15 76q23 118 97 175t196 57q63 0 107 -19t69.5 -53.5t32 -84t-5.5 -109.5zM388 308q15 79 -6 111t-72 32q-52 0 -86 -32t-49 -111l-12 -62q-16 -79 6 -110.5t74 -31.5q51 0 84 31.5t49 110.5z" />
    <glyph glyph-name="uni01EC" unicode="&#x1ec;" horiz-adv-x="735" 
d="M676 293q-24 -122 -83.5 -192t-154.5 -96h1q-49 -22 -80.5 -52t-36.5 -55l-2 -10q-4 -20 9 -25t35 -5q15 0 32 2t28 5l-17 -82q-14 -4 -34.5 -7.5t-47.5 -3.5q-71 0 -100 30.5t-21 72.5l2 11q6 32 32 58t60 43h-3q-80 0 -136.5 24t-89 69t-41 110t8.5 147l24 120
q16 81 49 138.5t81.5 95t112 55t139.5 17.5q77 0 133 -24t89 -69t42 -110t-7 -147zM551 426q21 110 -13 158.5t-120 48.5q-88 0 -140.5 -48t-73.5 -159l-20 -102q-22 -111 12 -159t121 -48q86 0 139 48t75 159zM329 927h291l-19 -94h-291z" />
    <glyph glyph-name="uni01ED" unicode="&#x1ed;" horiz-adv-x="589" 
d="M516 224q-17 -85 -56 -137t-102 -77q-52 -25 -85 -55.5t-38 -56.5l-2 -10q-4 -20 9 -25t35 -5q15 0 32 2t28 5l-17 -82q-14 -4 -34.5 -7.5t-47.5 -3.5q-71 0 -100 30.5t-21 72.5l2 11q6 32 32.5 58.5t61.5 43.5q-61 1 -103 20.5t-66 55t-30 84.5t6 110l15 76
q23 118 97 175t196 57q63 0 107 -19t69.5 -53.5t32 -84t-5.5 -109.5zM388 308q15 79 -6 111t-72 32q-52 0 -86 -32t-49 -111l-12 -62q-16 -79 6 -110.5t74 -31.5q51 0 84 31.5t49 110.5zM217 727h291l-19 -94h-291z" />
    <glyph glyph-name="uni01EE" unicode="&#x1ee;" horiz-adv-x="668" 
d="M471 633h-363l23 117h535l-21 -109l-283 -289q83 0 130.5 -23.5t69 -62t22.5 -87.5t-9 -101l-9 -48q-11 -57 -37 -103.5t-71 -80t-111.5 -51.5t-158.5 -18q-42 0 -82 4t-75 10t-63.5 14t-47.5 17l23 127q48 -19 110.5 -32t145.5 -13q104 0 158 36.5t69 117.5l6 33
q16 86 -19 122t-131 36q-29 0 -53 -2t-55 -6l6 92zM463 792h-104l-72 161h92l44 -78l74 78h102z" />
    <glyph glyph-name="uni01EF" unicode="&#x1ef;" horiz-adv-x="568" 
d="M290 401q11 11 23 22.5t26 21.5h-277l21 107h428l-18 -95l-222 -224q65 1 105.5 -18t61.5 -50t25 -71.5t-4 -82.5l-7 -37q-18 -97 -91 -147.5t-218 -50.5q-66 0 -119.5 11.5t-88.5 26.5l22 113q42 -16 84.5 -26.5t102.5 -10.5q79 0 125 24.5t57 86.5l5 27q10 56 -16.5 83
t-101.5 27q-26 0 -44.5 -1t-41.5 -5l-10 92zM358 592h-104l-72 161h92l44 -78l74 78h102z" />
    <glyph glyph-name="uni01F0" unicode="&#x1f0;" horiz-adv-x="298" 
d="M262 552l-118 -601q-10 -52 -25.5 -85.5t-39 -53t-55.5 -27.5t-76 -8q-31 0 -63.5 3t-56.5 10l23 118q20 -4 37.5 -5.5t35.5 -1.5q19 0 32 2.5t22 10.5t14.5 23t10.5 39l113 576h146zM249 592h-104l-72 161h92l44 -78l74 78h102z" />
    <glyph glyph-name="uni01F1" unicode="&#x1f1;" horiz-adv-x="1313" 
d="M-6 0l145 750h288q84 0 139 -19.5t84.5 -60t35 -101.5t-10.5 -145l-31 -156q-16 -80 -43.5 -132t-71 -82t-105.5 -42t-146 -12h-284zM263 621l-96 -492h124q55 0 92 11.5t60.5 33.5t37 55t21.5 76l28 139q8 41 7.5 74t-15.5 56t-46 35t-85 12h-128zM920 198
q-16 -17 -33 -34.5t-36 -34.5h389l-24 -129h-563l22 120l401 433q15 16 33 34t37 35h-357l24 128h536l-23 -119z" />
    <glyph glyph-name="uni01F2" unicode="&#x1f2;" horiz-adv-x="1197" 
d="M-6 0l145 750h288q84 0 139 -19.5t84.5 -60t35 -101.5t-10.5 -145l-31 -156q-16 -80 -43.5 -132t-71 -82t-105.5 -42t-146 -12h-284zM263 621l-96 -492h124q55 0 92 11.5t60.5 33.5t37 55t21.5 76l28 139q8 41 7.5 74t-15.5 56t-46 35t-85 12h-128zM1177 457l-253 -278
q-16 -17 -33 -34t-39 -37h269l-20 -108h-443l18 95l252 277q15 17 33.5 36t36.5 36h-243l21 108h419z" />
    <glyph glyph-name="uni01F3" unicode="&#x1f3;" horiz-adv-x="1099" 
d="M159 -10q-49 0 -81 17.5t-49 46.5t-20 66.5t5 78.5l32 160q12 59 34.5 99t55 64t74.5 34t92 10q36 0 70.5 -7t60.5 -21l41 206l150 30l-150 -774h-119l-5 47q-40 -27 -85.5 -42t-105.5 -15zM411 426q-17 14 -44.5 20.5t-50.5 6.5q-52 0 -84 -24t-45 -91l-26 -134
q-9 -46 4 -71.5t56 -25.5q30 0 65.5 9t70.5 30zM1079 457l-253 -278q-16 -17 -33 -34t-39 -37h269l-20 -108h-443l18 95l252 277q15 17 33.5 36t36.5 36h-243l21 108h419z" />
    <glyph glyph-name="uni01F4" unicode="&#x1f4;" horiz-adv-x="677" 
d="M621 611q-32 9 -83.5 14t-98.5 5q-59 0 -98.5 -12t-65 -35.5t-40.5 -58t-24 -80.5l-26 -132q-9 -45 -8.5 -80.5t17.5 -60t54 -37.5t101 -13q20 0 43 1.5t47 6.5l34 176h-127l23 117h269l-77 -398q-55 -19 -123 -26.5t-130 -7.5q-175 0 -240.5 80.5t-30.5 257.5l22 117
q19 94 51 155t79.5 96.5t111.5 49.5t146 14q25 0 53 -1.5t54.5 -4.5t50 -7.5t41.5 -11.5zM478 945h159l-139 -142h-135z" />
    <glyph glyph-name="uni01F5" unicode="&#x1f5;" horiz-adv-x="612" 
d="M156 -6q-47 0 -78 15.5t-48 42t-21 62t4 76.5l33 166q12 59 34 99.5t54.5 65t74 35t91.5 10.5q19 0 40.5 -2.5t42.5 -7.5t40.5 -13.5t34.5 -21.5l15 31h109l-109 -559q-10 -52 -28 -92t-50 -67.5t-81.5 -42t-121.5 -14.5q-41 0 -84 4.5t-74 13.5l21 108q33 -8 66.5 -11.5
t71.5 -3.5q66 0 97.5 23.5t42.5 77.5l11 57q-39 -25 -83.5 -38.5t-104.5 -13.5zM412 426q-17 14 -42.5 20.5t-48.5 6.5q-52 0 -86 -24t-47 -91l-25 -130q-9 -46 4 -71.5t56 -25.5q30 0 65 9t70 30zM363 745h159l-139 -142h-135z" />
    <glyph glyph-name="uni01F6" unicode="&#x1f6;" horiz-adv-x="1030" 
d="M724 750l-104 -535q-10 -50 4.5 -75.5t62.5 -25.5t71 25.5t33 75.5l66 337h145l-70 -356q-7 -38 -20.5 -75t-41.5 -66.5t-75 -47.5t-121 -18q-73 0 -116 21.5t-64.5 55.5t-25 74.5t3.5 78.5l18 98h-286l-61 -317h-149l145 750h149l-57 -295h286l57 295h150z" />
    <glyph glyph-name="uni01F7" unicode="&#x1f7;" horiz-adv-x="665" 
d="M140 750h149l-11 -56l110 44q25 10 55.5 17.5t60.5 7.5q55 0 88 -21.5t48.5 -56t16.5 -78t-8 -88.5l-22 -113q-12 -64 -40.5 -122.5t-83.5 -109t-141 -89.5t-215 -64l-46 -237h-149zM254 565l-79 -405q91 21 147 49t88.5 62.5t46.5 73.5t23 83l20 99q11 57 -3 80t-50 23
q-17 0 -32 -4.5t-31 -10.5z" />
    <glyph glyph-name="uni01F8" unicode="&#x1f8;" horiz-adv-x="708" 
d="M570 0h-155l-160 457q-6 17 -11.5 36t-10.5 46l-104 -539h-135l145 750h154l162 -475q6 -18 9.5 -31.5t9.5 -38.5l106 545h135zM526 803h-126l-85 142h151z" />
    <glyph glyph-name="uni01F9" unicode="&#x1f9;" horiz-adv-x="596" 
d="M463 0h-146l69 359q4 20 4.5 35t-4 25t-15 15t-29.5 5q-28 0 -62 -9.5t-66 -29.5l-78 -400h-146l107 552h114l1 -45q46 28 99 43.5t94 15.5q48 0 77 -16t43 -43t15.5 -62t-5.5 -72zM433 603h-126l-85 142h151z" />
    <glyph glyph-name="Aringacute" unicode="&#x1fa;" horiz-adv-x="766" 
d="M504 750l120 -750h-158l-24 180h-252l-92 -180h-162l401 750h167zM252 309h177l-20 173q-4 35 -5 64t-3 69q-16 -40 -29 -69t-31 -64zM434 834q23 0 38.5 15.5t15.5 41.5q0 17 -9 26.5t-26 9.5q-23 0 -38.5 -15.5t-15.5 -41.5q0 -17 9 -26.5t26 -9.5zM422 772
q-42 0 -66 26t-24 63q0 27 10 50.5t28 41t42.5 27t52.5 9.5q42 0 66 -26t24 -63q0 -27 -10 -50.5t-28 -41t-42.5 -27t-52.5 -9.5zM527 1151h159l-139 -142h-135z" />
    <glyph glyph-name="aringacute" unicode="&#x1fb;" horiz-adv-x="542" 
d="M416 0h-111l-4 48q-30 -21 -73 -39.5t-105 -18.5q-77 0 -112 46t-21 127l5 29q7 43 26.5 71.5t52 45.5t79.5 24.5t109 7.5h79l5 29q4 25 4 42t-8 27t-25 14t-45 4q-16 0 -36.5 -2t-43 -6t-45.5 -9.5t-44 -12.5l21 108q19 7 43 12.5t49.5 9.5t50.5 6.5t46 2.5
q67 0 105 -18.5t55 -49.5t17.5 -70t-7.5 -79zM321 244h-70q-58 0 -85 -14.5t-33 -55.5l-2 -13q-5 -35 6 -48.5t41 -13.5q28 0 60.5 9.5t61.5 26.5zM335 644q23 0 38.5 15.5t15.5 41.5q0 17 -9 26.5t-26 9.5q-23 0 -38.5 -15.5t-15.5 -41.5q0 -17 9 -26.5t26 -9.5zM323 582
q-42 0 -66 26t-24 63q0 27 10 50.5t28 41t42.5 27t52.5 9.5q42 0 66 -26t24 -63q0 -27 -10 -50.5t-28 -41t-42.5 -27t-52.5 -9.5zM415 956h159l-139 -142h-135z" />
    <glyph glyph-name="AEacute" unicode="&#x1fc;" horiz-adv-x="1038" 
d="M1057 750l-24 -125h-329l-35 -179h297l-24 -124h-297l-39 -197h343l-23 -125h-495l35 180h-215l-140 -180h-179l591 750h534zM668 945h159l-139 -142h-135zM342 309h149l53 276q-17 -29 -33.5 -53.5t-30.5 -43.5z" />
    <glyph glyph-name="aeacute" unicode="&#x1fd;" horiz-adv-x="872" 
d="M806 235h-345l-4 -21q-12 -64 15.5 -90t105.5 -26q32 0 77 5t85 19l-20 -105q-18 -7 -41 -12.5t-47 -9t-47.5 -5t-43.5 -1.5q-70 0 -110.5 18.5t-68.5 53.5q-54 -35 -109.5 -53t-126.5 -18q-77 0 -114 45t-21 126l4 20q9 44 27.5 72.5t50 45.5t76 24t105.5 7h87l7 40
q5 25 4.5 42t-8.5 27t-25 14t-45 4q-16 0 -36.5 -2t-43 -6t-45.5 -9.5t-44 -12.5l21 108q21 7 46 12.5t50.5 9.5t50 6.5t45.5 2.5q63 0 97.5 -14.5t51.5 -37.5q42 29 84.5 40.5t84.5 11.5q50 0 89.5 -16t64 -51t32 -90t-7.5 -132zM689 330l2 9q9 52 -8.5 84.5t-73.5 32.5
q-54 0 -86 -32.5t-42 -85.5l-1 -8h209zM321 233h-70q-29 0 -49 -2t-33.5 -8t-21.5 -17.5t-12 -31.5l-1 -10q-8 -35 4 -50t42 -15q28 0 60.5 9.5t61.5 26.5zM525 745h159l-139 -142h-135z" />
    <glyph glyph-name="Oslashacute" unicode="&#x1fe;" horiz-adv-x="735" 
d="M-52 -43l114 133q-57 92 -25 247l24 120q16 81 49 138.5t81.5 95t112 55t139.5 17.5q99 0 162 -39l58 68h124l-115 -134q58 -91 28 -245l-24 -120q-32 -162 -128 -234t-253 -72q-101 0 -165 38l-58 -68h-124zM184 324q-12 -61 -8 -100l333 388q-35 21 -91 21
q-88 0 -140.5 -48t-73.5 -159zM551 426q11 57 6 98l-331 -387q33 -20 91 -20q86 0 139 48t75 159zM484 945h159l-139 -142h-135z" />
    <glyph glyph-name="oslashacute" unicode="&#x1ff;" horiz-adv-x="591" 
d="M-43 -43l88 105q-48 71 -24 196l15 76q23 118 97 175t196 57q71 0 120 -26l37 44h117l-89 -105q39 -70 18 -179l-15 -76q-24 -124 -97.5 -180t-198.5 -56q-32 0 -58 5t-48 14l-42 -50h-116zM370 745h159l-139 -142h-135zM164 246q-3 -15 -4.5 -27.5t-2.5 -23.5l206 244
q-20 12 -52 12q-52 0 -86 -32t-49 -111zM389 308q2 8 2.5 14.5t1.5 13.5l-191 -226q18 -6 42 -6q51 0 84 31.5t49 110.5z" />
    <glyph glyph-name="uni0200" unicode="&#x200;" horiz-adv-x="704" 
d="M504 750l120 -750h-158l-24 180h-252l-92 -180h-162l401 750h167zM252 309h177l-20 173q-4 35 -5 64t-3 69q-16 -40 -29 -69t-31 -64zM386 803h-89l-43 142h110zM549 803h-90l-46 142h114z" />
    <glyph glyph-name="uni0201" unicode="&#x201;" horiz-adv-x="542" 
d="M416 0h-111l-4 48q-30 -21 -73 -39.5t-105 -18.5q-77 0 -112 46t-21 127l5 29q7 43 26.5 71.5t52 45.5t79.5 24.5t109 7.5h79l5 29q4 25 4 42t-8 27t-25 14t-45 4q-16 0 -36.5 -2t-43 -6t-45.5 -9.5t-44 -12.5l21 108q19 7 43 12.5t49.5 9.5t50.5 6.5t46 2.5
q67 0 105 -18.5t55 -49.5t17.5 -70t-7.5 -79zM321 244h-70q-58 0 -85 -14.5t-33 -55.5l-2 -13q-5 -35 6 -48.5t41 -13.5q28 0 60.5 9.5t61.5 26.5zM302 603h-89l-43 142h110zM465 603h-90l-46 142h114z" />
    <glyph glyph-name="uni0202" unicode="&#x202;" horiz-adv-x="704" 
d="M504 750l120 -750h-158l-24 180h-252l-92 -180h-162l401 750h167zM252 309h177l-20 173q-4 35 -5 64t-3 69q-16 -40 -29 -69t-31 -64zM450 950q33 0 57.5 -12.5t40 -32.5t21.5 -46.5t3 -54.5h-81q5 61 -50 61q-29 0 -46 -17t-25 -44h-84q6 31 19.5 57.5t34.5 46t49 31
t61 11.5z" />
    <glyph glyph-name="uni0203" unicode="&#x203;" horiz-adv-x="542" 
d="M416 0h-111l-4 48q-30 -21 -73 -39.5t-105 -18.5q-77 0 -112 46t-21 127l5 29q7 43 26.5 71.5t52 45.5t79.5 24.5t109 7.5h79l5 29q4 25 4 42t-8 27t-25 14t-45 4q-16 0 -36.5 -2t-43 -6t-45.5 -9.5t-44 -12.5l21 108q19 7 43 12.5t49.5 9.5t50.5 6.5t46 2.5
q67 0 105 -18.5t55 -49.5t17.5 -70t-7.5 -79zM321 244h-70q-58 0 -85 -14.5t-33 -55.5l-2 -13q-5 -35 6 -48.5t41 -13.5q28 0 60.5 9.5t61.5 26.5zM341 750q33 0 57.5 -12.5t40 -32.5t21.5 -46.5t3 -54.5h-81q5 61 -50 61q-29 0 -46 -17t-25 -44h-84q6 31 19.5 57.5t34.5 46
t49 31t61 11.5z" />
    <glyph glyph-name="uni0204" unicode="&#x204;" horiz-adv-x="598" 
d="M617 750l-24 -125h-329l-35 -179h298l-24 -124h-298l-39 -197h344l-23 -125h-493l145 750h478zM370 803h-89l-43 142h110zM533 803h-90l-46 142h114z" />
    <glyph glyph-name="uni0205" unicode="&#x205;" horiz-adv-x="572" 
d="M503 225h-347l-2 -11q-13 -64 15 -90t106 -26q32 0 77 5t85 19l-20 -107q-37 -14 -86 -20t-91 -6q-270 0 -219 265l13 67q13 69 40 116t63.5 75.5t81.5 41t96 12.5q55 0 98.5 -15t71 -48t36.5 -86t-6 -129zM384 320l4 19q9 52 -8.5 84.5t-73.5 32.5q-57 0 -88.5 -32.5
t-41.5 -85.5l-3 -18h211zM301 603h-89l-43 142h110zM464 603h-90l-46 142h114z" />
    <glyph glyph-name="uni0206" unicode="&#x206;" horiz-adv-x="598" 
d="M617 750l-24 -125h-329l-35 -179h298l-24 -124h-298l-39 -197h344l-23 -125h-493l145 750h478zM420 950q33 0 57.5 -12.5t40 -32.5t21.5 -46.5t3 -54.5h-81q5 61 -50 61q-29 0 -46 -17t-25 -44h-84q6 31 19.5 57.5t34.5 46t49 31t61 11.5z" />
    <glyph glyph-name="uni0207" unicode="&#x207;" horiz-adv-x="572" 
d="M503 225h-347l-2 -11q-13 -64 15 -90t106 -26q32 0 77 5t85 19l-20 -107q-37 -14 -86 -20t-91 -6q-270 0 -219 265l13 67q13 69 40 116t63.5 75.5t81.5 41t96 12.5q55 0 98.5 -15t71 -48t36.5 -86t-6 -129zM384 320l4 19q9 52 -8.5 84.5t-73.5 32.5q-57 0 -88.5 -32.5
t-41.5 -85.5l-3 -18h211zM350 750q33 0 57.5 -12.5t40 -32.5t21.5 -46.5t3 -54.5h-81q5 61 -50 61q-29 0 -46 -17t-25 -44h-84q6 31 19.5 57.5t34.5 46t49 31t61 11.5z" />
    <glyph glyph-name="uni0208" unicode="&#x208;" horiz-adv-x="281" 
d="M143 0h-149l145 750h149zM187 803h-89l-43 142h110zM350 803h-90l-46 142h114z" />
    <glyph glyph-name="uni0209" unicode="&#x209;" horiz-adv-x="276" 
d="M136 0h-146l107 552h146zM140 603h-89l-43 142h110zM303 603h-90l-46 142h114z" />
    <glyph glyph-name="uni020A" unicode="&#x20a;" horiz-adv-x="281" 
d="M143 0h-149l145 750h149zM247 950q33 0 57.5 -12.5t40 -32.5t21.5 -46.5t3 -54.5h-81q5 61 -50 61q-29 0 -46 -17t-25 -44h-84q6 31 19.5 57.5t34.5 46t49 31t61 11.5z" />
    <glyph glyph-name="uni020B" unicode="&#x20b;" horiz-adv-x="276" 
d="M196 750q33 0 57.5 -12.5t40 -32.5t21.5 -46.5t3 -54.5h-81q5 61 -50 61q-29 0 -46 -17t-25 -44h-84q6 31 19.5 57.5t34.5 46t49 31t61 11.5zM136 0h-146l107 552h146z" />
    <glyph glyph-name="uni020C" unicode="&#x20c;" horiz-adv-x="735" 
d="M676 293q-32 -162 -128 -234t-253 -72q-80 0 -136.5 24t-89 69t-41 110t8.5 147l24 120q16 81 49 138.5t81.5 95t112 55t139.5 17.5q77 0 133 -24t89 -69t42 -110t-7 -147zM551 426q21 110 -13 158.5t-120 48.5q-88 0 -140.5 -48t-73.5 -159l-20 -102q-22 -111 12 -159
t121 -48q86 0 139 48t75 159zM404 803h-89l-43 142h110zM567 803h-90l-46 142h114z" />
    <glyph glyph-name="uni020D" unicode="&#x20d;" horiz-adv-x="589" 
d="M516 224q-24 -124 -97.5 -180t-198.5 -56q-63 0 -106.5 19t-68.5 54.5t-31 85t6 111.5l15 76q23 118 97 175t196 57q63 0 107 -19t69.5 -53.5t32 -84t-5.5 -109.5zM388 308q15 79 -6 111t-72 32q-52 0 -86 -32t-49 -111l-12 -62q-16 -79 6 -110.5t74 -31.5q51 0 84 31.5
t49 110.5zM302 603h-89l-43 142h110zM465 603h-90l-46 142h114z" />
    <glyph glyph-name="uni020E" unicode="&#x20e;" horiz-adv-x="735" 
d="M676 293q-32 -162 -128 -234t-253 -72q-80 0 -136.5 24t-89 69t-41 110t8.5 147l24 120q16 81 49 138.5t81.5 95t112 55t139.5 17.5q77 0 133 -24t89 -69t42 -110t-7 -147zM551 426q21 110 -13 158.5t-120 48.5q-88 0 -140.5 -48t-73.5 -159l-20 -102q-22 -111 12 -159
t121 -48q86 0 139 48t75 159zM472 950q33 0 57.5 -12.5t40 -32.5t21.5 -46.5t3 -54.5h-81q5 61 -50 61q-29 0 -46 -17t-25 -44h-84q6 31 19.5 57.5t34.5 46t49 31t61 11.5z" />
    <glyph glyph-name="uni020F" unicode="&#x20f;" horiz-adv-x="589" 
d="M516 224q-24 -124 -97.5 -180t-198.5 -56q-63 0 -106.5 19t-68.5 54.5t-31 85t6 111.5l15 76q23 118 97 175t196 57q63 0 107 -19t69.5 -53.5t32 -84t-5.5 -109.5zM388 308q15 79 -6 111t-72 32q-52 0 -86 -32t-49 -111l-12 -62q-16 -79 6 -110.5t74 -31.5q51 0 84 31.5
t49 110.5zM360 750q33 0 57.5 -12.5t40 -32.5t21.5 -46.5t3 -54.5h-81q5 61 -50 61q-29 0 -46 -17t-25 -44h-84q6 31 19.5 57.5t34.5 46t49 31t61 11.5z" />
    <glyph glyph-name="uni0210" unicode="&#x210;" horiz-adv-x="664" 
d="M139 750h291q59 0 104 -10.5t72.5 -35.5t37 -66.5t-2.5 -102.5l-12 -61q-14 -74 -47.5 -109t-89.5 -52l83 -313h-154l-75 293h-147l-56 -293h-149zM265 635l-44 -230h106q40 0 67.5 4t46 14.5t29 29.5t16.5 48l9 46q9 48 -16 68t-91 20h-123zM392 803h-89l-43 142h110z
M555 803h-90l-46 142h114z" />
    <glyph glyph-name="uni0211" unicode="&#x211;" horiz-adv-x="416" 
d="M389 429q-51 -3 -100 -18.5t-82 -38.5l-72 -372h-145l107 552h113l-3 -71q15 13 37.5 27.5t50 26.5t58.5 20.5t63 10.5zM231 603h-89l-43 142h110zM394 603h-90l-46 142h114z" />
    <glyph glyph-name="uni0212" unicode="&#x212;" horiz-adv-x="664" 
d="M139 750h291q59 0 104 -10.5t72.5 -35.5t37 -66.5t-2.5 -102.5l-12 -61q-14 -74 -47.5 -109t-89.5 -52l83 -313h-154l-75 293h-147l-56 -293h-149zM265 635l-44 -230h106q40 0 67.5 4t46 14.5t29 29.5t16.5 48l9 46q9 48 -16 68t-91 20h-123zM433 950q33 0 57.5 -12.5
t40 -32.5t21.5 -46.5t3 -54.5h-81q5 61 -50 61q-29 0 -46 -17t-25 -44h-84q6 31 19.5 57.5t34.5 46t49 31t61 11.5z" />
    <glyph glyph-name="uni0213" unicode="&#x213;" horiz-adv-x="416" 
d="M389 429q-51 -3 -100 -18.5t-82 -38.5l-72 -372h-145l107 552h113l-3 -71q15 13 37.5 27.5t50 26.5t58.5 20.5t63 10.5zM277 750q33 0 57.5 -12.5t40 -32.5t21.5 -46.5t3 -54.5h-81q5 61 -50 61q-29 0 -46 -17t-25 -44h-84q6 31 19.5 57.5t34.5 46t49 31t61 11.5z" />
    <glyph glyph-name="uni0214" unicode="&#x214;" horiz-adv-x="729" 
d="M283 750l-86 -440q-10 -53 -7.5 -88t17.5 -56t42.5 -29.5t68.5 -8.5q42 0 73 8.5t53.5 29.5t37.5 56t25 88l86 440h149l-92 -473q-15 -76 -41.5 -131t-67 -90t-97.5 -52t-132 -17q-157 0 -227.5 75.5t-39.5 233.5l88 454h150zM416 803h-89l-43 142h110zM579 803h-90
l-46 142h114z" />
    <glyph glyph-name="uni0215" unicode="&#x215;" horiz-adv-x="593" 
d="M93 552h146l-70 -357q-8 -40 -1 -60.5t44 -20.5q28 0 61.5 10t65.5 30l78 398h146l-107 -552h-114l-3 46q-92 -57 -189 -57q-48 0 -77 16t-43 42.5t-15.5 61t5.5 72.5zM313 603h-89l-43 142h110zM476 603h-90l-46 142h114z" />
    <glyph glyph-name="uni0216" unicode="&#x216;" horiz-adv-x="729" 
d="M283 750l-86 -440q-10 -53 -7.5 -88t17.5 -56t42.5 -29.5t68.5 -8.5q42 0 73 8.5t53.5 29.5t37.5 56t25 88l86 440h149l-92 -473q-15 -76 -41.5 -131t-67 -90t-97.5 -52t-132 -17q-157 0 -227.5 75.5t-39.5 233.5l88 454h150zM469 950q33 0 57.5 -12.5t40 -32.5
t21.5 -46.5t3 -54.5h-81q5 61 -50 61q-29 0 -46 -17t-25 -44h-84q6 31 19.5 57.5t34.5 46t49 31t61 11.5z" />
    <glyph glyph-name="uni0217" unicode="&#x217;" horiz-adv-x="593" 
d="M93 552h146l-70 -357q-8 -40 -1 -60.5t44 -20.5q28 0 61.5 10t65.5 30l78 398h146l-107 -552h-114l-3 46q-92 -57 -189 -57q-48 0 -77 16t-43 42.5t-15.5 61t5.5 72.5zM361 750q33 0 57.5 -12.5t40 -32.5t21.5 -46.5t3 -54.5h-81q5 61 -50 61q-29 0 -46 -17t-25 -44h-84
q6 31 19.5 57.5t34.5 46t49 31t61 11.5z" />
    <glyph glyph-name="uni0218" unicode="&#x218;" horiz-adv-x="600" 
d="M543 266q0 -141 -80.5 -208.5t-233.5 -67.5q-27 0 -59.5 2t-66 6t-66.5 11t-60 17l25 126q66 -23 122.5 -30t97.5 -7q46 0 77.5 7.5t50 22t26.5 36.5t8 51q0 13 -4 23t-15.5 19t-32 17.5t-53.5 17.5l-74 21q-64 18 -97.5 59t-33.5 114q0 131 80.5 194t228.5 63
q29 0 59 -1.5t57.5 -5t51 -8t40.5 -10.5l-23 -117q-37 11 -85 15.5t-90 4.5q-47 0 -79 -6.5t-51 -20t-27 -34.5t-8 -49q0 -32 23.5 -45.5t71.5 -27.5l73 -21q80 -23 113.5 -65.5t33.5 -102.5zM207 -50h130l-100 -187h-105z" />
    <glyph glyph-name="uni0219" unicode="&#x219;" horiz-adv-x="471" 
d="M412 199q0 -105 -63.5 -157t-185.5 -52q-20 0 -45 1.5t-51.5 5t-52.5 9.5t-48 15l22 111q60 -20 104.5 -25t76.5 -5q61 0 82.5 17.5t21.5 56.5q0 17 -13 24.5t-50 16.5l-52 13q-66 17 -93 55t-27 84q0 105 62 151t189 46q50 0 89.5 -6t62.5 -14l-21 -107
q-27 8 -64.5 13.5t-69.5 5.5q-65 0 -89.5 -14.5t-24.5 -51.5q0 -17 15 -25t53 -19l52 -14q36 -10 59 -24t36.5 -31.5t19 -37.5t5.5 -42zM139 -50h130l-100 -187h-105z" />
    <glyph glyph-name="uni021A" unicode="&#x21a;" horiz-adv-x="623" 
d="M66 616l26 134h584l-26 -134h-217l-119 -616h-149l119 616h-218zM188 -50h130l-100 -187h-105z" />
    <glyph glyph-name="uni021B" unicode="&#x21b;" horiz-adv-x="429" 
d="M407 442h-143l-52 -266q-8 -39 0.5 -54.5t40.5 -15.5q23 0 47.5 4t44.5 14l-21 -110q-29 -13 -64.5 -18.5t-75.5 -5.5t-66.5 12t-41 33.5t-17.5 52t4 67.5l56 287h-87l22 110h87l22 115l151 33l-28 -148h143zM104 -50h130l-100 -187h-105z" />
    <glyph glyph-name="uni021C" unicode="&#x21c;" horiz-adv-x="548" 
d="M134 335l23 119l112 11q30 3 54 9.5t41 19.5t26.5 33t9.5 50q0 32 -25 46.5t-95 14.5q-39 0 -91 -6.5t-101 -22.5l24 122q19 7 44 12.5t51.5 9.5t52.5 6t49 2q128 0 185.5 -44t57.5 -120q0 -58 -27 -107.5t-87 -81.5q39 -18 57 -51t18 -71q0 -69 -27.5 -118.5
t-73.5 -83.5t-106 -54.5t-124.5 -32.5t-129 -17.5t-119.5 -8.5l26 128q87 7 161 16.5t128 29t84.5 53t30.5 87.5q0 29 -14 45.5t-42 24.5q-29 -6 -63 -9z" />
    <glyph glyph-name="uni021D" unicode="&#x21d;" horiz-adv-x="548" 
d="M98 140l22 110l111 11q29 3 54.5 9t44.5 19t30 35t11 57q0 38 -29.5 54t-97.5 16q-37 0 -89.5 -6.5t-102.5 -22.5l22 111q19 7 44 13t51.5 10t52.5 6t49 2q64 0 109.5 -12t74 -33.5t41.5 -52t13 -67.5q0 -26 -6 -52.5t-19.5 -51.5t-35 -47t-51.5 -38q43 -21 58.5 -52
t15.5 -66q0 -70 -27.5 -120t-73.5 -84t-105.5 -55t-123.5 -33t-127.5 -17t-117.5 -8l24 123q89 7 165 16t131.5 29t87 55t31.5 92q0 56 -55 72q-34 -8 -72 -11z" />
    <glyph glyph-name="uni021E" unicode="&#x21e;" horiz-adv-x="717" 
d="M724 750l-145 -750h-150l61 317h-286l-61 -317h-149l145 750h149l-57 -295h286l57 295h150zM490 792h-104l-72 161h92l44 -78l74 78h102z" />
    <glyph glyph-name="uni021F" unicode="&#x21f;" horiz-adv-x="596" 
d="M463 0h-146l69 359q8 40 1 60t-45 20q-29 0 -63 -10t-66 -27l-77 -402h-146l145 744l151 30l-50 -255q38 21 85 34t85 13q45 0 73.5 -15t43.5 -41t17.5 -60t-4.5 -71zM458 792h-104l-72 161h92l44 -78l74 78h102z" />
    <glyph glyph-name="uni0220" unicode="&#x220;" horiz-adv-x="714" 
d="M530 -216h-149l143 738q11 54 -2.5 81t-65.5 27q-24 0 -51 -6t-53.5 -15.5t-52 -21t-47.5 -23.5l-109 -564h-149l145 750h130l1 -65q133 80 254 80q50 0 83.5 -18t51.5 -50t22 -75t-6 -94z" />
    <glyph glyph-name="uni0221" unicode="&#x221;" horiz-adv-x="700" 
d="M498 134q17 5 33 8.5t33 3.5q29 0 49 -7.5t32 -20t17.5 -29t5.5 -34.5q0 -26 -10.5 -47.5t-28.5 -36.5t-42.5 -23.5t-51.5 -8.5t-58.5 10t-56.5 36q-17 -23 -29 -46t-19 -38h-97q20 46 48 86.5t61 72.5q-1 2 -1 7q-57 -42 -110.5 -59.5t-113.5 -17.5q-49 0 -81 17.5
t-49 46.5t-20 66.5t5 78.5l32 160q12 59 34.5 99t55 64t74.5 34t92 10q36 0 70.5 -7t60.5 -21l41 206l150 30zM411 426q-17 14 -44.5 20.5t-50.5 6.5q-52 0 -84 -24t-45 -91l-26 -134q-9 -46 4 -71.5t56 -25.5q30 0 65.5 9t70.5 30zM554 73q-34 0 -66 -21q4 -14 16 -24.5
t40 -10.5q20 0 32.5 8.5t12.5 21.5t-7.5 19.5t-27.5 6.5z" />
    <glyph glyph-name="uni0222" unicode="&#x222;" horiz-adv-x="626" 
d="M275 333l-26 -15q-26 -15 -46.5 -28.5t-34.5 -28.5t-21 -33.5t-7 -43.5q0 -36 27.5 -56t87.5 -20q76 0 115 33.5t39 88.5q0 32 -18.5 52t-68.5 36zM437 762q89 -8 132 -55.5t43 -112.5q0 -79 -40.5 -130.5t-112.5 -86.5q56 -20 79 -57t23 -82q0 -55 -21 -101t-62 -79
t-100.5 -51.5t-137.5 -18.5q-66 0 -112.5 13.5t-76.5 37t-43.5 55t-13.5 67.5q0 76 41.5 134t130.5 90q-43 18 -63 52.5t-20 79.5q0 55 18.5 98.5t51.5 74t78.5 49t99.5 23.5l-22 -117q-45 -11 -62 -44t-17 -71q0 -29 17.5 -45.5t53.5 -28.5l52 -17l34 18q34 18 60 49t26 81
q0 23 -13 39t-45 21z" />
    <glyph glyph-name="uni0223" unicode="&#x223;" horiz-adv-x="579" 
d="M259 336l-20 -10q-57 -29 -85 -62.5t-28 -84.5q0 -35 25 -57t83 -22q36 0 63.5 10.5t45.5 28.5t27.5 42t9.5 51q0 32 -21 55t-69 39zM420 775q80 -11 116.5 -55t36.5 -106q0 -39 -8 -71t-26.5 -60t-48 -52t-71.5 -46q49 -22 72.5 -61.5t23.5 -86.5q0 -52 -19 -97.5
t-56.5 -79t-92 -52.5t-125.5 -19q-62 0 -105 13.5t-70.5 37t-40 55t-12.5 66.5q0 81 41 140t129 93q-42 22 -61.5 60.5t-19.5 82.5q0 52 18 94t49 72.5t72.5 48.5t88.5 23l-21 -110q-36 -11 -56.5 -43.5t-20.5 -74.5q0 -34 18.5 -53.5t51.5 -30.5l43 -14l30 14
q36 17 63.5 52.5t27.5 92.5q0 21 -11 36.5t-37 23.5z" />
    <glyph glyph-name="uni0224" unicode="&#x224;" horiz-adv-x="611" 
d="M218 198q-16 -17 -33 -34.5t-36 -34.5h389l-24 -129l-1 -5q-9 -47 -23.5 -79.5t-38 -52.5t-57 -28.5t-79.5 -8.5q-23 0 -49 3t-43 8l22 109q14 -4 31 -6t31 -2q26 0 42.5 11t21.5 43l1 8h-421l22 120l401 433q15 16 33 34t37 35h-357l24 128h536l-23 -119z" />
    <glyph glyph-name="uni0225" unicode="&#x225;" horiz-adv-x="495" 
d="M475 457l-253 -278q-16 -17 -33 -34t-39 -37h269l-20 -108h-1l-1 -9q-8 -43 -21.5 -74t-35.5 -51t-53.5 -29.5t-74.5 -9.5q-28 0 -49.5 2.5t-41.5 7.5l21 103q16 -5 31.5 -6.5t33.5 -1.5q28 0 46 12.5t25 45.5l2 10h-324l18 95l252 277q15 17 33.5 36t36.5 36h-243
l21 108h419z" />
    <glyph glyph-name="uni0226" unicode="&#x226;" horiz-adv-x="704" 
d="M504 750l120 -750h-158l-24 180h-252l-92 -180h-162l401 750h167zM252 309h177l-20 173q-4 35 -5 64t-3 69q-16 -40 -29 -69t-31 -64zM401 930h106l-23 -118h-106z" />
    <glyph glyph-name="uni0227" unicode="&#x227;" horiz-adv-x="542" 
d="M416 0h-111l-4 48q-30 -21 -73 -39.5t-105 -18.5q-77 0 -112 46t-21 127l5 29q7 43 26.5 71.5t52 45.5t79.5 24.5t109 7.5h79l5 29q4 25 4 42t-8 27t-25 14t-45 4q-16 0 -36.5 -2t-43 -6t-45.5 -9.5t-44 -12.5l21 108q19 7 43 12.5t49.5 9.5t50.5 6.5t46 2.5
q67 0 105 -18.5t55 -49.5t17.5 -70t-7.5 -79zM321 244h-70q-58 0 -85 -14.5t-33 -55.5l-2 -13q-5 -35 6 -48.5t41 -13.5q28 0 60.5 9.5t61.5 26.5zM289 730h106l-23 -118h-106z" />
    <glyph glyph-name="uni0228" unicode="&#x228;" horiz-adv-x="598" 
d="M206 -269q-23 0 -49 2t-46 6l16 78q14 -2 31.5 -3.5t39.5 -1.5q38 0 53 10.5t18 24.5l2 10q4 18 -10 27.5t-59 9.5h-21l21 106h-208l145 750h478l-24 -125h-329l-35 -179h298l-24 -124h-298l-39 -197h344l-23 -125h-188l-10 -50q31 -3 50 -13t28.5 -24t10.5 -32.5
t-3 -38.5l-2 -10q-11 -57 -54.5 -79t-112.5 -22z" />
    <glyph glyph-name="uni0229" unicode="&#x229;" horiz-adv-x="572" 
d="M180 -269q-23 0 -49 2t-46 6l16 78q14 -2 31.5 -3.5t39.5 -1.5q38 0 53 10.5t18 24.5l2 10q4 18 -10 27.5t-59 9.5h-21l19 100q-197 30 -153 260l13 67q13 69 40 116t63.5 75.5t81.5 41t96 12.5q55 0 98.5 -15t71 -48t36.5 -86t-6 -129l-12 -63h-347l-2 -11
q-13 -64 15 -90t106 -26q32 0 77 5t85 19l-20 -107q-31 -11 -70 -17t-76 -8l-8 -40q31 -3 50 -13t28.5 -24t10.5 -32.5t-3 -38.5l-2 -10q-11 -57 -54.5 -79t-112.5 -22zM384 320l4 19q9 52 -8.5 84.5t-73.5 32.5q-57 0 -88.5 -32.5t-41.5 -85.5l-3 -18h211z" />
    <glyph glyph-name="uni022A" unicode="&#x22a;" horiz-adv-x="735" 
d="M676 293q-32 -162 -128 -234t-253 -72q-80 0 -136.5 24t-89 69t-41 110t8.5 147l24 120q16 81 49 138.5t81.5 95t112 55t139.5 17.5q77 0 133 -24t89 -69t42 -110t-7 -147zM551 426q21 110 -13 158.5t-120 48.5q-88 0 -140.5 -48t-73.5 -159l-20 -102q-22 -111 12 -159
t121 -48q86 0 139 48t75 159zM326 905h105l-23 -118h-105zM512 905h105l-23 -118h-105zM350 1036h291l-19 -94h-291z" />
    <glyph glyph-name="uni022B" unicode="&#x22b;" horiz-adv-x="589" 
d="M516 224q-24 -124 -97.5 -180t-198.5 -56q-63 0 -106.5 19t-68.5 54.5t-31 85t6 111.5l15 76q23 118 97 175t196 57q63 0 107 -19t69.5 -53.5t32 -84t-5.5 -109.5zM388 308q15 79 -6 111t-72 32q-52 0 -86 -32t-49 -111l-12 -62q-16 -79 6 -110.5t74 -31.5q51 0 84 31.5
t49 110.5zM214 703h105l-23 -118h-105zM400 703h105l-23 -118h-105zM235 825h291l-19 -94h-291z" />
    <glyph glyph-name="uni022C" unicode="&#x22c;" horiz-adv-x="735" 
d="M676 293q-32 -162 -128 -234t-253 -72q-80 0 -136.5 24t-89 69t-41 110t8.5 147l24 120q16 81 49 138.5t81.5 95t112 55t139.5 17.5q77 0 133 -24t89 -69t42 -110t-7 -147zM551 426q21 110 -13 158.5t-120 48.5q-88 0 -140.5 -48t-73.5 -159l-20 -102q-22 -111 12 -159
t121 -48q86 0 139 48t75 159zM510 776q-23 0 -36.5 7.5t-24 17t-19.5 17t-21 7.5q-16 0 -26 -14.5t-17 -34.5h-88q7 24 17.5 49t26.5 46t37 34t49 13q23 0 37.5 -7.5t25.5 -17t20 -17t20 -7.5q19 0 28 15.5t14 35.5h88q-5 -22 -15 -47.5t-25.5 -47t-38 -35.5t-52.5 -14z
M351 1038h291l-19 -94h-291z" />
    <glyph glyph-name="uni022D" unicode="&#x22d;" horiz-adv-x="589" 
d="M516 224q-24 -124 -97.5 -180t-198.5 -56q-63 0 -106.5 19t-68.5 54.5t-31 85t6 111.5l15 76q23 118 97 175t196 57q63 0 107 -19t69.5 -53.5t32 -84t-5.5 -109.5zM388 308q15 79 -6 111t-72 32q-52 0 -86 -32t-49 -111l-12 -62q-16 -79 6 -110.5t74 -31.5q51 0 84 31.5
t49 110.5zM399 578q-23 0 -36.5 7.5t-24 17t-19.5 17t-21 7.5q-16 0 -26 -14.5t-17 -34.5h-88q7 24 17.5 49t26.5 46t37 34t49 13q23 0 37.5 -7.5t25.5 -17t20 -17t20 -7.5q19 0 28 15.5t14 35.5h88q-5 -22 -15 -47.5t-25.5 -47t-38 -35.5t-52.5 -14zM238 837h291l-19 -94
h-291z" />
    <glyph glyph-name="uni022E" unicode="&#x22e;" horiz-adv-x="735" 
d="M676 293q-32 -162 -128 -234t-253 -72q-80 0 -136.5 24t-89 69t-41 110t8.5 147l24 120q16 81 49 138.5t81.5 95t112 55t139.5 17.5q77 0 133 -24t89 -69t42 -110t-7 -147zM551 426q21 110 -13 158.5t-120 48.5q-88 0 -140.5 -48t-73.5 -159l-20 -102q-22 -111 12 -159
t121 -48q86 0 139 48t75 159zM423 930h106l-23 -118h-106z" />
    <glyph glyph-name="uni022F" unicode="&#x22f;" horiz-adv-x="589" 
d="M516 224q-24 -124 -97.5 -180t-198.5 -56q-63 0 -106.5 19t-68.5 54.5t-31 85t6 111.5l15 76q23 118 97 175t196 57q63 0 107 -19t69.5 -53.5t32 -84t-5.5 -109.5zM388 308q15 79 -6 111t-72 32q-52 0 -86 -32t-49 -111l-12 -62q-16 -79 6 -110.5t74 -31.5q51 0 84 31.5
t49 110.5zM311 730h106l-23 -118h-106z" />
    <glyph glyph-name="uni0230" unicode="&#x230;" horiz-adv-x="735" 
d="M676 293q-32 -162 -128 -234t-253 -72q-80 0 -136.5 24t-89 69t-41 110t8.5 147l24 120q16 81 49 138.5t81.5 95t112 55t139.5 17.5q77 0 133 -24t89 -69t42 -110t-7 -147zM551 426q21 110 -13 158.5t-120 48.5q-88 0 -140.5 -48t-73.5 -159l-20 -102q-22 -111 12 -159
t121 -48q86 0 139 48t75 159zM419 910h106l-23 -118h-106zM350 1036h291l-19 -94h-291z" />
    <glyph glyph-name="uni0231" unicode="&#x231;" horiz-adv-x="589" 
d="M517 224q-24 -124 -97.5 -180t-198.5 -56q-63 0 -106.5 19t-68.5 54.5t-31 85t6 111.5l15 76q23 118 97 175t196 57q63 0 107 -19t69.5 -53.5t32 -84t-5.5 -109.5zM389 308q15 79 -6 111t-72 32q-52 0 -86 -32t-49 -111l-12 -62q-16 -79 6 -110.5t74 -31.5q51 0 84 31.5
t49 110.5zM307 705h106l-23 -118h-106zM236 825h291l-19 -94h-291z" />
    <glyph glyph-name="uni0232" unicode="&#x232;" horiz-adv-x="640" 
d="M380 296l-56 -296h-149l56 294l-154 456h154l59 -205q10 -35 18 -67t16 -73q21 43 40 75.5t41 64.5l139 205h165zM271 927h291l-19 -94h-291z" />
    <glyph glyph-name="uni0233" unicode="&#x233;" horiz-adv-x="616" 
d="M589 552l-418 -765h-152l116 214l-91 551h142l39 -310q3 -23 5 -50t3 -68q16 42 30 71t22 46l156 311h148zM194 727h291l-19 -94h-291z" />
    <glyph glyph-name="uni0234" unicode="&#x234;" horiz-adv-x="372" 
d="M-100 0q56 113 142 170l2 16t3 17l106 541l151 30l-108 -553q7 0 13 0.5t13 0.5q39 0 64.5 -8.5t40 -22.5t20 -31t5.5 -33q0 -28 -9.5 -53t-29.5 -44t-50 -30.5t-72 -11.5q-59 0 -93 22.5t-48 61.5q-15 -15 -28 -33t-23 -39h-99zM212 141q-17 0 -32 -3q-2 -11 -2.5 -22.5
t2.5 -21t10.5 -15.5t22.5 -6q17 0 29 10t12 31q0 12 -9.5 19.5t-32.5 7.5z" />
    <glyph glyph-name="uni0235" unicode="&#x235;" horiz-adv-x="676" 
d="M505 221q6 0 12 0.5t12 0.5q38 0 62.5 -9t39 -23t20 -31.5t5.5 -33.5q0 -59 -40 -98t-115 -39q-60 0 -93.5 23t-46.5 63q-33 -31 -54 -74h-99q54 115 144 171q2 20 6 41l28 147q4 20 4.5 35t-4 25t-15 15t-29.5 5q-28 0 -62 -9.5t-66 -29.5l-78 -400h-146l107 552h114
l1 -45q46 28 99 43.5t94 15.5q48 0 76.5 -16t43 -43t16 -62t-5.5 -72zM520 141q-8 0 -15.5 -0.5t-15.5 -1.5q-5 -30 1.5 -48t31.5 -18q15 0 27.5 9t12.5 30q0 12 -9.5 20.5t-32.5 8.5z" />
    <glyph glyph-name="uni0236" unicode="&#x236;" horiz-adv-x="423" 
d="M229 221q7 0 13 0.5t13 0.5q39 0 64.5 -8.5t40 -22.5t20 -31t5.5 -33q0 -28 -10 -53t-29.5 -44t-49.5 -30.5t-70 -11.5q-58 0 -92.5 22.5t-48.5 62.5q-32 -30 -53 -73h-99q29 59 64.5 101t78.5 70q2 20 6 41l45 230h-87l22 110h87l22 115l151 33l-28 -148h143l-22 -110
h-143zM245 141q-17 0 -32 -3q-2 -11 -2.5 -22.5t2.5 -21t10.5 -15.5t22.5 -6q17 0 29 10t12 31q0 12 -9.5 19.5t-32.5 7.5z" />
    <glyph glyph-name="uni0237" unicode="&#x237;" horiz-adv-x="298" 
d="M262 552l-118 -601q-10 -52 -25.5 -85.5t-39 -53t-55.5 -27.5t-76 -8q-31 0 -63.5 3t-56.5 10l23 118q20 -4 37.5 -5.5t35.5 -1.5q19 0 32 2.5t22 10.5t14.5 23t10.5 39l113 576h146z" />
    <glyph glyph-name="uni0238" unicode="&#x238;" horiz-adv-x="947" 
d="M753 566q48 0 79 -16.5t48.5 -44t21 -64.5t-4.5 -78l-34 -175q-12 -60 -35 -98t-55 -60.5t-71.5 -31t-83.5 -8.5q-37 0 -79.5 11t-76.5 40l-15 -41h-92l-5 47q-40 -27 -85.5 -42t-105.5 -15q-49 0 -81 17.5t-49 46.5t-20 66.5t5 78.5l32 160q12 59 34.5 99t55 64t74.5 34
t92 10q36 0 70.5 -7t60.5 -21l41 206l150 30l-50 -259l1 3q37 20 83.5 34t94.5 14zM411 426q-17 14 -44.5 20.5t-50.5 6.5q-52 0 -84 -24t-45 -91l-26 -134q-9 -46 4 -71.5t56 -25.5q30 0 65.5 9t70.5 30zM685 445q-32 0 -68 -12t-65 -29l-51 -263q24 -19 52.5 -25t48.5 -6
q59 0 85 27.5t37 86.5l23 121q10 52 -2.5 76t-59.5 24z" />
    <glyph glyph-name="uni0239" unicode="&#x239;" horiz-adv-x="948" 
d="M431 -216h-145l48 245q-34 -19 -75.5 -29t-93.5 -10q-49 0 -82 16t-51.5 44t-22.5 64.5t4 77.5l33 170q12 59 34.5 98.5t55 63t72.5 33t87 9.5q49 0 90 -12.5t65 -36.5l19 35h81l5 -43q50 30 101 43.5t97 13.5q47 0 78.5 -15.5t49 -42.5t21.5 -63t-4 -76l-34 -176
q-11 -59 -34 -98t-56 -62.5t-75 -33.5t-91 -10q-32 0 -66.5 5t-66.5 16zM409 417q-15 17 -43.5 26.5t-56.5 9.5q-22 0 -41.5 -5.5t-35.5 -18.5t-27.5 -35t-17.5 -56l-26 -134q-11 -52 3.5 -74.5t60.5 -22.5q65 0 129 26zM497 121q21 -8 47 -12t48 -4q33 0 56 8t38 24
t24.5 40.5t15.5 58.5l21 108q10 52 -2.5 76.5t-59.5 24.5q-33 0 -68.5 -12.5t-64.5 -28.5z" />
    <glyph glyph-name="uni023A" unicode="&#x23a;" horiz-adv-x="688" 
d="M504 750l24 -155l128 197h92l-202 -310l78 -482h-158l-24 180h-92l-144 -223h-92l144 223h-68l-92 -180h-162l401 750h167zM252 309h90l74 113l-7 60q-4 35 -5 64t-3 69q-16 -40 -29 -69t-31 -64z" />
    <glyph glyph-name="uni023B" unicode="&#x23b;" horiz-adv-x="602" 
d="M41 -43l53 82q-52 39 -65 110t9 179l23 118q18 94 50 154.5t79 96t111 49.5t146 14q28 0 56.5 -1.5t54.5 -5.5l25 39h92l-39 -59l-24 -125q-11 3 -23.5 5.5t-26.5 4.5l-314 -484q34 -10 92 -10q42 0 92.5 5t99.5 19l-25 -127q-23 -9 -49.5 -15t-54 -9.5t-54.5 -5
t-51 -1.5q-39 0 -72.5 4t-60.5 12l-32 -49h-92zM185 315q-18 -89 2 -132l288 442q-9 1 -18 1h-17q-54 0 -93.5 -10t-66.5 -32t-43.5 -57t-26.5 -85z" />
    <glyph glyph-name="uni023C" unicode="&#x23c;" horiz-adv-x="511" 
d="M10 -43l53 82q-37 33 -47 88t5 130l13 66q13 69 39.5 115.5t65 75t90 40.5t115.5 12q29 0 56 -3l33 51h92l-43 -66q4 -2 7.5 -2.5t6.5 -2.5l-21 -110q-11 4 -26 7t-32 6l-214 -332q28 -9 74 -9q30 0 69 5t78 19l-23 -117q-18 -6 -39.5 -10.5t-44 -7.5t-44.5 -4.5
t-40 -1.5q-30 0 -55.5 3.5t-47.5 9.5l-28 -44h-92zM161 242q-8 -35 -6 -60l173 268q-38 -2 -64 -11.5t-44 -27.5t-28.5 -43.5t-17.5 -57.5z" />
    <glyph glyph-name="uni023D" unicode="&#x23d;" horiz-adv-x="567" 
d="M288 750l-57 -289h136l-22 -113h-136l-41 -214h333l-25 -134h-482l67 348h-80l22 113h80l56 289h149z" />
    <glyph glyph-name="uni023E" unicode="&#x23e;" horiz-adv-x="647" 
d="M81 616l26 134h473l28 42h92l-27 -42h18l-26 -134h-79l-197 -303l-60 -313h-143l-28 -43h-92l150 232l83 427h-218zM428 516l65 100h-45z" />
    <glyph glyph-name="uni023F" unicode="&#x23f;" horiz-adv-x="471" 
d="M412 199q0 -105 -63.5 -156.5t-184.5 -52.5q39 -40 88.5 -51t113.5 -9l-21 -105q-35 -2 -69.5 1t-68.5 14t-65.5 31.5t-58.5 54.5q-21 25 -37 41.5t-29.5 26.5t-23.5 15t-19 9q-2 0 -2.5 0.5t-1.5 0.5l-4 2l22 111q60 -20 104.5 -25t76.5 -5q61 0 82.5 17.5t21.5 56.5
q0 17 -13 24.5t-50 16.5l-52 13q-66 17 -93 55t-27 84q0 105 62 151t189 46q50 0 89.5 -6t62.5 -14l-21 -107q-27 8 -64.5 13.5t-69.5 5.5q-65 0 -89.5 -14.5t-24.5 -51.5q0 -17 15 -25t53 -19l52 -14q36 -10 59 -24t36.5 -31.5t19 -37.5t5.5 -42z" />
    <glyph glyph-name="uni0240" unicode="&#x240;" horiz-adv-x="488" 
d="M-26 95l252 277q15 16 33.5 35.5t36.5 36.5h-243l21 108h419l-18 -95l-253 -278q-15 -16 -27.5 -29t-26 -26t-30 -28t-38.5 -34q16 -7 28 -13.5t23 -13t21.5 -14t23.5 -16.5q19 -13 38.5 -26t42.5 -22.5t51 -15t64 -3.5l-22 -113q-70 -7 -140.5 21t-139.5 83
q-27 22 -46.5 34.5t-34.5 20t-27.5 10.5t-25.5 6z" />
    <glyph glyph-name="uni0241" unicode="&#x241;" horiz-adv-x="504" 
d="M92 0l39 204q8 41 18.5 73t27.5 58t41.5 49.5t60.5 48.5q20 14 37 27.5t29 30t19 37.5t7 48q0 34 -26.5 47t-86.5 13q-42 0 -90.5 -10t-90.5 -26l23 121q38 16 92 26t106 10q61 0 103 -12t68 -33.5t37 -50.5t11 -63q0 -44 -9 -77t-28 -60.5t-47 -52.5t-65 -54
q-32 -24 -51 -42t-31 -34t-18 -33.5t-10 -40.5l-39 -204h-127z" />
    <glyph glyph-name="uni0242" unicode="&#x242;" horiz-adv-x="455" 
d="M83 0l17 92q6 32 12.5 56t18.5 46t33.5 43.5t57.5 47.5q34 25 55.5 50.5t21.5 72.5q0 22 -16 34t-59 12q-45 0 -93.5 -12.5t-90.5 -30.5l22 116q38 16 87 27.5t103 11.5q57 0 92.5 -12.5t56 -32.5t27.5 -45t7 -51q0 -70 -31 -121t-94 -98q-24 -18 -39.5 -31.5t-25 -27.5
t-15 -30.5t-9.5 -41.5l-13 -75h-125z" />
    <glyph glyph-name="uni0243" unicode="&#x243;" horiz-adv-x="656" 
d="M-40 264h85l94 486h285q54 0 96 -10t69 -31t37.5 -55t1.5 -82l-10 -50q-9 -44 -35 -82.5t-84 -56.5q60 -14 80 -52t10 -87l-16 -78q-10 -54 -31 -86.5t-56 -50.5t-86 -23.5t-120 -5.5h-286l31 163h-85zM265 634l-37 -193h123q22 0 41 3t33.5 12.5t25 27t15.5 45.5l6 30
q9 46 -12 60.5t-81 14.5h-114zM207 333l-14 -69h128l-20 -101h-128l-9 -47h118q39 0 64.5 4t42 14.5t25.5 27.5t14 44l7 35q10 51 -11 71.5t-89 20.5h-128z" />
    <glyph glyph-name="uni0244" unicode="&#x244;" horiz-adv-x="803" 
d="M338 750l-58 -296h310l58 296h149l-58 -296h77l-21 -103h-76l-14 -74q-15 -76 -41.5 -131t-67 -90t-97.5 -52t-132 -17q-157 0 -227.5 75.5t-39.5 233.5l10 55h-75l21 103h74l58 296h150zM373 128q42 0 73 8.5t53.5 29.5t37.5 56t25 88l8 41h-310l-8 -41
q-10 -53 -7.5 -88t17.5 -56t42.5 -29.5t68.5 -8.5z" />
    <glyph glyph-name="uni0245" unicode="&#x245;" horiz-adv-x="695" 
d="M459 0l-55 446q-5 38 -8 73.5t-1 85.5q-19 -50 -35 -86t-36 -73l-231 -446h-159l400 750h167l115 -750h-157z" />
    <glyph glyph-name="uni0246" unicode="&#x246;" horiz-adv-x="598" 
d="M515 750l28 42h92l-28 -42h10l-24 -125h-67l-116 -179h117l-24 -124h-173l-128 -197h308l-23 -125h-366l-28 -43h-92l28 43h-35l145 750h376zM229 446h89l116 179h-170zM190 249l48 73h-33z" />
    <glyph glyph-name="uni0247" unicode="&#x247;" horiz-adv-x="569" 
d="M20 -43l50 78q-79 64 -49 219l13 67q13 69 40 116t63.5 75.5t81.5 41t96 12.5q50 0 89 -12l39 60h92l-63 -98q34 -32 46.5 -87.5t-3.5 -140.5l-12 -63h-219l-77 -120q25 -7 68 -7q32 0 77 5t85 19l-20 -107q-37 -14 -86 -20t-91 -6q-57 0 -100 12l-28 -44h-92zM253 320
l85 132q-7 2 -15 3t-17 1q-57 0 -88.5 -32.5t-41.5 -85.5l-3 -18h80zM388 339q5 30 2 51l-45 -70h39zM154 214q-3 -16 -4 -29.5t1 -24.5l41 65h-36z" />
    <glyph glyph-name="uni0248" unicode="&#x248;" horiz-adv-x="436" 
d="M445 750l-56 -289h70l-22 -113h-70l-27 -139q-11 -53 -26 -93.5t-41.5 -68.5t-67.5 -42.5t-104 -14.5q-15 0 -34 1.5t-39.5 4.5t-39 8t-31.5 12l26 130q27 -11 55.5 -16t51.5 -5q48 0 70.5 21t33.5 77l24 125h-142l22 113h142l56 289h149z" />
    <glyph glyph-name="uni0249" unicode="&#x249;" horiz-adv-x="298" 
d="M262 552l-37 -188h87l-20 -101h-87l-61 -312q-10 -52 -25.5 -85.5t-39 -53t-55.5 -27.5t-76 -8q-31 0 -63.5 3t-56.5 10l23 118q20 -4 37.5 -5.5t35.5 -1.5q19 0 32 2.5t22 10.5t14.5 23t10.5 39l56 287h-92l20 101h92l37 188h146zM277 633h-146l28 141h146z" />
    <glyph glyph-name="uni024A" unicode="&#x24a;" horiz-adv-x="703" 
d="M201 -11q-59 0 -98.5 20t-61.5 54t-27.5 79.5t4.5 96.5l52 266q14 71 42.5 120t69 80t92 44.5t110.5 13.5q63 0 114 -16t83 -45l22 45h107l-146 -752q-10 -53 -3 -72t42 -19q14 0 34.5 2t43.5 8l-24 -124q-15 -4 -27 -6.5t-24 -4t-26 -2t-33 -0.5q-82 0 -118.5 46.5
t-16.5 149.5l13 65q-47 -25 -104 -37t-120 -12zM531 588q-19 21 -60 35.5t-86 14.5q-28 0 -54.5 -6.5t-48.5 -23t-39 -44.5t-25 -70l-50 -254q-13 -66 11.5 -94t81.5 -28q53 0 100 11t87 27z" />
    <glyph glyph-name="uni024B" unicode="&#x24b;" horiz-adv-x="604" 
d="M463 -49q-6 -32 6 -44.5t38 -12.5q12 0 29.5 1.5t36.5 6.5l-23 -114q-27 -6 -50 -8.5t-56 -2.5q-36 0 -63.5 8.5t-45 27.5t-23 49.5t3.5 73.5l18 93q-34 -19 -75.5 -29t-93.5 -10q-49 0 -82 16t-51.5 44t-22.5 64.5t4 77.5l33 170q12 59 34.5 98.5t55 63t72.5 33t87 9.5
q49 0 90 -12.5t65 -36.5l19 35h112zM409 417q-15 17 -43.5 26.5t-56.5 9.5q-22 0 -41.5 -5.5t-35.5 -18.5t-27.5 -35t-17.5 -56l-26 -134q-11 -52 3.5 -74.5t60.5 -22.5q65 0 129 26z" />
    <glyph glyph-name="uni024C" unicode="&#x24c;" horiz-adv-x="669" 
d="M-13 399h89l68 351h291q59 0 104 -10.5t72.5 -35.5t37 -66.5t-2.5 -102.5l-12 -61q-14 -74 -47.5 -109t-89.5 -52l83 -313h-154l-75 293h-147l-56 -293h-149l57 298h-89zM270 635l-44 -230h106q40 0 67.5 4t46 14.5t29 29.5t16.5 48l9 46q9 48 -16 68t-91 20h-123z" />
    <glyph glyph-name="uni024D" unicode="&#x24d;" horiz-adv-x="412" 
d="M385 429q-51 -3 -100 -18.5t-82 -38.5l-7 -35h110l-20 -101h-110l-45 -236h-145l45 236h-75l20 101h75l42 215h113l-3 -71q15 13 37.5 27.5t50 26.5t58.5 20.5t63 10.5z" />
    <glyph glyph-name="uni024E" unicode="&#x24e;" horiz-adv-x="651" 
d="M646 655h60l-20 -101h-113l-187 -258l-56 -296h-149l56 294l-88 260h-113l20 101h59l-32 95h154l27 -95h221l65 95h165zM330 405q21 43 40 75.5t41 64.5l6 9h-124l3 -9q10 -35 18 -67t16 -73z" />
    <glyph glyph-name="uni024F" unicode="&#x24f;" horiz-adv-x="560" 
d="M586 552l-79 -144h54l-19 -101h-90l-284 -520h-152l116 214l-51 306h-88l19 101h53l-24 144h142l18 -144h164l73 144h148zM230 124q16 42 30 71t22 46l33 66h-101l8 -65q3 -23 5 -50t3 -68z" />
    <glyph glyph-name="gravecomb" unicode="&#x300;" 
d="M434 603h-126l-85 142h151z" />
    <glyph glyph-name="acutecomb" unicode="&#x301;" 
d="M337 745h159l-139 -142h-135z" />
    <glyph glyph-name="uni0302" unicode="&#x302;" 
d="M313 762h105l72 -161h-92l-43 77l-76 -77h-100z" />
    <glyph glyph-name="tildecomb" unicode="&#x303;" horiz-adv-x="580" 
d="M400 603q-23 0 -36.5 7.5t-24 17t-19.5 17t-21 7.5q-16 0 -26 -14.5t-17 -34.5h-88q7 24 17.5 49t26.5 46t37 34t49 13q23 0 37.5 -7.5t25.5 -17t20 -17t20 -7.5q19 0 28 15.5t14 35.5h88q-5 -22 -15 -47.5t-25.5 -47t-38 -35.5t-52.5 -14z" />
    <glyph glyph-name="uni0304" unicode="&#x304;" 
d="M214 727h291l-19 -94h-291z" />
    <glyph glyph-name="uni0306" unicode="&#x306;" horiz-adv-x="592" 
d="M346 604q-33 0 -57 11.5t-39 31t-21 46t-3 57.5h80q-2 -30 8.5 -45.5t38.5 -15.5q29 0 46 16t26 45h86q-13 -64 -55 -105t-110 -41z" />
    <glyph glyph-name="uni0307" unicode="&#x307;" 
d="M308 730h106l-23 -118h-106z" />
    <glyph glyph-name="uni0308" unicode="&#x308;" 
d="M215 730h105l-23 -118h-105zM401 730h105l-23 -118h-105z" />
    <glyph glyph-name="hookabovecomb" unicode="&#x309;" 
d="M290 594l4 18q5 23 14 38.5t44 32.5q27 13 35 19t8 20q0 9 -8 12t-31 3q-18 0 -42 -4.5t-43 -11.5l12 64q17 7 41 11.5t47 4.5q54 0 77.5 -18.5t23.5 -47.5q0 -21 -6 -34.5t-14.5 -22.5t-18 -15t-17.5 -10q-14 -8 -22 -12.5t-12.5 -9t-7 -9.5t-3.5 -12l-3 -16h-78z" />
    <glyph glyph-name="uni030A" unicode="&#x30a;" 
d="M343 647q23 0 38.5 15.5t15.5 41.5q0 17 -9 26.5t-26 9.5q-23 0 -38.5 -15.5t-15.5 -41.5q0 -17 9 -26.5t26 -9.5zM331 585q-42 0 -66 26t-24 63q0 27 10 50.5t28 41t42.5 27t52.5 9.5q42 0 66 -26t24 -63q0 -27 -10 -50.5t-28 -41t-42.5 -27t-52.5 -9.5z" />
    <glyph glyph-name="uni030B" unicode="&#x30b;" 
d="M414 745h112l-96 -142h-90zM249 745h112l-96 -142h-92z" />
    <glyph glyph-name="uni030C" unicode="&#x30c;" horiz-adv-x="586" 
d="M384 592h-104l-72 161h92l44 -78l74 78h102z" />
    <glyph glyph-name="uni030F" unicode="&#x30f;" 
d="M334 603h-89l-43 142h110zM497 603h-90l-46 142h114z" />
    <glyph glyph-name="uni0310" unicode="&#x310;" 
d="M346 604q-33 0 -57.5 11.5t-40 31t-22 46t-3.5 57.5h80q-2 -32 10 -46.5t40 -14.5q56 0 75 61h86q-13 -64 -56.5 -105t-111.5 -41zM334 838h97l-21 -107h-97z" />
    <glyph glyph-name="uni0311" unicode="&#x311;" 
d="M357 750q33 0 57.5 -12.5t40 -32.5t21.5 -46.5t3 -54.5h-81q5 61 -50 61q-29 0 -46 -17t-25 -44h-84q6 31 19.5 57.5t34.5 46t49 31t61 11.5z" />
    <glyph glyph-name="uni0316" unicode="&#x316;" 
d="M294 -211h-133l-83 142h157z" />
    <glyph glyph-name="uni0317" unicode="&#x317;" 
d="M175 -69h157l-139 -142h-133z" />
    <glyph glyph-name="dotbelowcomb" unicode="&#x323;" 
d="M160 -79h106l-23 -118h-106z" />
    <glyph glyph-name="uni0324" unicode="&#x324;" 
d="M57 -79h105l-23 -118h-105zM243 -79h105l-23 -118h-105z" />
    <glyph glyph-name="uni0325" unicode="&#x325;" 
d="M198 -189q23 0 38.5 15.5t15.5 41.5q0 17 -9 26.5t-26 9.5q-23 0 -38.5 -15.5t-15.5 -41.5q0 -17 9 -26.5t26 -9.5zM186 -251q-42 0 -66 26t-24 63q0 27 10 50.5t28 41t42.5 27t52.5 9.5q42 0 66 -26t24 -63q0 -27 -10 -50.5t-28 -41t-42.5 -27t-52.5 -9.5z" />
    <glyph glyph-name="uni0326" unicode="&#x326;" 
d="M186 -50h130l-100 -187h-105z" />
    <glyph glyph-name="uni0327" unicode="&#x327;" 
d="M181 -269q-23 0 -49 2t-46 6l16 78q14 -2 31.5 -3.5t39.5 -1.5q38 0 53 10.5t18 24.5l2 10q4 18 -10 27.5t-59 9.5h-21l27 137h97l-16 -81q31 -3 50 -13t28.5 -24t10.5 -32.5t-3 -38.5l-2 -10q-11 -57 -54.5 -79t-112.5 -22z" />
    <glyph glyph-name="uni0328" unicode="&#x328;" 
d="M199 -228q-35 0 -59 8.5t-38.5 22.5t-19 33t-0.5 40l2 11q3 19 15.5 37t29.5 33t37 26t40 17h100q-21 -10 -39.5 -22.5t-33 -26t-24 -27.5t-11.5 -27l-1 -6q-3 -20 8.5 -26.5t33.5 -6.5q15 0 33 2t29 5l-17 -82q-14 -4 -36 -7.5t-49 -3.5z" />
    <glyph glyph-name="uni032C" unicode="&#x32c;" 
d="M50 -62h95l45 -78l74 78h97l-135 -161h-105z" />
    <glyph glyph-name="uni032D" unicode="&#x32d;" 
d="M173 -63h105l72 -162h-92l-43 78l-76 -78h-100z" />
    <glyph glyph-name="uni032E" unicode="&#x32e;" 
d="M179 -212q-33 0 -56.5 11.5t-37.5 31t-19.5 46t-0.5 56.5h83q-2 -30 8.5 -45.5t39.5 -15.5t45.5 15.5t26.5 45.5h82q-7 -30 -22 -56.5t-37 -46t-50.5 -31t-61.5 -11.5z" />
    <glyph glyph-name="uni032F" unicode="&#x32f;" 
d="M208 -68q33 0 56.5 -11.5t38 -31t19 -46t-0.5 -57.5h-82q3 31 -8 46t-40 15t-45 -15t-27 -46h-83q7 31 23 57.5t38 46t50 31t61 11.5z" />
    <glyph glyph-name="uni0330" unicode="&#x330;" 
d="M234 -214q-24 0 -38 8t-24 17t-18 17t-20 8q-16 0 -26 -15t-18 -34h-83q7 24 19 49t28.5 46t38.5 34t50 13q25 0 40 -8t25.5 -17t19 -17t19.5 -8q19 0 27 16t15 35h83q-7 -23 -18 -48t-27.5 -46.5t-39.5 -35.5t-53 -14z" />
    <glyph glyph-name="uni0331" unicode="&#x331;" 
d="M53 -89h296l-19 -98h-296z" />
    <glyph glyph-name="uni0340" unicode="&#x340;" 
d="M434 603h-126l-85 142h151z" />
    <glyph glyph-name="uni0341" unicode="&#x341;" 
d="M337 745h159l-139 -142h-135z" />
    <glyph glyph-name="uni0342" unicode="&#x342;" 
d="M400 603q-23 0 -36.5 7.5t-24 17t-19.5 17t-21 7.5q-16 0 -26 -14.5t-17 -34.5h-88q7 24 17.5 49t26.5 46t37 34t49 13q23 0 37.5 -7.5t25.5 -17t20 -17t20 -7.5q19 0 28 15.5t14 35.5h88q-5 -22 -15 -47.5t-25.5 -47t-38 -35.5t-52.5 -14z" />
    <glyph glyph-name="uni0400" unicode="&#x400;" horiz-adv-x="597" 
d="M625 750l-23 -121h-336l-36 -185h304l-23 -120h-304l-40 -203h351l-23 -121h-500l145 750h485zM491 802h-121l-92 144h144z" />
    <glyph glyph-name="uni0401" unicode="&#x401;" horiz-adv-x="598" 
d="M617 750l-24 -125h-329l-35 -179h298l-24 -124h-298l-39 -197h344l-23 -125h-493l145 750h478zM279 930h105l-23 -118h-105zM465 930h105l-23 -118h-105z" />
    <glyph glyph-name="uni0402" unicode="&#x402;" horiz-adv-x="753" 
d="M538 251q2 10 3 20.5t1 18.5q0 23 -12 33.5t-41 10.5q-27 0 -62 -10.5t-68 -29.5l-56 -294h-147l120 621h-215l24 129h594l-25 -129h-232l-41 -215q41 21 86.5 35t84.5 14t66 -9.5t44 -26.5t24.5 -40t7.5 -51q0 -22 -5 -50l-63 -325q-12 -56 -27 -90t-37.5 -53t-55.5 -25
t-81 -6q-29 0 -50 3t-42 10l22 115q19 -4 31.5 -6t29.5 -2q31 0 45 15t23 60z" />
    <glyph glyph-name="uni0403" unicode="&#x403;" horiz-adv-x="571" 
d="M143 0h-147l143 750h486l-26 -133h-337zM434 948h152l-138 -144h-129z" />
    <glyph glyph-name="uni0404" unicode="&#x404;" horiz-adv-x="598" 
d="M603 612q-35 8 -74.5 13.5t-88.5 5.5q-56 0 -96.5 -11.5t-69 -34.5t-46 -58t-27.5 -83h297q-7 -32 -13.5 -65t-12.5 -66h-296q-16 -92 19 -142t139 -50q40 0 88 5t98 20l-25 -127q-21 -9 -46.5 -14.5t-51.5 -8.5t-52 -4.5t-47 -1.5q-146 0 -212 60t-66 178q0 25 2.5 52.5
t8.5 57.5l24 124q17 87 50.5 144.5t83 92t114 49t143.5 14.5q47 0 98 -7t83 -20z" />
    <glyph glyph-name="uni0405" unicode="&#x405;" horiz-adv-x="593" 
d="M538 259q-2 -72 -24 -123t-63 -83.5t-101 -47.5t-137 -15q-54 0 -116 8.5t-118 30.5l23 123q60 -23 115 -31.5t100 -8.5q82 0 124.5 27.5t42.5 96.5q0 15 -6.5 25t-20 18.5t-34.5 16t-50 17.5l-72 25q-27 10 -51 23.5t-42.5 33t-29 46t-10.5 62.5q0 135 79 196t234 61
q28 0 57.5 -1.5t56.5 -5t50 -8t40 -10.5l-23 -116q-38 11 -85 15.5t-88 4.5q-90 0 -129.5 -25t-39.5 -84q0 -32 25.5 -47t74.5 -31l79 -26q28 -9 53.5 -22.5t44.5 -33t30 -47t11 -64.5z" />
    <glyph glyph-name="uni0406" unicode="&#x406;" horiz-adv-x="284" 
d="M145 0h-150l145 750h149z" />
    <glyph glyph-name="uni0407" unicode="&#x407;" horiz-adv-x="284" 
d="M145 0h-150l145 750h149zM108 933h101l-22 -116h-101zM291 933h101l-22 -116h-101z" />
    <glyph glyph-name="uni0408" unicode="&#x408;" horiz-adv-x="425" 
d="M435 750l-106 -553q-11 -55 -27 -94.5t-42 -64.5t-66 -36.5t-98 -11.5q-13 0 -33 1.5t-41.5 4.5t-41.5 7t-33 9l26 129q32 -11 59.5 -15t54.5 -4q22 0 38 4.5t27 15.5t19 29.5t13 45.5l103 533h148z" />
    <glyph glyph-name="uni0409" unicode="&#x409;" horiz-adv-x="1047" 
d="M551 623h-193l-54 -277q-17 -94 -42 -160t-64 -107t-94 -60t-131 -19h-20l26 134h14q33 0 59 9.5t45.5 32t33.5 58.5t25 89l81 427h484l-48 -251h95q117 0 174.5 -31t57.5 -110q0 -26 -6 -57l-21 -114q-11 -62 -35.5 -98.5t-61 -56.5t-84 -26t-104.5 -6h-256zM651 389
l-55 -281h78q36 0 62.5 4.5t45 15.5t29.5 29t17 46l17 85q2 13 3.5 23.5t1.5 19.5q0 36 -25.5 47t-88.5 11h-85z" />
    <glyph glyph-name="uni040A" unicode="&#x40a;" horiz-adv-x="1029" 
d="M484 332h-280l-64 -332h-144l143 750h145l-55 -286h280l55 286h145l-55 -287h95q118 0 180.5 -38t50.5 -118l-18 -120q-9 -62 -33 -99t-61 -56.5t-85.5 -25.5t-106.5 -6h-256zM633 354l-48 -246h90q67 0 100.5 20.5t41.5 74.5l14 89q5 35 -22.5 48.5t-90.5 13.5h-85z" />
    <glyph glyph-name="uni040B" unicode="&#x40b;" horiz-adv-x="755" 
d="M489 0l48 251q2 8 3 18t1 21q0 23 -11.5 33.5t-40.5 10.5q-23 0 -59.5 -10t-70.5 -30l-56 -294h-147l120 621h-215l24 129h594l-25 -129h-232l-41 -215q41 21 86.5 35t84.5 14q76 0 109 -36t33 -91q0 -22 -5 -50l-54 -278h-146z" />
    <glyph glyph-name="uni040C" unicode="&#x40c;" horiz-adv-x="698" 
d="M427 378l190 -378h-171l-150 319h-91l-60 -319h-150l145 750h149l-60 -310h78l246 310h181zM460 946h152l-138 -144h-129z" />
    <glyph glyph-name="uni040D" unicode="&#x40d;" horiz-adv-x="730" 
d="M140 750h137l-102 -533q18 32 35.5 57.5t40.5 55.5l331 420h153l-144 -750h-138l103 533q-18 -32 -36.5 -60.5t-43.5 -59.5l-327 -413h-154zM525 802h-120l-92 144h144z" />
    <glyph glyph-name="uni040E" unicode="&#x40e;" horiz-adv-x="576" 
d="M70 0l108 198l-94 551h153l39 -275q3 -30 6 -58t3 -72q10 22 18 39.5t14.5 33t13.5 29t15 27.5l140 276h157l-414 -749h-159zM364 803q-31 0 -54.5 12t-38 32t-20.5 47t-1 57h75q-6 -26 7 -47t42 -21q57 0 76 68h82q-14 -64 -54.5 -106t-113.5 -42z" />
    <glyph glyph-name="uni040F" unicode="&#x40f;" horiz-adv-x="719" 
d="M571 0h-218l-30 -154h-140l30 154h-217l143 750h149l-119 -615h280l118 615h148z" />
    <glyph glyph-name="uni0410" unicode="&#x410;" horiz-adv-x="704" 
d="M504 750l120 -750h-158l-24 180h-252l-92 -180h-162l401 750h167zM252 309h177l-20 173q-4 35 -5 64t-3 69q-16 -40 -29 -69t-31 -64z" />
    <glyph glyph-name="uni0411" unicode="&#x411;" horiz-adv-x="658" 
d="M139 750h497l-22 -109h-344l-33 -173h143q132 0 186 -47t32 -157l-16 -81q-11 -55 -32.5 -90.5t-56 -56t-83.5 -28.5t-114 -8h-302zM287 103q69 0 99.5 21t40.5 71l14 73q5 28 2.5 47t-14.5 30t-35.5 16t-60.5 5h-116l-51 -263h121z" />
    <glyph glyph-name="uni0412" unicode="&#x412;" horiz-adv-x="656" 
d="M139 750h285q54 0 96 -10t69 -31t37.5 -55t1.5 -82l-10 -50q-9 -44 -35 -82.5t-84 -56.5q60 -14 80 -52t10 -87l-16 -78q-10 -54 -31 -86.5t-56 -50.5t-86 -23.5t-120 -5.5h-286zM207 333l-43 -217h118q39 0 64.5 4t42 14.5t25.5 27.5t14 44l7 35q10 51 -11 71.5
t-89 20.5h-128zM265 634l-37 -193h123q22 0 41 3t33.5 12.5t25 27t15.5 45.5l6 30q9 46 -12 60.5t-81 14.5h-114z" />
    <glyph glyph-name="uni0413" unicode="&#x413;" 
d="M139 750h493l-24 -125h-344l-121 -625h-149z" />
    <glyph glyph-name="uni0414" unicode="&#x414;" horiz-adv-x="776" 
d="M553 0h-464l-30 -154h-139l52 277h35q62 0 102.5 54.5t59.5 147.5l82 425h485l-118 -627h97l-52 -277h-139zM323 370q-9 -45 -17.5 -82t-21 -67.5t-30 -54.5t-43.5 -43h262l95 504h-194z" />
    <glyph glyph-name="uni0415" unicode="&#x415;" horiz-adv-x="598" 
d="M617 750l-24 -125h-329l-35 -179h298l-24 -124h-298l-39 -197h344l-23 -125h-493l145 750h478z" />
    <glyph glyph-name="uni0416" unicode="&#x416;" horiz-adv-x="954" 
d="M565 433h14l232 317h175l-300 -368l186 -382h-170l-135 323h-24l-62 -323h-149l62 323h-19l-259 -323h-178l333 382l-157 368h165l110 -317h27l61 317h149z" />
    <glyph glyph-name="uni0417" unicode="&#x417;" horiz-adv-x="611" 
d="M165 326l23 117h96q62 0 97 32t35 99q0 34 -24 49.5t-87 15.5q-45 0 -97 -9t-100 -23l24 122q39 14 98.5 24t120.5 10q57 0 98 -11.5t67 -32t38 -49.5t12 -65q0 -26 -6 -59.5t-22.5 -65.5t-46 -59.5t-77.5 -40.5q54 -13 80 -48t26 -80q0 -69 -21.5 -119t-63 -82
t-101 -47.5t-134.5 -15.5q-32 0 -64.5 3t-62.5 8.5t-55 12t-42 14.5l25 123q19 -8 44 -15t53 -12t56.5 -8t54.5 -3q89 0 126.5 36.5t37.5 103.5q0 43 -28 59t-82 16h-98z" />
    <glyph glyph-name="uni0418" unicode="&#x418;" horiz-adv-x="708" 
d="M139 750h135l-106 -545q9 17 20 35t25 36l348 474h154l-145 -750h-135l104 539q-11 -23 -24.5 -43.5t-25.5 -37.5l-340 -458h-155z" />
    <glyph glyph-name="uni0419" unicode="&#x419;" horiz-adv-x="708" 
d="M139 750h135l-106 -545q9 17 20 35t25 36l348 474h154l-145 -750h-135l104 539q-11 -23 -24.5 -43.5t-25.5 -37.5l-340 -458h-155zM437 804q-33 0 -57 11.5t-39 31t-21 46t-3 57.5h80q-2 -30 8.5 -45.5t38.5 -15.5q29 0 46 16t26 45h86q-13 -64 -55 -105t-110 -41z" />
    <glyph glyph-name="uni041A" unicode="&#x41a;" horiz-adv-x="698" 
d="M418 380l193 -380h-169l-151 316h-87l-61 -316h-149l145 750h149l-60 -309h76l248 309h176z" />
    <glyph glyph-name="uni041B" unicode="&#x41b;" horiz-adv-x="718" 
d="M-28 125h13q32 0 57.5 8t46 32t36.5 67.5t30 114.5l79 403h491l-145 -750h-149l121 625h-193l-55 -277q-18 -93 -43.5 -159t-64 -108t-92.5 -61.5t-129 -19.5h-26z" />
    <glyph glyph-name="uni041C" unicode="&#x41c;" horiz-adv-x="864" 
d="M726 0h-135l95 493q5 29 13.5 61t18.5 64q-15 -41 -29.5 -80t-24.5 -60l-220 -478h-160l-43 484q-2 20 -2.5 56t0.5 74q-3 -35 -6.5 -61t-9.5 -56l-96 -497h-133l145 750h195l47 -522q2 -23 4 -49t0 -52q10 25 20 51t22 49l241 523h203z" />
    <glyph glyph-name="uni041D" unicode="&#x41d;" horiz-adv-x="717" 
d="M724 750l-145 -750h-150l61 317h-286l-61 -317h-149l145 750h149l-57 -295h286l57 295h150z" />
    <glyph glyph-name="uni041E" unicode="&#x41e;" horiz-adv-x="735" 
d="M676 293q-32 -162 -128 -234t-253 -72q-80 0 -136.5 24t-89 69t-41 110t8.5 147l24 120q16 81 49 138.5t81.5 95t112 55t139.5 17.5q77 0 133 -24t89 -69t42 -110t-7 -147zM551 426q21 110 -13 158.5t-120 48.5q-88 0 -140.5 -48t-73.5 -159l-20 -102q-22 -111 12 -159
t121 -48q86 0 139 48t75 159z" />
    <glyph glyph-name="uni041F" unicode="&#x41f;" horiz-adv-x="717" 
d="M724 750l-145 -750h-150l119 616h-286l-119 -616h-149l145 750h585z" />
    <glyph glyph-name="uni0420" unicode="&#x420;" horiz-adv-x="636" 
d="M139 750h287q59 0 104 -10.5t73 -35.5t37 -67t-3 -104l-14 -71q-11 -58 -33.5 -93.5t-59 -54.5t-88 -25t-120.5 -6h-124l-55 -283h-149zM265 635l-45 -239h103q40 0 67.5 4t45.5 14.5t28.5 29t16.5 47.5l11 55q9 49 -16 69t-91 20h-120z" />
    <glyph glyph-name="uni0421" unicode="&#x421;" horiz-adv-x="611" 
d="M612 608q-33 9 -78.5 13.5t-93.5 4.5q-54 0 -93.5 -10t-66.5 -32t-43.5 -57t-26.5 -85l-25 -127q-10 -53 -8 -89t20 -59t53 -33t90 -10q42 0 92.5 5t99.5 19l-25 -127q-23 -9 -49.5 -15t-54 -9.5t-54.5 -5t-51 -1.5q-87 0 -145 19.5t-89.5 61t-37.5 105t12 152.5l23 118
q18 94 50 154.5t79 96t111 49.5t146 14q53 0 105.5 -6t84.5 -19z" />
    <glyph glyph-name="uni0422" unicode="&#x422;" horiz-adv-x="623" 
d="M66 616l26 134h584l-26 -134h-217l-119 -616h-149l119 616h-218z" />
    <glyph glyph-name="uni0423" unicode="&#x423;" horiz-adv-x="585" 
d="M655 750l-413 -750h-162l108 199l-99 551h159l43 -271q4 -23 6.5 -50t3.5 -68q16 46 29 73t21 44l140 272h164z" />
    <glyph glyph-name="uni0424" unicode="&#x424;" horiz-adv-x="817" 
d="M552 765l-12 -64q69 -5 120 -21.5t82 -50t40.5 -86t-5.5 -129.5l-14 -72q-12 -62 -37.5 -110.5t-67.5 -82t-101.5 -52.5t-139.5 -22l-14 -79h-148l15 80q-146 8 -201.5 83t-29.5 211l13 67q15 77 44.5 127t72 79.5t98.5 42.5t125 16l12 63h148zM189 367
q-10 -51 -9.5 -82.5t13.5 -50t38 -26t63 -10.5l74 381q-37 -3 -64.5 -11t-48 -26t-35 -49.5t-23.5 -82.5zM626 409q10 51 8 82.5t-15.5 50t-39.5 26t-64 10.5l-73 -380q41 2 70 9.5t49 26t33.5 50.5t23.5 83z" />
    <glyph glyph-name="uni0425" unicode="&#x425;" horiz-adv-x="718" 
d="M374 184q-12 31 -19.5 56.5t-15.5 60.5q-17 -29 -38.5 -60.5t-40.5 -56.5l-138 -184h-180l306 388l-146 362h167l59 -164q10 -27 18.5 -56.5t19.5 -68.5q20 35 41 66.5t43 60.5l121 162h175l-289 -367l155 -383h-168z" />
    <glyph glyph-name="uni0426" unicode="&#x426;" horiz-adv-x="738" 
d="M135 750h149l-117 -620h264l117 620h150l-117 -620h98l-54 -284h-143l30 154h-518z" />
    <glyph glyph-name="uni0427" unicode="&#x427;" horiz-adv-x="708" 
d="M570 0h-149l64 332q-61 -38 -128 -57.5t-133 -19.5q-39 0 -71.5 10.5t-54 32.5t-29.5 56.5t1 81.5l61 314h149l-53 -272q-11 -56 5.5 -76.5t58.5 -20.5q45 0 101 17t117 55l57 297h149z" />
    <glyph glyph-name="uni0428" unicode="&#x428;" horiz-adv-x="901" 
d="M139 750h145l-120 -618h166l120 618h147l-120 -618h166l120 618h145l-145 -750h-769z" />
    <glyph glyph-name="uni0429" unicode="&#x429;" horiz-adv-x="936" 
d="M135 750h145l-117 -620h162l117 620h147l-117 -620h162l117 620h145l-117 -620h98l-54 -284h-140l30 154h-719z" />
    <glyph glyph-name="uni042A" unicode="&#x42a;" horiz-adv-x="722" 
d="M107 0l120 623h-177l24 127h332l-48 -251h109q133 0 186.5 -49.5t31.5 -161.5l-19 -100q-11 -58 -34 -94.5t-58.5 -57.5t-82.5 -28.5t-107 -7.5h-277zM381 111q64 0 96 21.5t41 70.5l16 85q6 29 4 48t-13.5 30.5t-35 16t-61.5 4.5h-92l-54 -276h99z" />
    <glyph glyph-name="uni042B" unicode="&#x42b;" horiz-adv-x="839" 
d="M-6 0l145 750h149l-49 -254h72q128 0 184.5 -49.5t34.5 -161.5l-19 -97q-11 -58 -34.5 -94.5t-58.5 -57.5t-82.5 -28.5t-107.5 -7.5h-234zM553 0l145 750h148l-145 -750h-148zM222 112q64 0 95.5 21t41.5 70l16 82q5 29 5 48t-10 30.5t-32 16t-59 4.5h-62l-53 -272h58z
" />
    <glyph glyph-name="uni042C" unicode="&#x42c;" horiz-adv-x="609" 
d="M-6 0l145 750h154l-48 -251h109q133 0 186.5 -49.5t31.5 -161.5l-19 -100q-11 -58 -34 -94.5t-58.5 -57.5t-82.5 -28.5t-107 -7.5h-277zM268 111q64 0 96 21.5t41 70.5l16 85q6 29 4 48t-13.5 30.5t-35 16t-61.5 4.5h-92l-54 -276h99z" />
    <glyph glyph-name="uni042D" unicode="&#x42d;" horiz-adv-x="611" 
d="M117 735q36 13 90 19t107 6q79 0 136.5 -18.5t91 -60t42 -107t-9.5 -159.5l-23 -118q-17 -89 -46 -148t-74.5 -94t-109.5 -50t-152 -15q-24 0 -51.5 1.5t-54.5 5t-52 9.5t-45 15l25 127q43 -14 91.5 -19t90.5 -5q51 0 89 8t65.5 28.5t45 56.5t28.5 92h-295l26 130h295
q9 52 7 88.5t-19.5 59t-52.5 32.5t-91 10q-48 0 -96 -6t-83 -15z" />
    <glyph glyph-name="uni042E" unicode="&#x42e;" horiz-adv-x="955" 
d="M895 309q-16 -81 -44 -141t-71.5 -100t-104 -59.5t-140.5 -19.5q-153 0 -218.5 81t-34.5 236l2 10h-78l-61 -316h-151l145 750h151l-62 -319h78l2 10q32 160 119 241t238 81q76 0 131 -20t88 -60.5t43 -100.5t-6 -141zM765 435q11 57 8.5 95t-17.5 61t-41.5 32.5
t-63.5 9.5q-38 0 -68 -9.5t-53.5 -32.5t-40.5 -61t-28 -95l-24 -120q-11 -57 -8.5 -95t17 -61t40.5 -32.5t64 -9.5q37 0 67.5 9.5t54.5 32.5t41 61t28 95z" />
    <glyph glyph-name="uni042F" unicode="&#x42f;" horiz-adv-x="669" 
d="M531 0h-149l56 293h-142l-187 -293h-159l204 314q-48 19 -66.5 65.5t-4.5 121.5l12 61q12 62 36.5 99.5t61 57t84.5 25.5t107 6h292zM370 635q-33 0 -55.5 -5t-36.5 -15.5t-22.5 -27t-12.5 -40.5l-9 -46q-6 -29 -3 -48t16.5 -29.5t39 -14.5t64.5 -4h109l44 230h-134z" />
    <glyph glyph-name="uni0430" unicode="&#x430;" horiz-adv-x="542" 
d="M416 0h-111l-4 48q-30 -21 -73 -39.5t-105 -18.5q-77 0 -112 46t-21 127l5 29q7 43 26.5 71.5t52 45.5t79.5 24.5t109 7.5h79l5 29q4 25 4 42t-8 27t-25 14t-45 4q-16 0 -36.5 -2t-43 -6t-45.5 -9.5t-44 -12.5l21 108q19 7 43 12.5t49.5 9.5t50.5 6.5t46 2.5
q67 0 105 -18.5t55 -49.5t17.5 -70t-7.5 -79zM321 244h-70q-58 0 -85 -14.5t-33 -55.5l-2 -13q-5 -35 6 -48.5t41 -13.5q28 0 60.5 9.5t61.5 26.5z" />
    <glyph glyph-name="uni0431" unicode="&#x431;" horiz-adv-x="637" 
d="M573 222q-22 -112 -98 -172.5t-200 -60.5q-157 0 -214 82t-24 253l27 134q19 93 59 154t107.5 97t164.5 50.5t229 13.5l-20 -104q-50 1 -106 -4t-102 -15q-39 -9 -68.5 -21t-51 -33t-36 -53t-23.5 -80q93 46 191 46q43 0 80.5 -13.5t62.5 -42t34.5 -73t-2.5 -107.5z
M346 398q-37 0 -76 -11t-74 -31l-12 -64q-11 -55 -9 -91t15 -57t36.5 -29.5t55.5 -8.5q28 0 51.5 5.5t42 20.5t31.5 40.5t21 66.5l4 21q8 42 6 69t-13 42t-31 21t-48 6z" />
    <glyph glyph-name="uni0432" unicode="&#x432;" horiz-adv-x="536" 
d="M-12 0l107 552h256q40 0 71 -7.5t50.5 -24t27 -43t0.5 -63.5l-6 -32q-6 -34 -27.5 -63.5t-59.5 -40.5q42 -7 57 -31.5t4 -78.5l-7 -38q-8 -41 -25 -66t-44.5 -39.5t-65 -19.5t-85.5 -5h-253zM246 106q20 0 33.5 2t21.5 7.5t13 16t8 27.5l3 15q4 20 3.5 32t-7 18t-20 8
t-35.5 2h-88l-24 -128h92zM286 329q32 0 45 13t19 43l2 10q7 35 -2.5 45t-44.5 10h-84l-24 -121h89z" />
    <glyph glyph-name="uni0433" unicode="&#x433;" horiz-adv-x="465" 
d="M486 552l-21 -109h-245l-86 -443h-146l107 552h391z" />
    <glyph glyph-name="uni0434" unicode="&#x434;" horiz-adv-x="632" 
d="M426 0h-362l-29 -154h-135l49 260h9q67 0 102.5 41t51.5 124l55 281h412l-84 -446h87l-49 -260h-136zM258 311q-7 -35 -14.5 -65.5t-18.5 -56.5t-27 -47t-40 -36h198l63 340h-135z" />
    <glyph glyph-name="uni0435" unicode="&#x435;" horiz-adv-x="572" 
d="M503 225h-347l-2 -11q-13 -64 15 -90t106 -26q32 0 77 5t85 19l-20 -107q-37 -14 -86 -20t-91 -6q-270 0 -219 265l13 67q13 69 40 116t63.5 75.5t81.5 41t96 12.5q55 0 98.5 -15t71 -48t36.5 -86t-6 -129zM384 320l4 19q9 52 -8.5 84.5t-73.5 32.5q-57 0 -88.5 -32.5
t-41.5 -85.5l-3 -18h211z" />
    <glyph glyph-name="uni0436" unicode="&#x436;" horiz-adv-x="773" 
d="M313 341l41 211h140l-41 -211h13l176 211h155l-232 -262l133 -290h-156l-89 237h-21l-45 -237h-140l45 237h-13l-180 -237h-164l243 290l-128 262h145l94 -211h24z" />
    <glyph glyph-name="uni0437" unicode="&#x437;" horiz-adv-x="479" 
d="M103 233l21 102h73q45 0 70.5 20.5t25.5 59.5q0 25 -17.5 36t-62.5 11q-41 0 -79 -6t-72 -17l19 98q29 11 75 20t97 9q94 0 141.5 -31t47.5 -88q0 -27 -7.5 -52.5t-23.5 -47t-42 -37.5t-62 -23q52 -9 76 -32.5t24 -64.5q0 -92 -70 -147t-208 -55q-48 0 -92.5 8.5
t-69.5 19.5l20 104q29 -10 72 -16.5t86 -6.5q58 0 88.5 21t30.5 67q0 28 -23.5 38t-63.5 10h-74z" />
    <glyph glyph-name="uni0438" unicode="&#x438;" horiz-adv-x="619" 
d="M157 169q16 32 31 57.5t34 50.5l197 275h170l-107 -552h-135l74 384q-16 -33 -31.5 -55.5t-34.5 -50.5l-195 -278h-170l107 552h135z" />
    <glyph glyph-name="uni0439" unicode="&#x439;" horiz-adv-x="619" 
d="M157 169q16 32 31 57.5t34 50.5l197 275h170l-107 -552h-135l74 384q-16 -33 -31.5 -55.5t-34.5 -50.5l-195 -278h-170l107 552h135zM354 604q-33 0 -57 11.5t-39 31t-21 46t-3 57.5h80q-2 -30 8.5 -45.5t38.5 -15.5q29 0 46 16t26 45h86q-13 -64 -55 -105t-110 -41z" />
    </font>
</defs>
</svg>
