<?xml version="1.0" standalone="no"?>
<!DOCTYPE svg PUBLIC "-//W3C//DTD SVG 1.1//EN" "http://www.w3.org/Graphics/SVG/1.1/DTD/svg11.dtd" >
<svg xmlns="http://www.w3.org/2000/svg" xmlns:xlink="http://www.w3.org/1999/xlink" version="1.1">
<metadata>
Created by FontForge 20170731 at Thu Jul 27 12:30:23 2017
 By Aleksey,,,
Copyright c 2017 Hankook Tire Co.,Ltd. all rights reserved. Font designed by Sandoll Communications Inc.
</metadata>
<defs>
<font id="HankookTTFRegularOblique" horiz-adv-x="584" >
  <font-face 
    font-family="Hankook TTF Regular Oblique"
    font-weight="400"
    font-style="oblique"
    font-stretch="normal"
    units-per-em="1000"
    panose-1="2 11 6 0 0 1 1 1 1 1"
    ascent="800"
    descent="-200"
    x-height="548"
    cap-height="750"
    bbox="-185 -284 1465 1146"
    underline-thickness="50"
    underline-position="-150"
    unicode-range="U+000D-206F"
  />
<missing-glyph horiz-adv-x="280" 
 />
    <glyph glyph-name=".notdef" horiz-adv-x="280" 
 />
    <glyph glyph-name=".null" horiz-adv-x="0" 
 />
    <glyph glyph-name="nonmarkingreturn" unicode="&#xd;" horiz-adv-x="280" 
 />
    <glyph glyph-name="NULL" horiz-adv-x="0" 
 />
    <glyph glyph-name="NULL" horiz-adv-x="0" 
 />
    <glyph glyph-name="space" unicode=" " horiz-adv-x="260" 
 />
    <glyph glyph-name="exclam" unicode="!" horiz-adv-x="269" 
d="M129 201h-57l94 549h83zM32 101h98l-19 -101h-98z" />
    <glyph glyph-name="quotedbl" unicode="&#x22;" horiz-adv-x="378" 
d="M165 503h-62l38 247h81zM326 503h-62l38 247h81z" />
    <glyph glyph-name="numbersign" unicode="#" horiz-adv-x="690" 
d="M114 549h152l81 201h59l-81 -201h173l80 201h60l-81 -201h141l-12 -63h-154l-81 -204h141l-12 -63h-154l-88 -219h-59l87 219h-172l-88 -219h-59l87 219h-139l12 63h152l82 204h-139zM219 282h172l82 204h-173z" />
    <glyph glyph-name="dollar" unicode="$" horiz-adv-x="626" 
d="M558 654q-36 11 -76 15t-78 5l-53 -270l19 -5q43 -12 73 -25.5t48.5 -30t26.5 -38t8 -48.5q0 -103 -59.5 -167.5t-190.5 -74.5l-17 -86h-56l16 85q-23 0 -51 2.5t-57 7.5t-56 12t-47 17l12 65q61 -24 113.5 -32t98.5 -9l53 274l-40 12q-67 19 -104.5 52.5t-37.5 100.5
q0 57 19 97.5t53 66.5t81 39.5t104 15.5l15 75h56l-15 -75q46 -2 85.5 -7.5t67.5 -15.5zM172 517q0 -37 22.5 -56.5t77.5 -34.5l26 -8l50 254q-42 -3 -75 -11.5t-55.5 -26.5t-34 -46.5t-11.5 -70.5zM338 336l-50 -257q81 8 124 47.5t43 121.5q0 18 -5.5 30.5t-18 22
t-34 17.5t-53.5 17z" />
    <glyph glyph-name="percent" unicode="%" horiz-adv-x="820" 
d="M682 736h73l-618 -736h-72zM393 509q-13 -73 -62 -108.5t-122 -35.5q-78 0 -110.5 43t-18.5 117l13 70q14 72 65 107t120 35q72 0 107 -42t21 -116zM343 580q19 97 -76 97t-114 -97l-12 -60q-18 -95 77 -95t113 95zM721 132q-13 -73 -62 -108.5t-122 -35.5
q-78 0 -110.5 43t-18.5 117l13 70q14 72 65 107t120 35q72 0 107 -42t21 -116zM671 203q19 97 -76 97t-114 -97l-12 -60q-18 -95 77 -95t113 95z" />
    <glyph glyph-name="ampersand" unicode="&#x26;" horiz-adv-x="677" 
d="M394 678q-46 0 -84 -7t-65.5 -25.5t-43 -50t-15.5 -80.5q0 -41 25.5 -67t79.5 -26h358l-13 -65h-84l-64 -330q-51 -20 -111 -28.5t-128 -8.5q-56 0 -96.5 13t-67.5 36t-40 55.5t-13 70.5q0 82 39 140t113 84q-41 18 -57.5 53.5t-16.5 71.5q0 114 75 173t204 59
q57 0 101.5 -7t74.5 -18l-13 -63q-41 11 -78 15.5t-80 4.5zM276 357q-32 0 -62.5 -11.5t-54 -34.5t-37.5 -58.5t-14 -83.5q0 -57 39.5 -84t127.5 -27q44 0 82 4.5t69 14.5l54 280h-204z" />
    <glyph glyph-name="quotesingle" unicode="'" horiz-adv-x="217" 
d="M165 503h-62l38 247h81z" />
    <glyph glyph-name="parenleft" unicode="(" horiz-adv-x="318" 
d="M80 415q11 57 31.5 115.5t49.5 113.5t66 103t80 84h79q-51 -44 -90 -96.5t-67.5 -108.5t-47.5 -112.5t-29 -107.5l-27 -138q-10 -51 -13.5 -109t3 -115t25 -111t52.5 -97h-74q-30 40 -47.5 94t-24 114t-4 122t13.5 120z" />
    <glyph glyph-name="parenright" unicode=")" horiz-adv-x="318" 
d="M223 252q-11 -57 -31.5 -115.5t-49.5 -113.5t-66 -103t-80 -84h-79q51 44 90 96.5t67.5 108.5t47.5 112.5t29 107.5l27 138q10 51 13.5 109t-3 115t-25 110.5t-52.5 97.5h74q30 -41 47.5 -94.5t24 -113.5t4 -122t-13.5 -120z" />
    <glyph glyph-name="asterisk" unicode="*" horiz-adv-x="451" 
d="M83 423l-18 58l153 70l-126 69l42 58l108 -84l24 155h65l-37 -155l143 84l18 -58l-152 -69l125 -70l-42 -58l-109 84l-23 -154h-65l37 154z" />
    <glyph glyph-name="plus" unicode="+" horiz-adv-x="582" 
d="M371 598l-42 -214h203l-14 -70h-203l-44 -228h-72l44 228h-203l14 70h203l42 214h72z" />
    <glyph glyph-name="comma" unicode="," horiz-adv-x="260" 
d="M39 101h95l-107 -238h-69z" />
    <glyph glyph-name="hyphen" unicode="-" horiz-adv-x="301" 
d="M24 327h235l-15 -73h-235z" />
    <glyph glyph-name="period" unicode="." horiz-adv-x="255" 
d="M26 101h98l-19 -101h-98z" />
    <glyph glyph-name="slash" unicode="/" horiz-adv-x="485" 
d="M476 831h74l-557 -995h-73z" />
    <glyph glyph-name="zero" unicode="0" horiz-adv-x="610" 
d="M552 315q-15 -81 -41 -141.5t-64 -101.5t-90 -61.5t-121 -20.5q-133 0 -182.5 82t-18.5 243l23 116q31 160 107 242t208 82q134 0 183.5 -81.5t18.5 -242.5zM500 430q14 71 12 119.5t-19 78.5t-49 43.5t-79 13.5q-45 0 -82 -13.5t-66 -43.5t-50 -79t-35 -119l-22 -114
q-14 -71 -12.5 -120t18.5 -79.5t49 -44t77 -13.5q47 0 84.5 13.5t66.5 43.5t50 79t35 121z" />
    <glyph glyph-name="one" unicode="1" horiz-adv-x="610" 
d="M66 67h181l114 584l-205 -101l15 80l228 115h54l-132 -678h166l-12 -67h-421z" />
    <glyph glyph-name="two" unicode="2" horiz-adv-x="610" 
d="M5 69l316 275q43 37 73 64t50 50t31 44.5t16 48.5l3 16q5 28 1 49.5t-21 36.5t-48.5 23t-81.5 8q-53 0 -107.5 -12t-98.5 -30l14 71q19 8 44 15.5t51.5 13.5t54 9.5t53.5 3.5q63 0 107 -13.5t70 -37.5t35 -58t2 -75l-5 -27q-7 -37 -23 -67t-40.5 -58.5t-59 -58.5
t-77.5 -67l-259 -224h392l-12 -69h-492z" />
    <glyph glyph-name="three" unicode="3" horiz-adv-x="610" 
d="M204 416h98q85 0 132 45t47 131q0 46 -31 69t-109 23q-49 0 -102 -9.5t-98 -25.5l14 70q19 7 43 13.5t50.5 11.5t54 8t54.5 3q57 0 95.5 -11.5t62.5 -32.5t34 -50t10 -63q0 -29 -6.5 -61.5t-24.5 -63t-49.5 -55t-81.5 -37.5q59 -12 86.5 -44.5t27.5 -82.5
q0 -128 -72 -196t-223 -68q-32 0 -63.5 3t-60 8.5t-52.5 12t-40 13.5l15 72q19 -8 43 -15t51 -12t54.5 -8t53.5 -3q113 0 165 49t52 139q0 30 -10.5 49t-30 30t-47 15.5t-60.5 4.5h-96z" />
    <glyph glyph-name="four" unicode="4" horiz-adv-x="610" 
d="M20 238l440 507h94l-99 -507h112l-13 -66h-112l-32 -172h-74l32 172h-361zM463 652l-362 -414h280z" />
    <glyph glyph-name="five" unicode="5" horiz-adv-x="610" 
d="M192 745h393l-13 -70h-322l-53 -238q33 5 60.5 8.5t62.5 3.5q68 0 112 -15.5t68 -43t29.5 -64.5t-2.5 -80l-11 -54q-19 -97 -92.5 -149.5t-200.5 -52.5q-69 0 -126.5 11.5t-89.5 26.5l14 70q39 -16 91 -27t115 -11q97 0 150.5 39.5t66.5 105.5l7 39q6 35 2 61t-23 43
t-53.5 25.5t-88.5 8.5q-23 0 -47.5 -2t-49 -5t-47 -7t-39.5 -8z" />
    <glyph glyph-name="six" unicode="6" horiz-adv-x="610" 
d="M69 437q18 94 52.5 155.5t80.5 97.5t101.5 50.5t116.5 14.5q55 0 96.5 -8.5t72.5 -20.5l-14 -69q-38 15 -80 21.5t-80 6.5q-48 0 -91.5 -11t-78.5 -40.5t-61.5 -79.5t-41.5 -128l-6 -32q41 28 97.5 50t121.5 22q48 0 88 -12.5t67 -37.5t38 -63.5t2 -90.5l-9 -50
q-9 -47 -30 -87.5t-56.5 -70.5t-86 -47t-116.5 -17q-70 0 -116.5 22.5t-71 65t-28.5 103.5t11 139zM331 396q-49 0 -105 -19.5t-104 -54.5q-14 -72 -11.5 -122t19.5 -81t48.5 -45t75.5 -14q50 0 87.5 12t63.5 34t41.5 51.5t22.5 64.5l7 37q14 75 -23 106t-122 31z" />
    <glyph glyph-name="seven" unicode="7" horiz-adv-x="610" 
d="M167 0h-89l457 674h-417l13 71h504l-11 -61z" />
    <glyph glyph-name="eight" unicode="8" horiz-adv-x="610" 
d="M14 151q0 88 54 145t142 80q-109 35 -109 136q0 58 20.5 103.5t57.5 76.5t89 47t115 16q105 0 158.5 -40.5t53.5 -115.5q0 -45 -12.5 -80t-36 -62t-55.5 -47t-71 -35q67 -23 95 -57.5t28 -79.5q0 -54 -20 -99.5t-58 -78.5t-93.5 -51.5t-127.5 -18.5q-62 0 -106 12
t-71.5 33t-40 50.5t-12.5 65.5zM285 347l-30 -10q-36 -12 -65.5 -27t-51 -35.5t-33.5 -48t-12 -63.5q0 -54 43 -79.5t116 -25.5q45 0 84 10t67 31t44 52.5t16 73.5q0 38 -29 67t-106 46zM374 687q-39 0 -74.5 -10t-62.5 -30t-43 -52t-16 -75q0 -42 26 -66t79 -36l62 -14
l50 21q27 12 49.5 25t39 32t25.5 44.5t9 61.5q0 51 -34.5 75t-109.5 24z" />
    <glyph glyph-name="nine" unicode="9" horiz-adv-x="610" 
d="M541 308q-18 -94 -52 -155.5t-80 -97.5t-102 -50.5t-117 -14.5q-55 0 -96.5 8.5t-72.5 20.5l14 69q38 -15 80 -21.5t80 -6.5q48 0 91.5 11t78.5 40.5t61.5 79.5t41.5 128l6 32q-41 -29 -98 -50.5t-121 -21.5q-48 0 -88 12.5t-67 37.5t-38 63.5t-2 90.5l9 50q9 46 30 86.5
t56.5 70.5t86 47.5t116.5 17.5q70 0 116.5 -22.5t71 -65t28.5 -103.5t-11 -139zM279 349q49 0 105 19.5t104 53.5v1q14 72 12 122t-19.5 81t-49 45t-76.5 14q-51 0 -88.5 -12t-63 -34t-40.5 -51.5t-22 -64.5l-7 -37q-14 -75 23 -106t122 -31z" />
    <glyph glyph-name="colon" unicode=":" horiz-adv-x="255" 
d="M99 479h98l-19 -101h-98zM26 101h98l-19 -101h-98z" />
    <glyph glyph-name="semicolon" unicode=";" horiz-adv-x="255" 
d="M39 101h95l-107 -238h-69zM99 479h98l-19 -101h-98z" />
    <glyph glyph-name="less" unicode="&#x3c;" horiz-adv-x="614" 
d="M168 358l331 -189l-13 -72l-410 240l12 59l503 240l-15 -81l-407 -191z" />
    <glyph glyph-name="equal" unicode="=" horiz-adv-x="601" 
d="M87 501h477l-14 -71h-477zM42 270h477l-14 -72h-477z" />
    <glyph glyph-name="greater" unicode="&#x3e;" horiz-adv-x="614" 
d="M444 375l-332 189l13 72l411 -240l-12 -59l-504 -240l15 81l408 191z" />
    <glyph glyph-name="question" unicode="?" horiz-adv-x="494" 
d="M162 260q6 31 15.5 52.5t26 40.5t42 37t63.5 41q27 16 48 32t35.5 35.5t21.5 45t7 60.5q0 42 -28.5 63t-106.5 21q-48 0 -95.5 -11.5t-92.5 -28.5l14 70q37 16 86 27.5t105 11.5q52 0 89 -10.5t60 -30t33.5 -46.5t10.5 -60q0 -57 -14.5 -95t-37 -64t-49.5 -43.5
t-52 -33.5q-31 -20 -50.5 -34t-31.5 -26.5t-18 -26.5t-10 -34l-11 -57h-73zM120 101h98l-19 -101h-98z" />
    <glyph glyph-name="at" unicode="@" horiz-adv-x="1020" 
d="M743 -135q-69 -21 -147 -31.5t-162 -10.5q-111 0 -192 26t-130.5 77t-66 125t2.5 170l26 136q19 95 63 166.5t108 119t146 71t176 23.5q217 0 311.5 -100t58.5 -292l-15 -79q-8 -42 -24 -82t-41.5 -70.5t-61 -49.5t-81.5 -19q-38 0 -69.5 16.5t-42.5 51.5
q-15 -12 -35 -24t-44 -22t-52 -16t-58 -6q-84 0 -116 47.5t-17 127.5l22 112q10 53 29 88.5t45 56.5t58 30t67 9q50 0 89.5 -13.5t60.5 -31.5l5 27l71 17l-64 -325q-8 -41 6.5 -61t49.5 -20q24 0 45.5 8t39.5 27t32.5 51t23.5 81l15 78q31 164 -47 242.5t-268 78.5
q-76 0 -145.5 -19.5t-125.5 -59t-95.5 -100t-55.5 -141.5l-26 -138q-17 -84 -2.5 -146.5t56.5 -103t110.5 -60.5t160.5 -20q43 0 83 2t78.5 7t77 13t80.5 21zM638 406q-9 7 -21.5 15.5t-29.5 15.5t-38 12t-45 5q-59 0 -89.5 -31.5t-44.5 -106.5l-17 -83q-12 -64 2.5 -95
t66.5 -31q45 0 88.5 15t81.5 43z" />
    <glyph glyph-name="A" unicode="A" horiz-adv-x="649" 
d="M571 0h-78l-40 221h-317l-121 -221h-81l419 750h74zM442 290l-44 259q-6 32 -10 58t-9 63q-15 -33 -32 -64l-34 -62l-140 -254h269z" />
    <glyph glyph-name="B" unicode="B" horiz-adv-x="629" 
d="M153 750h236q54 0 95.5 -7.5t67.5 -26.5t36 -52t1 -85l-8 -46q-5 -24 -14 -46.5t-25 -41.5t-40.5 -33.5t-58.5 -22.5q69 -10 94 -50t14 -91l-15 -74q-10 -54 -30 -88t-54 -53t-84 -26t-119 -7h-241zM152 358l-57 -291h165q52 0 88 5t59.5 18.5t37 37t20.5 60.5l11 55
q6 29 2.5 50.5t-20 36t-48 21.5t-81.5 7h-177zM216 683l-52 -262h172q33 0 61 5t50 17t37 33.5t21 54.5l10 51q6 31 2.5 50.5t-20 30.5t-47 15.5t-77.5 4.5h-157z" />
    <glyph glyph-name="C" unicode="C" horiz-adv-x="601" 
d="M602 669q-30 11 -78.5 16.5t-98.5 5.5q-67 0 -115 -15.5t-81 -46.5t-54 -78t-33 -110l-28 -140q-12 -61 -10 -106t23 -75t64 -45t112 -15q43 0 94 5.5t102 21.5l-13 -68q-20 -8 -45 -13t-51.5 -9t-53 -5.5t-50.5 -1.5q-86 0 -141 21.5t-83 63.5t-31.5 104.5t13.5 145.5
l25 125q18 92 50.5 152t79 95t106 49t130.5 14q24 0 49 -1.5t49 -4.5t45 -8t37 -11z" />
    <glyph glyph-name="D" unicode="D" horiz-adv-x="684" 
d="M8 0l145 750h239q83 0 139 -17t86.5 -56.5t35.5 -103t-13 -156.5l-23 -118q-17 -86 -42 -143.5t-66 -92t-103.5 -49t-153.5 -14.5h-244zM215 680l-120 -610h164q76 0 125.5 14.5t80.5 44t48.5 73t28.5 101.5l27 138q12 62 10.5 107t-22.5 74.5t-63 43.5t-110 14h-169z
" />
    <glyph glyph-name="E" unicode="E" 
d="M602 750l-13 -70h-374l-50 -256h342l-14 -69h-342l-56 -285h387l-12 -70h-462l145 750h449z" />
    <glyph glyph-name="F" unicode="F" horiz-adv-x="556" 
d="M592 750l-13 -70h-364l-55 -278h334l-13 -70h-334l-64 -332h-75l145 750h439z" />
    <glyph glyph-name="G" unicode="G" horiz-adv-x="650" 
d="M607 669q-37 11 -78 16.5t-96 5.5q-76 0 -127 -19.5t-84 -53.5t-51.5 -79t-28.5 -97l-25 -130q-12 -60 -10.5 -107t23 -79t67 -49t122.5 -17q38 0 74.5 3.5t73.5 11.5l52 261h-163l12 66h237l-73 -379q-25 -9 -55 -15.5t-60.5 -10.5t-60.5 -5.5t-56 -1.5q-90 0 -147.5 22
t-87 64.5t-34 104.5t10.5 142l24 120q17 87 47.5 147t77 98t109.5 55t144 17q49 0 95.5 -5.5t80.5 -19.5z" />
    <glyph glyph-name="H" unicode="H" horiz-adv-x="700" 
d="M547 0h-76l68 357h-388l-68 -357h-75l145 750h75l-63 -323h388l63 323h76z" />
    <glyph glyph-name="I" unicode="I" horiz-adv-x="236" 
d="M83 0h-75l145 750h75z" />
    <glyph glyph-name="J" unicode="J" horiz-adv-x="376" 
d="M378 750l-113 -581q-9 -48 -24.5 -82t-40 -55.5t-60.5 -31.5t-87 -10q-28 0 -60.5 4.5t-51.5 10.5l14 73q26 -8 54 -11t55 -3q61 0 88.5 29t39.5 94l110 563h76z" />
    <glyph glyph-name="K" unicode="K" horiz-adv-x="630" 
d="M329 379l214 -379h-83l-192 344h-119l-66 -344h-75l145 750h75l-66 -337h109l297 337h92z" />
    <glyph glyph-name="L" unicode="L" horiz-adv-x="540" 
d="M228 750l-132 -678h374l-13 -72h-449l145 750h75z" />
    <glyph glyph-name="M" unicode="M" horiz-adv-x="831" 
d="M678 0h-73l97 500q7 36 16.5 81t20.5 85q-23 -49 -41.5 -89.5t-38.5 -76.5l-271 -500h-82l-85 501q-3 17 -5.5 34t-5 35t-4.5 39.5t-4 47.5q-3 -24 -5.5 -43.5t-5.5 -37.5t-6 -36.5t-7 -40.5l-97 -499h-73l145 750h93l90 -527q7 -39 11.5 -77.5t8.5 -83.5q20 45 39 83
t41 78l283 527h104z" />
    <glyph glyph-name="N" unicode="N" horiz-adv-x="702" 
d="M549 0h-78l-219 514q-13 30 -25 64t-21 71l-125 -649h-73l145 750h78l215 -511q8 -19 14.5 -35.5t12 -32.5t11 -33t11.5 -36l125 648h74z" />
    <glyph glyph-name="O" unicode="O" horiz-adv-x="719" 
d="M656 309q-32 -163 -125.5 -242t-242.5 -79q-74 0 -127.5 23t-85 67.5t-40 108t7.5 144.5l21 108q31 162 125 242.5t243 80.5q74 0 127.5 -23.5t84.5 -68t39.5 -108.5t-6.5 -145zM601 422q28 139 -21 204t-159 65q-111 0 -183.5 -65t-100.5 -204l-18 -94
q-27 -140 20.5 -204.5t158.5 -64.5q110 0 184 64.5t101 204.5z" />
    <glyph glyph-name="P" unicode="P" horiz-adv-x="627" 
d="M153 750h262q54 0 97 -8.5t70 -31t36.5 -63.5t-3.5 -105l-10 -51q-12 -60 -34.5 -96.5t-58.5 -56.5t-86 -26.5t-115 -6.5h-170l-58 -305h-75zM215 681l-60 -308h165q52 0 89 5t61.5 18.5t38.5 37t22 61.5l13 67q7 34 2.5 57t-21 37t-46.5 19.5t-73 5.5h-191z" />
    <glyph glyph-name="Q" unicode="Q" horiz-adv-x="719" 
d="M656 309q-37 -188 -159 -267l72 -145h-81l-57 114q-64 -23 -143 -23q-74 0 -127.5 23t-85 67.5t-40 108t7.5 144.5l21 108q31 162 125 242.5t243 80.5q74 0 127.5 -23.5t84.5 -68t39.5 -108.5t-6.5 -145zM406 225l58 -116q44 32 74 86.5t45 132.5l18 94q28 139 -21 204
t-159 65q-111 0 -183.5 -65t-100.5 -204l-18 -94q-27 -140 20.5 -204.5t158.5 -64.5q56 0 101 16l-74 150h81z" />
    <glyph glyph-name="R" unicode="R" horiz-adv-x="637" 
d="M153 750h264q54 0 96.5 -8.5t69 -31.5t35.5 -63t-3 -104l-9 -45q-8 -44 -23 -74t-36.5 -50.5t-49.5 -32t-62 -17.5l104 -324h-80l-99 315h-217l-60 -315h-75zM215 681l-58 -299h165q52 0 89 5t61.5 18.5t38.5 37t21 60.5l12 58q13 69 -18.5 94.5t-119.5 25.5h-191z" />
    <glyph glyph-name="S" unicode="S" horiz-adv-x="574" 
d="M507 252q0 -128 -74.5 -195t-225.5 -67q-55 0 -112.5 8.5t-111.5 31.5l15 74q69 -28 122.5 -36.5t98.5 -8.5q103 0 156.5 43.5t53.5 134.5q0 18 -4.5 31.5t-17 25t-34.5 21t-56 19.5l-100 28q-68 19 -100.5 60t-32.5 99q0 121 75 180t210 59q55 0 103 -6t82 -19l-12 -66
q-39 12 -80.5 17.5t-87.5 5.5q-42 0 -81 -6.5t-68.5 -24.5t-47 -50t-17.5 -83q0 -37 21.5 -60.5t72.5 -37.5l97 -28q45 -13 75 -28t48 -33.5t25.5 -40.5t7.5 -48z" />
    <glyph glyph-name="T" unicode="T" horiz-adv-x="589" 
d="M90 750h554l-13 -71h-239l-132 -679h-76l132 679h-239z" />
    <glyph glyph-name="U" unicode="U" horiz-adv-x="704" 
d="M218 750l-91 -468q-12 -61 -8.5 -103.5t23.5 -69t56.5 -38.5t89.5 -12q55 0 97 12t72.5 38.5t50.5 69t32 103.5l91 468h75l-94 -482q-27 -139 -103 -210t-219 -71q-146 0 -207 70.5t-32 219.5l92 473h75z" />
    <glyph glyph-name="V" unicode="V" horiz-adv-x="645" 
d="M157 750l86 -506q6 -39 12 -74.5t11 -82.5q22 47 40.5 82.5t40.5 74.5l284 506h81l-422 -750h-74l-136 750h77z" />
    <glyph glyph-name="W" unicode="W" horiz-adv-x="915" 
d="M513 464q-4 39 -5.5 85.5t1.5 100.5q-21 -55 -41.5 -101t-38.5 -85l-212 -464h-81l-55 750h77l29 -493q2 -35 4 -76.5t0 -92.5q20 50 38 92t35 77l225 493h72l38 -493q2 -31 3.5 -72t-0.5 -93q17 45 35 87.5t34 77.5l225 493h79l-354 -750h-72z" />
    <glyph glyph-name="X" unicode="X" horiz-adv-x="632" 
d="M363 219q-11 29 -24 60t-24 65q-30 -41 -52.5 -70t-43.5 -55l-172 -219h-92l314 385l-161 365h85l79 -200q10 -26 21 -55.5t26 -71.5q29 38 51.5 65.5t48.5 60.5l158 201h91l-300 -365l165 -385h-83z" />
    <glyph glyph-name="Y" unicode="Y" horiz-adv-x="574" 
d="M317 313l-60 -313h-75l60 311l-162 439h76l89 -253l22 -64t19 -66q21 35 44 67t45 63l181 253h85z" />
    <glyph glyph-name="Z" unicode="Z" horiz-adv-x="590" 
d="M139 158q-19 -22 -38.5 -43.5t-45.5 -48.5h443l-12 -66h-533l10 59l470 533q20 22 41.5 45.5t43.5 46.5h-417l12 66h506l-12 -59z" />
    <glyph glyph-name="bracketleft" unicode="[" horiz-adv-x="374" 
d="M180 831h262l-13 -65h-188l-169 -865h188l-12 -65h-262z" />
    <glyph glyph-name="backslash" unicode="\" horiz-adv-x="485" 
d="M354 -164h-72l-169 995h72z" />
    <glyph glyph-name="bracketright" unicode="]" horiz-adv-x="374" 
d="M178 -164h-261l11 65h189l169 865h-189l13 65h262z" />
    <glyph glyph-name="asciicircum" unicode="^" horiz-adv-x="536" 
d="M319 747h43l124 -302h-71l-84 210h-5l-166 -210h-82z" />
    <glyph glyph-name="underscore" unicode="_" horiz-adv-x="422" 
d="M-79 -35h421l-12 -63h-421z" />
    <glyph glyph-name="grave" unicode="`" horiz-adv-x="581" 
d="M417 613h-76l-104 132h96z" />
    <glyph glyph-name="a" unicode="a" horiz-adv-x="512" 
d="M318 0l4 56q-17 -10 -40 -21.5t-49.5 -21.5t-56.5 -16.5t-61 -6.5q-76 0 -105.5 42.5t-12.5 124.5l4 20q9 44 28.5 73t51.5 46t77 24t105 7h108l8 40q6 31 7 55.5t-8.5 41.5t-32 26t-63.5 9q-35 0 -79 -8t-86 -23l12 65q45 15 89 22t85 7q61 0 94 -18t46.5 -47.5t12 -67
t-8.5 -77.5l-68 -352h-61zM360 269h-107q-47 0 -79.5 -5t-53.5 -17t-32.5 -33t-17.5 -53l-2 -11q-10 -54 6 -76t59 -22q22 0 47.5 4.5t52 13t51.5 19t45 22.5z" />
    <glyph glyph-name="b" unicode="b" 
d="M384 562q48 0 79.5 -17t48 -46t19.5 -66.5t-5 -77.5l-29 -149q-12 -63 -35.5 -104.5t-55.5 -66.5t-72.5 -35.5t-86.5 -10.5q-56 0 -97 18.5t-70 41.5l-15 -49h-61l145 750l76 24l-54 -276q18 10 42 21.5t52 21t58.5 15.5t60.5 6zM97 112q19 -18 41 -29t43 -17t39.5 -8
t32.5 -2q74 0 116 39.5t59 128.5l23 122q17 82 -7.5 115t-87.5 33q-24 0 -50.5 -5.5t-52.5 -14.5t-50 -20t-45 -23z" />
    <glyph glyph-name="c" unicode="c" horiz-adv-x="475" 
d="M450 481q-32 11 -64.5 14t-67.5 3q-48 0 -83 -13t-59 -36.5t-39 -56t-23 -72.5l-18 -86q-8 -41 -6.5 -74.5t16.5 -57t46 -36.5t82 -13q32 0 68.5 5t78.5 19l-12 -63q-36 -15 -78 -19.5t-77 -4.5q-120 0 -167.5 61.5t-21.5 194.5l15 75q14 69 40 115.5t63 74.5t83 39.5
t99 11.5q36 0 72.5 -5t63.5 -16z" />
    <glyph glyph-name="d" unicode="d" horiz-adv-x="593" 
d="M165 -10q-46 0 -77.5 15t-49 41t-22 62t3.5 78l34 170q11 58 35 97.5t57 63.5t73.5 34.5t85.5 10.5q53 0 95 -12t68 -27l44 227l77 24l-150 -774h-63l4 54q-38 -24 -93.5 -44t-121.5 -20zM456 459q-26 14 -64.5 25t-89.5 11q-32 0 -60.5 -7t-51.5 -25t-40.5 -48.5
t-26.5 -77.5l-29 -145q-14 -75 11.5 -105t85.5 -30q48 0 100.5 17t96.5 44z" />
    <glyph glyph-name="e" unicode="e" horiz-adv-x="535" 
d="M98 255l-4 -19q-11 -51 -8 -85.5t21.5 -56.5t54.5 -31.5t92 -9.5q14 0 32.5 2t37 5t36.5 7.5t30 9.5l-12 -63q-35 -14 -77.5 -19t-76.5 -5q-130 0 -177 65.5t-22 192.5l11 60q13 69 39.5 117t62.5 78.5t80 44.5t92 14q49 0 87 -14t61.5 -46t29.5 -84t-9 -128l-7 -35h-374
zM414 318q9 42 7.5 76t-14.5 57.5t-39 36t-67 12.5q-78 0 -126 -48.5t-65 -133.5l-1 -5h304z" />
    <glyph glyph-name="f" unicode="f" horiz-adv-x="357" 
d="M368 548l-13 -64h-149l-93 -484h-72l93 484h-94l13 64h94l19 98q14 70 54 99t101 29q29 0 55 -3.5t41 -8.5l-11 -58q-16 3 -33 5t-35 2q-23 0 -40.5 -3t-29.5 -12t-20 -25.5t-13 -42.5l-16 -80h149z" />
    <glyph glyph-name="g" unicode="g" horiz-adv-x="581" 
d="M166 -3q-48 0 -80.5 14t-51 39.5t-23 61t3.5 77.5l32 163q12 60 36 100.5t57 64.5t74 34.5t87 10.5q55 0 95.5 -15t66.5 -38l13 41h63l-115 -589q-9 -44 -25.5 -78t-46 -57.5t-73 -36t-104.5 -12.5q-42 0 -78.5 5t-59.5 13l13 66q35 -11 65 -14t59 -3q41 0 71.5 5.5
t52.5 20t35.5 38.5t20.5 61l15 76q-38 -18 -87.5 -33t-115.5 -15zM447 447q-27 22 -63.5 35t-87.5 13q-32 0 -61 -7t-52 -25t-40 -48.5t-26 -77.5l-27 -138q-14 -75 11 -105t85 -30q24 0 50.5 3.5t52 10t49.5 15.5t44 20z" />
    <glyph glyph-name="h" unicode="h" horiz-adv-x="570" 
d="M355 0l73 381q11 60 -3.5 86.5t-68.5 26.5q-44 0 -95 -16.5t-102 -45.5l-83 -432h-72l145 750l77 24l-54 -277q46 26 100 45.5t105 19.5q42 0 69.5 -13t42.5 -36.5t17.5 -55.5t-4.5 -71l-74 -386h-73z" />
    <glyph glyph-name="i" unicode="i" horiz-adv-x="227" 
d="M4 0l106 548h72l-106 -548h-72zM208 669h-76l15 82h76z" />
    <glyph glyph-name="j" unicode="j" horiz-adv-x="247" 
d="M77 -90q-7 -34 -17.5 -58.5t-28 -40.5t-42.5 -24t-60 -8q-20 0 -44.5 2.5t-44.5 8.5l12 62q18 -4 36 -6t41 -2q36 0 52.5 17t24.5 59l123 628h73zM228 669h-77l15 82h77z" />
    <glyph glyph-name="k" unicode="k" horiz-adv-x="510" 
d="M140 334h73l217 214h94l-257 -248l157 -300h-81l-134 269h-81l-52 -269h-72l145 750l77 24z" />
    <glyph glyph-name="l" unicode="l" horiz-adv-x="230" 
d="M149 750l77 24l-150 -774h-72z" />
    <glyph glyph-name="m" unicode="m" horiz-adv-x="860" 
d="M325 0l75 386q10 52 -1.5 80t-61.5 28q-32 0 -79.5 -14t-98.5 -46l-84 -434h-71l106 548h63l-3 -51q45 29 93 47t98 18q43 0 71 -20.5t38 -55.5q59 39 111.5 57.5t97.5 18.5q69 0 99 -47t14 -129l-74 -386h-72l75 386q10 52 -1 80t-60 28q-31 0 -80 -13.5t-100 -46.5
l-83 -434h-72z" />
    <glyph glyph-name="n" unicode="n" horiz-adv-x="570" 
d="M355 0l73 381q11 60 -3.5 86.5t-68.5 26.5q-41 0 -93.5 -16t-103.5 -47l-83 -431h-72l106 548h64l-3 -52q44 26 99 46t106 20q42 0 70 -13t42.5 -36.5t17.5 -55.5t-4 -71l-74 -386h-73z" />
    <glyph glyph-name="o" unicode="o" horiz-adv-x="568" 
d="M490 233q-47 -243 -277 -243q-113 0 -162.5 68.5t-26.5 189.5l13 68q24 121 95 183.5t184 62.5q115 0 163 -70t24 -191zM433 311q19 96 -14 142t-111 46t-128.5 -46t-69.5 -142l-14 -70q-19 -94 14 -141t111 -47q160 0 198 188z" />
    <glyph glyph-name="p" unicode="p" 
d="M384 562q49 0 80 -17.5t47.5 -46.5t19.5 -66t-5 -77l-30 -155q-12 -63 -37 -103.5t-60 -64t-80 -33t-96 -9.5q-15 0 -35 2t-40.5 5t-39 8t-31.5 11l-45 -232h-71l149 764h63l-2 -50q18 9 41.5 20.5t51.5 21t58 16t62 6.5zM89 79q27 -11 64 -17t69 -6q46 0 80.5 8.5
t59.5 28t41 52t25 80.5l23 122q17 82 -8 114.5t-88 32.5q-23 0 -49 -5.5t-52 -14t-50.5 -19.5t-45.5 -23z" />
    <glyph glyph-name="q" unicode="q" horiz-adv-x="587" 
d="M167 -10q-47 0 -78.5 14.5t-49.5 40.5t-22.5 61.5t3.5 77.5l34 170q12 60 36 100t57.5 64t74.5 34t87 10q55 0 95 -16.5t64 -38.5l14 41h63l-149 -764h-71l49 254q-38 -20 -91.5 -34t-115.5 -14zM453 443q-27 22 -63.5 37t-87.5 15q-32 0 -60 -7t-51.5 -25t-41 -48.5
t-26.5 -77.5l-29 -145q-14 -75 12 -105t86 -30q48 0 100.5 12t92.5 35z" />
    <glyph glyph-name="r" unicode="r" horiz-adv-x="366" 
d="M361 487q-53 -5 -107 -25.5t-101 -59.5l-77 -402h-72l106 548h64l-8 -76q15 13 37 28t49 28t58.5 22.5t65.5 11.5z" />
    <glyph glyph-name="s" unicode="s" horiz-adv-x="460" 
d="M384 187q0 -99 -59.5 -148t-166.5 -49q-20 0 -43.5 2t-47 5.5t-46.5 9.5t-41 15l13 66q47 -20 90.5 -27t81.5 -7q42 0 70 9.5t45 26t24 39.5t7 50q0 12 -4 21t-14 16.5t-28 14t-45 14.5l-43 12q-68 19 -95.5 49.5t-27.5 76.5q0 48 15.5 82t45 55.5t71 31.5t93.5 10
q42 0 78.5 -5t62.5 -15l-12 -61q-30 9 -62.5 14t-69.5 5q-81 0 -116 -27.5t-35 -85.5q0 -25 18.5 -40.5t68.5 -28.5l43 -11q73 -19 101 -47.5t28 -72.5z" />
    <glyph glyph-name="t" unicode="t" horiz-adv-x="372" 
d="M209 484l-65 -337q-11 -53 1 -71.5t51 -18.5q19 0 42 4.5t43 14.5l-13 -66q-20 -11 -48.5 -15.5t-49.5 -4.5q-68 0 -91.5 40.5t-10.5 106.5l68 347h-96l13 64h96l24 124l77 24l-28 -148h150l-13 -64h-150z" />
    <glyph glyph-name="u" unicode="u" horiz-adv-x="570" 
d="M177 548l-74 -382q-11 -54 3.5 -81t66.5 -27q42 0 94.5 17t100.5 47l84 426h73l-106 -548h-64l2 56q-47 -29 -99.5 -47.5t-103.5 -18.5q-84 0 -112.5 47t-12.5 127l75 384h73z" />
    <glyph glyph-name="v" unicode="v" horiz-adv-x="505" 
d="M138 0l-90 548h74l50 -351q5 -31 9 -66t6 -73q19 38 36 74t32 65l187 351h78l-301 -548h-81z" />
    <glyph glyph-name="w" unicode="w" horiz-adv-x="776" 
d="M130 548l40 -345q2 -27 4.5 -51.5t4.5 -59.5h1q14 36 23.5 60t23.5 51l164 345h66l33 -344q2 -26 3.5 -52.5t2.5 -59.5h1q14 33 26 59t25 52l167 345h72l-272 -548h-71l-31 338q-3 32 -4.5 60.5t0.5 59.5h-1q-6 -17 -11 -31t-10.5 -27t-11.5 -26t-13 -29l-165 -345h-68
l-72 548h73z" />
    <glyph glyph-name="x" unicode="x" horiz-adv-x="522" 
d="M252 322q23 31 46 59.5t46 56.5l90 110h89l-233 -269l137 -279h-79l-58 123q-16 34 -27.5 59.5t-21.5 48.5h-1q-22 -27 -44.5 -53.5t-46.5 -53.5l-107 -124h-91l249 279l-133 269h80l52 -110l52 -116h1z" />
    <glyph glyph-name="y" unicode="y" horiz-adv-x="517" 
d="M103 -213h-73l123 213l-105 548h74l60 -345q6 -33 9 -64t7 -74q21 45 38 77.5t34 63.5l191 342h76z" />
    <glyph glyph-name="z" unicode="z" horiz-adv-x="473" 
d="M145 151q-21 -23 -41.5 -44.5t-44.5 -44.5h325l-11 -62h-412l10 55l320 353q20 21 38 40t37 37h-300l12 63h388l-11 -56z" />
    <glyph glyph-name="braceleft" unicode="{" horiz-adv-x="423" 
d="M41 382q57 1 87 22t39 67l41 210q16 78 59 114t123 36h103l-13 -65h-90q-45 0 -72.5 -18.5t-37.5 -72.5l-40 -200q-4 -19 -10.5 -39.5t-19 -38.5t-32 -32.5t-48.5 -20.5q25 -6 39 -20t19.5 -32t5 -38.5t-4.5 -40.5l-44 -228q-5 -27 -2 -43.5t13.5 -25.5t27 -12t37.5 -3
h90l-12 -65h-92q-80 0 -114 41t-18 121l44 225q9 46 -13 67.5t-79 22.5z" />
    <glyph glyph-name="bar" unicode="|" horiz-adv-x="277" 
d="M70 -164h-72l194 995h72z" />
    <glyph glyph-name="braceright" unicode="}" horiz-adv-x="423" 
d="M372 313q-57 -1 -87 -22.5t-39 -67.5l-49 -250q-15 -76 -57 -106.5t-121 -30.5h-104l12 65h89q21 0 39 3t32 12t24 25.5t15 43.5l45 231q4 20 11.5 40.5t20 38.5t31.5 32t46 20q-26 6 -39.5 20.5t-19 32.5t-4.5 38.5t5 39.5l39 197q10 54 -9 72.5t-67 18.5h-90l13 65h88
q85 0 118 -42t18 -120l-38 -198q-9 -46 13 -67t79 -22z" />
    <glyph glyph-name="asciitilde" unicode="~" horiz-adv-x="579" 
d="M364 262q-36 0 -57 14t-36.5 31.5t-31 31.5t-40.5 14q-22 0 -37.5 -9.5t-26.5 -23.5t-18 -30.5t-11 -30.5h-74q10 33 25 62t35.5 51t47.5 35t63 13q35 0 56.5 -14t38 -31t32.5 -31t40 -14q19 0 34 8t25.5 20.5t18 29.5t13.5 35h73q-10 -31 -23.5 -60t-34 -51.5t-48 -36
t-64.5 -13.5z" />
    <glyph glyph-name="uni00A0" unicode="&#xa0;" horiz-adv-x="0" 
 />
    <glyph glyph-name="exclamdown" unicode="&#xa1;" horiz-adv-x="269" 
d="M109 384h57l-94 -549h-83zM206 484h-98l19 101h98z" />
    <glyph glyph-name="cent" unicode="&#xa2;" horiz-adv-x="505" 
d="M396 665q32 -2 62.5 -7t50.5 -14l-11 -60q-19 7 -49 11.5t-66 6.5l-86 -444q29 1 64 7t68 18l-12 -62q-29 -13 -65 -19t-68 -8l-17 -94h-58l17 94q-109 11 -151.5 74t-19.5 188l13 70q12 64 37 108.5t60.5 72.5t79 41.5t93.5 16.5l16 85h58zM124 340q-17 -84 8.5 -128.5
t106.5 -52.5l86 442q-83 -8 -127 -53.5t-59 -126.5z" />
    <glyph glyph-name="sterling" unicode="&#xa3;" horiz-adv-x="561" 
d="M534 677q-22 8 -47 11.5t-59 3.5q-80 0 -126 -44t-66 -147l-19 -96h228l-12 -62h-228l-24 -122q-5 -24 -11 -44t-16 -37.5t-24.5 -34t-34.5 -33.5h376l-13 -72h-475l10 58q31 21 52 43.5t34.5 48.5t22 57t16.5 69l13 67h-79l12 62h79l21 107q12 61 33.5 108t55 79t80 48
t108.5 16q26 0 53.5 -4t52.5 -12z" />
    <glyph glyph-name="currency" unicode="&#xa4;" horiz-adv-x="726" 
d="M536 513q23 -29 36.5 -66.5t13.5 -81.5q0 -45 -13.5 -82.5t-36.5 -66.5l100 -100l-43 -43l-102 102q-56 -37 -128 -37q-74 0 -128 37l-102 -102l-43 43l101 101q-23 29 -36 66.5t-13 81.5t12.5 81t35.5 66l-100 101l43 43l102 -103q27 18 59 28t69 10q72 0 128 -37
l102 102l43 -43zM363 198q36 0 65.5 12.5t51 34.5t33 53t11.5 67q0 37 -12 67.5t-33 52.5t-50.5 34t-65.5 12q-35 0 -64.5 -12t-50.5 -34t-32.5 -52.5t-11.5 -67.5q0 -36 11.5 -67t32.5 -53t50.5 -34.5t64.5 -12.5z" />
    <glyph glyph-name="yen" unicode="&#xa5;" horiz-adv-x="579" 
d="M29 256h204l10 51l-3 34h-194l12 65h158l-128 344h78l91 -262q10 -27 16.5 -50.5t16.5 -60.5l21 35t17 27.5t16.5 24t17.5 25.5l188 261h87l-258 -344h152l-12 -65h-186l-15 -33l-10 -52h194l-13 -65h-194l-36 -191h-75l36 191h-204z" />
    <glyph glyph-name="brokenbar" unicode="&#xa6;" horiz-adv-x="277" 
d="M144 216l-74 -380h-72l74 380h72zM118 451l74 380h72l-74 -380h-72z" />
    <glyph glyph-name="section" unicode="&#xa7;" horiz-adv-x="559" 
d="M49 273q0 69 37.5 115.5t105.5 72.5q-21 17 -30.5 42.5t-9.5 51.5q0 96 60.5 140t163.5 44q42 0 78.5 -5.5t61.5 -15.5l-12 -61q-29 9 -62.5 14t-68.5 5q-81 0 -114.5 -29t-33.5 -87q0 -27 17.5 -44.5t66.5 -31.5l42 -12q76 -22 104 -54t28 -77q0 -64 -35 -113.5
t-110 -75.5q22 -17 31 -42t9 -51q0 -95 -59.5 -139.5t-162.5 -44.5q-42 0 -78.5 5.5t-62.5 15.5l12 61q29 -9 63 -14t68 -5q81 0 114.5 29t33.5 87q0 26 -17.5 43.5t-65.5 31.5l-43 12q-74 20 -102.5 54t-28.5 78zM262 426q-42 -8 -69 -23.5t-42.5 -35.5t-22 -43.5
t-6.5 -46.5q0 -25 18.5 -43t75.5 -33l52 -14q42 7 69 22.5t43 35.5t22.5 43.5t6.5 46.5q0 26 -19 42.5t-76 33.5z" />
    <glyph glyph-name="dieresis" unicode="&#xa8;" horiz-adv-x="582" 
d="M229 713h79l-17 -91h-79zM401 713h79l-17 -91h-79z" />
    <glyph glyph-name="copyright" unicode="&#xa9;" horiz-adv-x="840" 
d="M419 11q69 0 127 24t100 67.5t65.5 102.5t23.5 130t-23.5 130.5t-65.5 102t-100 66.5t-127 24q-68 0 -125.5 -24t-99.5 -66.5t-65.5 -102t-23.5 -130.5t23.5 -130t65.5 -102.5t99.5 -67.5t125.5 -24zM419 -33q-81 0 -148 29t-115 79t-75 117t-27 143t27 143t75 116.5
t115 78.5t148 29q82 0 149.5 -29t116 -78.5t75 -116.5t26.5 -143t-27 -143t-75.5 -117t-116 -79t-148.5 -29zM552 471q-18 7 -44 11.5t-59 4.5q-66 0 -94 -31t-28 -93v-59q0 -66 26 -94.5t97 -28.5q25 0 53 4t57 15v-58q-26 -12 -57 -16t-57 -4q-94 0 -140 42.5t-46 141.5
v51q0 102 49.5 145t135.5 43q31 0 59 -4.5t48 -12.5v-57z" />
    <glyph glyph-name="ordfeminine" unicode="&#xaa;" horiz-adv-x="470" 
d="M322 289l5 48q-14 -9 -32 -19t-39.5 -18.5t-45.5 -14t-50 -5.5q-66 0 -94 37.5t-15 107.5l3 16q9 41 27.5 66.5t46 40t64 19.5t81.5 5h97l6 34q6 27 6 47t-8.5 33t-27 19t-50.5 6q-29 0 -66 -6.5t-73 -19.5l11 63q39 14 76.5 20t72.5 6q52 0 80.5 -15.5t41 -41t12 -58.5
t-7.5 -67l-59 -303h-62zM359 514h-91q-34 0 -59 -3t-42.5 -12t-28 -25t-15.5 -41l-3 -16q-8 -43 7 -59t50 -16q18 0 38.5 4t41.5 10.5t41 15.5t37 19z" />
    <glyph glyph-name="guillemotleft" unicode="&#xab;" horiz-adv-x="575" 
d="M36 255l9 50l211 194h85l-233 -225l-1 -5l146 -221h-79zM252 255l9 50l205 194h85l-228 -225l-1 -5l141 -221h-79z" />
    <glyph glyph-name="logicalnot" unicode="&#xac;" 
d="M59 384h452l-52 -266h-59l41 211h-393z" />
    <glyph glyph-name="uni00AD" unicode="&#xad;" horiz-adv-x="808" 
 />
    <glyph glyph-name="registered" unicode="&#xae;" horiz-adv-x="630" 
d="M314 220q47 0 86 16.5t67.5 46t44.5 69.5t16 88t-16 88t-44.5 69.5t-68 45.5t-85.5 16t-85 -16t-67 -45.5t-44 -69.5t-16 -88t16 -88t44 -69.5t67 -46t85 -16.5zM314 181q-57 0 -104 20t-81 55.5t-53 82.5t-19 101t19 101t53 82.5t81 55.5t104 20q58 0 105.5 -20
t81.5 -55.5t53 -82.5t19 -101t-19 -101t-53 -82.5t-82 -55.5t-105 -20zM218 584h107q44 0 72.5 -16t28.5 -60v-17q0 -32 -13.5 -52t-37.5 -27l63 -112h-60l-54 106h-53v-106h-53v284zM271 541v-92h35q38 0 51.5 8t13.5 33v15q0 20 -12.5 28t-43.5 8h-44z" />
    <glyph glyph-name="macron" unicode="&#xaf;" horiz-adv-x="582" 
d="M225 715h280l-11 -60h-280z" />
    <glyph glyph-name="degree" unicode="&#xb0;" horiz-adv-x="401" 
d="M221 481q22 0 42 8.5t35 24t23.5 37t8.5 47.5q0 33 -19 52.5t-53 19.5q-23 0 -43 -8.5t-35 -24t-23.5 -37t-8.5 -47.5q0 -33 19 -52.5t54 -19.5zM268 723q57 0 89 -34t32 -85q0 -35 -12.5 -67t-36 -56t-56.5 -38.5t-74 -14.5q-57 0 -89 34t-32 85q0 35 12.5 67t35.5 56
t56.5 38.5t74.5 14.5z" />
    <glyph glyph-name="plusminus" unicode="&#xb1;" horiz-adv-x="581" 
d="M371 598l-39 -199h202l-14 -71h-202l-38 -194h-73l38 194h-203l14 71h203l39 199h73zM-4 91h478l-14 -70h-478z" />
    <glyph glyph-name="twosuperior" unicode="&#xb2;" horiz-adv-x="386" 
d="M28 345l224 188q21 18 34 31t20.5 24.5t11 23t6.5 26.5l2 11q3 15 1 27t-11 20t-27 12.5t-47 4.5q-32 0 -68 -8t-65 -19l11 64q27 10 63.5 17t71.5 7q84 0 117 -36t21 -96l-3 -15q-3 -18 -7 -32t-14.5 -30t-30 -35t-53.5 -47l-165 -135h232l-11 -59h-324z" />
    <glyph glyph-name="threesuperior" unicode="&#xb3;" horiz-adv-x="395" 
d="M162 563h62q49 0 77 22.5t28 74.5q0 29 -20 41.5t-63 12.5q-32 0 -66 -7t-64 -17l13 63q27 10 63 15.5t68 5.5q76 0 107.5 -29.5t31.5 -74.5q0 -16 -3.5 -36.5t-14.5 -40.5t-31.5 -36.5t-53.5 -24.5q38 -8 55.5 -33.5t17.5 -57.5q0 -86 -53 -123.5t-150 -37.5
q-42 0 -79 7.5t-59 16.5l12 61q25 -11 61 -18t71 -7q66 0 97.5 25t31.5 85q0 34 -23.5 44t-65.5 10h-61z" />
    <glyph glyph-name="acute" unicode="&#xb4;" horiz-adv-x="582" 
d="M371 740h95l-135 -134h-76z" />
    <glyph glyph-name="mu" unicode="&#xb5;" horiz-adv-x="578" 
d="M110 549h74l-74 -380q-11 -54 14 -84t76 -30q48 0 91.5 18.5t84.5 45.5l84 430h73l-106 -549h-64l2 55q-32 -23 -74.5 -44t-98.5 -21q-17 0 -34 4t-32 11t-25.5 17.5t-14.5 23.5l-51 -262h-74z" />
    <glyph glyph-name="paragraph" unicode="&#xb6;" horiz-adv-x="552" 
d="M542 750l-169 -872h-66l157 807h-81l-157 -807h-67l90 463q-50 1 -85.5 16.5t-57 42t-28 63t1.5 79.5l8 41q17 87 80.5 127t164.5 40h209z" />
    <glyph glyph-name="periodcentered" unicode="&#xb7;" horiz-adv-x="255" 
d="M82 392h98l-19 -101h-98z" />
    <glyph glyph-name="cedilla" unicode="&#xb8;" horiz-adv-x="582" 
d="M186 -263q-20 0 -38.5 1.5t-39.5 5.5l11 56q14 -2 32 -3.5t36 -1.5q26 0 43 3.5t27 10t14 14.5t6 17l2 11q2 11 0 20t-11 15t-26.5 9t-46.5 3h-16l25 128h66l-17 -83q63 -5 85 -30.5t14 -65.5l-2 -11q-6 -31 -20 -50t-35.5 -30t-49 -15t-59.5 -4z" />
    <glyph glyph-name="onesuperior" unicode="&#xb9;" horiz-adv-x="353" 
d="M34 346h116l67 339l-131 -56l12 64l149 72h55l-82 -419h103l-11 -57h-289z" />
    <glyph glyph-name="ordmasculine" unicode="&#xba;" horiz-adv-x="475" 
d="M465 488q-20 -105 -81.5 -156.5t-161.5 -51.5q-48 0 -82.5 16t-55 46t-26 72.5t4.5 94.5l12 60q21 104 83 154.5t156 50.5q98 0 140.5 -60.5t22.5 -165.5zM408 558q16 80 -12.5 116.5t-90.5 36.5q-61 0 -103 -36.5t-58 -116.5l-12 -62q-15 -79 12 -116t89 -37
q63 0 105.5 37t57.5 116z" />
    <glyph glyph-name="guillemotright" unicode="&#xbb;" horiz-adv-x="575" 
d="M508 292l-9 -50l-211 -194h-85l233 225l1 5l-146 221h79zM292 292l-9 -50l-205 -194h-85l228 225l1 5l-141 221h79z" />
    <glyph glyph-name="onequarter" unicode="&#xbc;" horiz-adv-x="885" 
d="M427 21l11 58l295 320h77l-62 -319h66l-12 -59h-66l-19 -98h-66l19 98h-243zM682 80l46 238l-220 -238h174zM790 773h75l-708 -853h-75zM34 346h116l67 339l-131 -56l12 64l149 72h55l-82 -419h103l-11 -57h-289z" />
    <glyph glyph-name="onehalf" unicode="&#xbd;" horiz-adv-x="920" 
d="M790 773h75l-708 -853h-75zM34 346h116l67 339l-131 -56l12 64l149 72h55l-82 -419h103l-11 -57h-289zM511 -21l224 188q21 18 34 31t20.5 24.5t11 23t6.5 26.5l2 11q3 15 1 27t-11 20t-27 12.5t-47 4.5q-32 0 -68 -8t-65 -19l11 64q27 10 63.5 17t71.5 7q84 0 117 -36
t21 -96l-3 -15q-3 -18 -7 -32t-14.5 -30t-30 -35t-53.5 -47l-165 -135h232l-11 -59h-324z" />
    <glyph glyph-name="threequarters" unicode="&#xbe;" horiz-adv-x="885" 
d="M162 563h62q49 0 77 22.5t28 74.5q0 29 -20 41.5t-63 12.5q-32 0 -66 -7t-64 -17l13 63q27 10 63 15.5t68 5.5q76 0 107.5 -29.5t31.5 -74.5q0 -16 -3.5 -36.5t-14.5 -40.5t-31.5 -36.5t-53.5 -24.5q38 -8 55.5 -33.5t17.5 -57.5q0 -86 -53 -123.5t-150 -37.5
q-42 0 -79 7.5t-59 16.5l12 61q25 -11 61 -18t71 -7q66 0 97.5 25t31.5 85q0 34 -23.5 44t-65.5 10h-61zM427 21l11 58l295 320h77l-62 -319h66l-12 -59h-66l-19 -98h-66l19 98h-243zM682 80l46 238l-220 -238h174zM790 773h75l-708 -853h-75z" />
    <glyph glyph-name="questiondown" unicode="&#xbf;" horiz-adv-x="450" 
d="M316 325q-6 -31 -15.5 -52.5t-26 -40.5t-42 -37t-63.5 -41q-27 -17 -48 -32.5t-35.5 -35t-21.5 -45t-7 -60.5q0 -42 28.5 -63t106.5 -21q48 0 95.5 11.5t92.5 28.5l-14 -70q-37 -16 -86 -27.5t-105 -11.5q-53 0 -89.5 10.5t-59.5 30t-33.5 46.5t-10.5 60q0 57 14.5 95
t37 64t49.5 43.5t52 33.5q31 20 50.5 34t31.5 26.5t18 26.5t10 34l11 57h73zM358 484h-98l19 101h98z" />
    <glyph glyph-name="Agrave" unicode="&#xc0;" horiz-adv-x="649" 
d="M571 0h-78l-40 221h-317l-121 -221h-81l419 750h74zM442 290l-44 259q-6 32 -10 58t-9 63q-15 -33 -32 -64l-34 -62l-140 -254h269zM424 806h-69l-78 134h89z" />
    <glyph glyph-name="Aacute" unicode="&#xc1;" horiz-adv-x="649" 
d="M571 0h-78l-40 221h-317l-121 -221h-81l419 750h74zM442 290l-44 259q-6 32 -10 58t-9 63q-15 -33 -32 -64l-34 -62l-140 -254h269zM477 940h98l-135 -134h-79z" />
    <glyph glyph-name="Acircumflex" unicode="&#xc2;" horiz-adv-x="649" 
d="M571 0h-78l-40 221h-317l-121 -221h-81l419 750h74zM442 290l-44 259q-6 32 -10 58t-9 63q-15 -33 -32 -64l-34 -62l-140 -254h269zM398 954h67l68 -148h-58l-50 95l-89 -95h-64z" />
    <glyph glyph-name="Atilde" unicode="&#xc3;" horiz-adv-x="649" 
d="M571 0h-78l-40 221h-317l-121 -221h-81l419 750h74zM442 290l-44 259q-6 32 -10 58t-9 63q-15 -33 -32 -64l-34 -62l-140 -254h269zM463 813q-24 0 -38 10t-24 22.5t-19.5 22.5t-23.5 10q-17 0 -31 -17t-22 -47h-59q7 24 17 46t24 39.5t32 27.5t41 10q24 0 38.5 -10
t25 -22.5t19.5 -22.5t23 -10q21 0 32.5 17t20.5 48h58q-6 -22 -14.5 -44t-21.5 -40t-32 -29t-46 -11z" />
    <glyph glyph-name="Adieresis" unicode="&#xc4;" horiz-adv-x="649" 
d="M571 0h-78l-40 221h-317l-121 -221h-81l419 750h74zM442 290l-44 259q-6 32 -10 58t-9 63q-15 -33 -32 -64l-34 -62l-140 -254h269zM299 912h78l-17 -89h-78zM470 912h78l-17 -89h-78z" />
    <glyph glyph-name="Aring" unicode="&#xc5;" horiz-adv-x="649" 
d="M571 0h-78l-40 221h-317l-121 -221h-81l419 750h74zM442 290l-44 259q-6 32 -10 58t-9 63q-15 -33 -32 -64l-34 -62l-140 -254h269zM408 839q26 0 45.5 19t19.5 50q0 41 -42 41q-26 0 -45.5 -19t-19.5 -50q0 -41 42 -41zM438 993q38 0 60.5 -24t22.5 -57
q0 -24 -9.5 -45.5t-25.5 -37.5t-38 -25t-47 -9q-38 0 -60.5 24t-22.5 57q0 24 9.5 45.5t25.5 37.5t38 25t47 9z" />
    <glyph glyph-name="AE" unicode="&#xc6;" horiz-adv-x="997" 
d="M1015 750l-13 -70h-374l-50 -256h342l-14 -69h-342l-56 -285h387l-12 -70h-462l42 221h-260l-182 -221h-91l612 750h473zM260 292h217l70 361q-19 -29 -47 -63z" />
    <glyph glyph-name="Ccedilla" unicode="&#xc7;" horiz-adv-x="601" 
d="M203 -263q-20 0 -38.5 1.5t-39.5 5.5l11 56q14 -2 32 -3.5t36 -1.5q26 0 43 3.5t27 10t14 14.5t6 17l2 11q2 11 0 20t-11 15t-26.5 9t-46.5 3h-16l19 97q-64 8 -104 33t-60 66.5t-21 99t14 131.5l25 125q18 92 50.5 152t79 95t106 49t130.5 14q24 0 49 -1.5t49 -4.5
t45 -8t37 -11l-13 -66q-30 11 -78.5 16.5t-98.5 5.5q-67 0 -115 -15.5t-81 -46.5t-54 -78t-33 -110l-28 -140q-12 -61 -10 -106t23 -75t64 -45t112 -15q43 0 94 5.5t102 21.5l-13 -68q-20 -8 -45 -13t-51.5 -9t-53 -5.5t-50.5 -1.5h-7l-9 -47q63 -5 85 -30.5t14 -65.5
l-2 -11q-6 -31 -20 -50t-35.5 -30t-49 -15t-59.5 -4z" />
    <glyph glyph-name="Egrave" unicode="&#xc8;" 
d="M602 750l-13 -70h-374l-50 -256h342l-14 -69h-342l-56 -285h387l-12 -70h-462l145 750h449zM440 806h-69l-78 134h89z" />
    <glyph glyph-name="Eacute" unicode="&#xc9;" 
d="M602 750l-13 -70h-374l-50 -256h342l-14 -69h-342l-56 -285h387l-12 -70h-462l145 750h449zM452 940h98l-135 -134h-79z" />
    <glyph glyph-name="Ecircumflex" unicode="&#xca;" 
d="M602 750l-13 -70h-374l-50 -256h342l-14 -69h-342l-56 -285h387l-12 -70h-462l145 750h449zM388 954h67l68 -148h-58l-50 95l-89 -95h-64z" />
    <glyph glyph-name="Edieresis" unicode="&#xcb;" 
d="M602 750l-13 -70h-374l-50 -256h342l-14 -69h-342l-56 -285h387l-12 -70h-462l145 750h449zM291 912h78l-17 -89h-78zM462 912h78l-17 -89h-78z" />
    <glyph glyph-name="Igrave" unicode="&#xcc;" horiz-adv-x="236" 
d="M83 0h-75l145 750h75zM225 806h-69l-78 134h89z" />
    <glyph glyph-name="Iacute" unicode="&#xcd;" horiz-adv-x="236" 
d="M83 0h-75l145 750h75zM277 940h98l-135 -134h-79z" />
    <glyph glyph-name="Icircumflex" unicode="&#xce;" horiz-adv-x="236" 
d="M83 0h-75l145 750h75zM198 954h67l68 -148h-58l-50 95l-89 -95h-64z" />
    <glyph glyph-name="Idieresis" unicode="&#xcf;" horiz-adv-x="236" 
d="M83 0h-75l145 750h75zM99 912h78l-17 -89h-78zM270 912h78l-17 -89h-78z" />
    <glyph glyph-name="Eth" unicode="&#xd0;" horiz-adv-x="692" 
d="M16 420h81l64 330h239q83 0 139 -17t86.5 -56.5t35.5 -103t-13 -156.5l-23 -118q-17 -86 -42 -143.5t-66 -92t-103.5 -49t-153.5 -14.5h-244l67 350h-81zM223 680l-51 -260h224l-14 -70h-224l-55 -280h164q76 0 125.5 14.5t80.5 44t48.5 73t28.5 101.5l27 138
q12 62 10.5 107t-22.5 74.5t-63 43.5t-110 14h-169z" />
    <glyph glyph-name="Ntilde" unicode="&#xd1;" horiz-adv-x="702" 
d="M549 0h-78l-219 514q-13 30 -25 64t-21 71l-125 -649h-73l145 750h78l215 -511q8 -19 14.5 -35.5t12 -32.5t11 -33t11.5 -36l125 648h74zM493 813q-24 0 -38 10t-24 22.5t-19.5 22.5t-23.5 10q-17 0 -31 -17t-22 -47h-59q7 24 17 46t24 39.5t32 27.5t41 10q24 0 38.5 -10
t25 -22.5t19.5 -22.5t23 -10q21 0 32.5 17t20.5 48h58q-6 -22 -14.5 -44t-21.5 -40t-32 -29t-46 -11z" />
    <glyph glyph-name="Ograve" unicode="&#xd2;" horiz-adv-x="719" 
d="M656 309q-32 -163 -125.5 -242t-242.5 -79q-74 0 -127.5 23t-85 67.5t-40 108t7.5 144.5l21 108q31 162 125 242.5t243 80.5q74 0 127.5 -23.5t84.5 -68t39.5 -108.5t-6.5 -145zM601 422q28 139 -21 204t-159 65q-111 0 -183.5 -65t-100.5 -204l-18 -94
q-27 -140 20.5 -204.5t158.5 -64.5q110 0 184 64.5t101 204.5zM476 806h-69l-78 134h89z" />
    <glyph glyph-name="Oacute" unicode="&#xd3;" horiz-adv-x="719" 
d="M656 309q-32 -163 -125.5 -242t-242.5 -79q-74 0 -127.5 23t-85 67.5t-40 108t7.5 144.5l21 108q31 162 125 242.5t243 80.5q74 0 127.5 -23.5t84.5 -68t39.5 -108.5t-6.5 -145zM601 422q28 139 -21 204t-159 65q-111 0 -183.5 -65t-100.5 -204l-18 -94
q-27 -140 20.5 -204.5t158.5 -64.5q110 0 184 64.5t101 204.5zM510 940h98l-135 -134h-79z" />
    <glyph glyph-name="Ocircumflex" unicode="&#xd4;" horiz-adv-x="719" 
d="M656 309q-32 -163 -125.5 -242t-242.5 -79q-74 0 -127.5 23t-85 67.5t-40 108t7.5 144.5l21 108q31 162 125 242.5t243 80.5q74 0 127.5 -23.5t84.5 -68t39.5 -108.5t-6.5 -145zM601 422q28 139 -21 204t-159 65q-111 0 -183.5 -65t-100.5 -204l-18 -94
q-27 -140 20.5 -204.5t158.5 -64.5q110 0 184 64.5t101 204.5zM438 954h67l68 -148h-58l-50 95l-89 -95h-64z" />
    <glyph glyph-name="Otilde" unicode="&#xd5;" horiz-adv-x="719" 
d="M656 309q-32 -163 -125.5 -242t-242.5 -79q-74 0 -127.5 23t-85 67.5t-40 108t7.5 144.5l21 108q31 162 125 242.5t243 80.5q74 0 127.5 -23.5t84.5 -68t39.5 -108.5t-6.5 -145zM601 422q28 139 -21 204t-159 65q-111 0 -183.5 -65t-100.5 -204l-18 -94
q-27 -140 20.5 -204.5t158.5 -64.5q110 0 184 64.5t101 204.5zM503 813q-24 0 -38 10t-24 22.5t-19.5 22.5t-23.5 10q-17 0 -31 -17t-22 -47h-59q7 24 17 46t24 39.5t32 27.5t41 10q24 0 38.5 -10t25 -22.5t19.5 -22.5t23 -10q21 0 32.5 17t20.5 48h58q-6 -22 -14.5 -44
t-21.5 -40t-32 -29t-46 -11z" />
    <glyph glyph-name="Odieresis" unicode="&#xd6;" horiz-adv-x="719" 
d="M656 309q-32 -163 -125.5 -242t-242.5 -79q-74 0 -127.5 23t-85 67.5t-40 108t7.5 144.5l21 108q31 162 125 242.5t243 80.5q74 0 127.5 -23.5t84.5 -68t39.5 -108.5t-6.5 -145zM601 422q28 139 -21 204t-159 65q-111 0 -183.5 -65t-100.5 -204l-18 -94
q-27 -140 20.5 -204.5t158.5 -64.5q110 0 184 64.5t101 204.5zM339 912h78l-17 -89h-78zM510 912h78l-17 -89h-78z" />
    <glyph glyph-name="multiply" unicode="&#xd7;" horiz-adv-x="550" 
d="M516 519l-202 -175l133 -179l-56 -41l-129 174l-201 -174l-39 50l202 175l-132 179l56 41l129 -175l201 175z" />
    <glyph glyph-name="Oslash" unicode="&#xd8;" horiz-adv-x="723" 
d="M658 309q-32 -163 -125.5 -242t-242.5 -79q-110 0 -175 51l-71 -82h-78l108 126q-29 44 -37 106t8 142l21 108q31 162 125 242.5t243 80.5q113 0 177 -55l73 85h79l-112 -130q28 -45 35 -106.5t-7 -138.5zM121 328q-22 -116 8 -182l432 503q-50 42 -138 42
q-111 0 -183.5 -65t-100.5 -204zM603 422q22 110 -6 177l-432 -501q46 -39 135 -39q110 0 184 64.5t101 204.5z" />
    <glyph glyph-name="Ugrave" unicode="&#xd9;" horiz-adv-x="704" 
d="M218 750l-91 -468q-12 -61 -8.5 -103.5t23.5 -69t56.5 -38.5t89.5 -12q55 0 97 12t72.5 38.5t50.5 69t32 103.5l91 468h75l-94 -482q-27 -139 -103 -210t-219 -71q-146 0 -207 70.5t-32 219.5l92 473h75zM484 806h-69l-78 134h89z" />
    <glyph glyph-name="Uacute" unicode="&#xda;" horiz-adv-x="704" 
d="M218 750l-91 -468q-12 -61 -8.5 -103.5t23.5 -69t56.5 -38.5t89.5 -12q55 0 97 12t72.5 38.5t50.5 69t32 103.5l91 468h75l-94 -482q-27 -139 -103 -210t-219 -71q-146 0 -207 70.5t-32 219.5l92 473h75zM503 940h98l-135 -134h-79z" />
    <glyph glyph-name="Ucircumflex" unicode="&#xdb;" horiz-adv-x="704" 
d="M218 750l-91 -468q-12 -61 -8.5 -103.5t23.5 -69t56.5 -38.5t89.5 -12q55 0 97 12t72.5 38.5t50.5 69t32 103.5l91 468h75l-94 -482q-27 -139 -103 -210t-219 -71q-146 0 -207 70.5t-32 219.5l92 473h75zM430 954h67l68 -148h-58l-50 95l-89 -95h-64z" />
    <glyph glyph-name="Udieresis" unicode="&#xdc;" horiz-adv-x="704" 
d="M218 750l-91 -468q-12 -61 -8.5 -103.5t23.5 -69t56.5 -38.5t89.5 -12q55 0 97 12t72.5 38.5t50.5 69t32 103.5l91 468h75l-94 -482q-27 -139 -103 -210t-219 -71q-146 0 -207 70.5t-32 219.5l92 473h75zM331 912h78l-17 -89h-78zM502 912h78l-17 -89h-78z" />
    <glyph glyph-name="Yacute" unicode="&#xdd;" horiz-adv-x="574" 
d="M317 313l-60 -313h-75l60 311l-162 439h76l89 -253l22 -64t19 -66q21 35 44 67t45 63l181 253h85zM432 940h98l-135 -134h-79z" />
    <glyph glyph-name="Thorn" unicode="&#xde;" horiz-adv-x="586" 
d="M153 750h75l-29 -149h187q54 0 96.5 -8.5t69.5 -32t36.5 -64.5t-3.5 -105l-10 -51q-12 -60 -34.5 -96.5t-57.5 -56t-84.5 -25.5t-114.5 -6h-171l-30 -156h-75zM186 532l-60 -308h165q52 0 89 5t61.5 18.5t38.5 37t21 61.5l13 67q14 69 -18 94t-119 25h-191z" />
    <glyph glyph-name="germandbls" unicode="&#xdf;" horiz-adv-x="549" 
d="M158 65h80q74 0 110.5 36.5t49.5 104.5l5 26q6 28 4.5 52.5t-14 43.5t-38.5 30t-71 11h-44l13 64h34q62 0 97.5 35t49.5 101l6 30q4 22 2 42.5t-13 35.5t-33 24t-58 9q-25 0 -48.5 -6t-43 -19.5t-34 -36t-21.5 -56.5l-114 -592h-73l115 597q7 37 23.5 69.5t43.5 56.5
t65.5 37.5t89.5 13.5q54 0 90 -15t56 -39.5t25.5 -57t-0.5 -67.5l-5 -28q-4 -22 -13 -47t-24.5 -48t-38 -42t-53.5 -29q35 -7 57 -23.5t33 -39t13 -50.5t-4 -58l-8 -42q-8 -40 -24.5 -74.5t-45 -59.5t-69.5 -39.5t-98 -14.5h-85z" />
    <glyph glyph-name="agrave" unicode="&#xe0;" horiz-adv-x="516" 
d="M318 0l4 56q-17 -10 -40 -21.5t-49.5 -21.5t-56.5 -16.5t-61 -6.5q-76 0 -105.5 42.5t-12.5 124.5l4 20q9 44 28.5 73t51.5 46t77 24t105 7h108l8 40q6 31 7 55.5t-8.5 41.5t-32 26t-63.5 9q-35 0 -79 -8t-86 -23l12 65q45 15 89 22t85 7q61 0 94 -18t46.5 -47.5t12 -67
t-8.5 -77.5l-68 -352h-61zM360 269h-107q-47 0 -79.5 -5t-53.5 -17t-32.5 -33t-17.5 -53l-2 -11q-10 -54 6 -76t59 -22q22 0 47.5 4.5t52 13t51.5 19t45 22.5zM359 606h-69l-78 134h89z" />
    <glyph glyph-name="aacute" unicode="&#xe1;" horiz-adv-x="516" 
d="M318 0l4 56q-17 -10 -40 -21.5t-49.5 -21.5t-56.5 -16.5t-61 -6.5q-76 0 -105.5 42.5t-12.5 124.5l4 20q9 44 28.5 73t51.5 46t77 24t105 7h108l8 40q6 31 7 55.5t-8.5 41.5t-32 26t-63.5 9q-35 0 -79 -8t-86 -23l12 65q45 15 89 22t85 7q61 0 94 -18t46.5 -47.5t12 -67
t-8.5 -77.5l-68 -352h-61zM360 269h-107q-47 0 -79.5 -5t-53.5 -17t-32.5 -33t-17.5 -53l-2 -11q-10 -54 6 -76t59 -22q22 0 47.5 4.5t52 13t51.5 19t45 22.5zM376 740h98l-135 -134h-79z" />
    <glyph glyph-name="acircumflex" unicode="&#xe2;" horiz-adv-x="516" 
d="M318 0l4 56q-17 -10 -40 -21.5t-49.5 -21.5t-56.5 -16.5t-61 -6.5q-76 0 -105.5 42.5t-12.5 124.5l4 20q9 44 28.5 73t51.5 46t77 24t105 7h108l8 40q6 31 7 55.5t-8.5 41.5t-32 26t-63.5 9q-35 0 -79 -8t-86 -23l12 65q45 15 89 22t85 7q61 0 94 -18t46.5 -47.5t12 -67
t-8.5 -77.5l-68 -352h-61zM360 269h-107q-47 0 -79.5 -5t-53.5 -17t-32.5 -33t-17.5 -53l-2 -11q-10 -54 6 -76t59 -22q22 0 47.5 4.5t52 13t51.5 19t45 22.5zM303 754h67l68 -148h-58l-50 95l-89 -95h-64z" />
    <glyph glyph-name="atilde" unicode="&#xe3;" horiz-adv-x="516" 
d="M318 0l4 56q-17 -10 -40 -21.5t-49.5 -21.5t-56.5 -16.5t-61 -6.5q-76 0 -105.5 42.5t-12.5 124.5l4 20q9 44 28.5 73t51.5 46t77 24t105 7h108l8 40q6 31 7 55.5t-8.5 41.5t-32 26t-63.5 9q-35 0 -79 -8t-86 -23l12 65q45 15 89 22t85 7q61 0 94 -18t46.5 -47.5t12 -67
t-8.5 -77.5l-68 -352h-61zM360 269h-107q-47 0 -79.5 -5t-53.5 -17t-32.5 -33t-17.5 -53l-2 -11q-10 -54 6 -76t59 -22q22 0 47.5 4.5t52 13t51.5 19t45 22.5zM365 613q-24 0 -38 10t-24 22.5t-19.5 22.5t-23.5 10q-17 0 -31 -17t-22 -47h-59q7 24 17 46t24 39.5t32 27.5
t41 10q24 0 38.5 -10t25 -22.5t19.5 -22.5t23 -10q21 0 32.5 17t20.5 48h58q-6 -22 -14.5 -44t-21.5 -40t-32 -29t-46 -11z" />
    <glyph glyph-name="adieresis" unicode="&#xe4;" horiz-adv-x="516" 
d="M318 0l4 56q-17 -10 -40 -21.5t-49.5 -21.5t-56.5 -16.5t-61 -6.5q-76 0 -105.5 42.5t-12.5 124.5l4 20q9 44 28.5 73t51.5 46t77 24t105 7h108l8 40q6 31 7 55.5t-8.5 41.5t-32 26t-63.5 9q-35 0 -79 -8t-86 -23l12 65q45 15 89 22t85 7q61 0 94 -18t46.5 -47.5t12 -67
t-8.5 -77.5l-68 -352h-61zM360 269h-107q-47 0 -79.5 -5t-53.5 -17t-32.5 -33t-17.5 -53l-2 -11q-10 -54 6 -76t59 -22q22 0 47.5 4.5t52 13t51.5 19t45 22.5zM203 712h78l-17 -89h-78zM374 712h78l-17 -89h-78z" />
    <glyph glyph-name="aring" unicode="&#xe5;" horiz-adv-x="516" 
d="M318 0l4 56q-17 -10 -40 -21.5t-49.5 -21.5t-56.5 -16.5t-61 -6.5q-76 0 -105.5 42.5t-12.5 124.5l4 20q9 44 28.5 73t51.5 46t77 24t105 7h108l8 40q6 31 7 55.5t-8.5 41.5t-32 26t-63.5 9q-35 0 -79 -8t-86 -23l12 65q45 15 89 22t85 7q61 0 94 -18t46.5 -47.5t12 -67
t-8.5 -77.5l-68 -352h-61zM360 269h-107q-47 0 -79.5 -5t-53.5 -17t-32.5 -33t-17.5 -53l-2 -11q-10 -54 6 -76t59 -22q22 0 47.5 4.5t52 13t51.5 19t45 22.5zM310 639q26 0 45.5 19t19.5 50q0 41 -42 41q-26 0 -45.5 -19t-19.5 -50q0 -41 42 -41zM340 793q38 0 60.5 -24
t22.5 -57q0 -24 -9.5 -45.5t-25.5 -37.5t-38 -25t-47 -9q-38 0 -60.5 24t-22.5 57q0 24 9.5 45.5t25.5 37.5t38 25t47 9z" />
    <glyph glyph-name="ae" unicode="&#xe6;" horiz-adv-x="858" 
d="M423 263l-4 -19q-11 -51 -9 -87t20 -59t54 -34t94 -11q14 0 32.5 2t37 5t36.5 7.5t30 9.5l-12 -63q-35 -14 -77.5 -19t-76.5 -5q-69 0 -115.5 20t-65.5 63q-22 -15 -51.5 -30t-63.5 -27t-69.5 -19t-69.5 -7q-78 0 -104.5 43t-12.5 126l3 18q7 43 26 70.5t51.5 44t78 23
t105.5 6.5h105l9 46q6 31 7.5 55.5t-7.5 41.5t-31 26t-63 9q-35 0 -79 -8t-86 -23l12 65q45 15 89 22t85 7q69 0 101 -22.5t43 -57.5q32 38 82.5 59t106.5 21q47 0 85 -13.5t61.5 -45t30.5 -82.5t-8 -127l-6 -31h-374zM354 263h-104q-47 0 -79.5 -4t-53.5 -15t-32 -31
t-17 -52l-2 -11q-10 -54 6 -76t59 -22q49 0 100.5 17.5t92.5 41.5zM739 326q9 42 8 74.5t-13.5 54.5t-39 33.5t-69.5 11.5q-78 0 -125.5 -44.5t-64.5 -129.5l-1 -5h304z" />
    <glyph glyph-name="ccedilla" unicode="&#xe7;" horiz-adv-x="475" 
d="M137 -263q-20 0 -38.5 1.5t-39.5 5.5l11 56q14 -2 32 -3.5t36 -1.5q26 0 43 3.5t27 10t14 14.5t6 17l2 11q2 11 0 20t-11 15t-26.5 9t-46.5 3h-16l19 98q-84 15 -115 76t-9 174l15 75q14 69 40 115.5t63 74.5t83 39.5t99 11.5q36 0 72.5 -5t63.5 -16l-11 -60
q-32 11 -64.5 14t-67.5 3q-48 0 -83 -13t-59 -36.5t-39 -56t-23 -72.5l-18 -86q-8 -41 -6.5 -74.5t16.5 -57t46 -36.5t82 -13q32 0 68.5 5t78.5 19l-12 -63q-36 -15 -78 -19.5t-77 -4.5h-1l-9 -47q63 -5 85 -30.5t14 -65.5l-2 -11q-6 -31 -20 -50t-35.5 -30t-49 -15
t-59.5 -4z" />
    <glyph glyph-name="egrave" unicode="&#xe8;" horiz-adv-x="535" 
d="M98 255l-4 -19q-11 -51 -8 -85.5t21.5 -56.5t54.5 -31.5t92 -9.5q14 0 32.5 2t37 5t36.5 7.5t30 9.5l-12 -63q-35 -14 -77.5 -19t-76.5 -5q-130 0 -177 65.5t-22 192.5l11 60q13 69 39.5 117t62.5 78.5t80 44.5t92 14q49 0 87 -14t61.5 -46t29.5 -84t-9 -128l-7 -35h-374
zM414 318q9 42 7.5 76t-14.5 57.5t-39 36t-67 12.5q-78 0 -126 -48.5t-65 -133.5l-1 -5h304zM366 606h-69l-78 134h89z" />
    <glyph glyph-name="eacute" unicode="&#xe9;" horiz-adv-x="535" 
d="M98 255l-4 -19q-11 -51 -8 -85.5t21.5 -56.5t54.5 -31.5t92 -9.5q14 0 32.5 2t37 5t36.5 7.5t30 9.5l-12 -63q-35 -14 -77.5 -19t-76.5 -5q-130 0 -177 65.5t-22 192.5l11 60q13 69 39.5 117t62.5 78.5t80 44.5t92 14q49 0 87 -14t61.5 -46t29.5 -84t-9 -128l-7 -35h-374
zM414 318q9 42 7.5 76t-14.5 57.5t-39 36t-67 12.5q-78 0 -126 -48.5t-65 -133.5l-1 -5h304zM395 740h98l-135 -134h-79z" />
    <glyph glyph-name="ecircumflex" unicode="&#xea;" horiz-adv-x="535" 
d="M98 255l-4 -19q-11 -51 -8 -85.5t21.5 -56.5t54.5 -31.5t92 -9.5q14 0 32.5 2t37 5t36.5 7.5t30 9.5l-12 -63q-35 -14 -77.5 -19t-76.5 -5q-130 0 -177 65.5t-22 192.5l11 60q13 69 39.5 117t62.5 78.5t80 44.5t92 14q49 0 87 -14t61.5 -46t29.5 -84t-9 -128l-7 -35h-374
zM414 318q9 42 7.5 76t-14.5 57.5t-39 36t-67 12.5q-78 0 -126 -48.5t-65 -133.5l-1 -5h304zM311 754h67l68 -148h-58l-50 95l-89 -95h-64z" />
    <glyph glyph-name="edieresis" unicode="&#xeb;" horiz-adv-x="535" 
d="M98 255l-4 -19q-11 -51 -8 -85.5t21.5 -56.5t54.5 -31.5t92 -9.5q14 0 32.5 2t37 5t36.5 7.5t30 9.5l-12 -63q-35 -14 -77.5 -19t-76.5 -5q-130 0 -177 65.5t-22 192.5l11 60q13 69 39.5 117t62.5 78.5t80 44.5t92 14q49 0 87 -14t61.5 -46t29.5 -84t-9 -128l-7 -35h-374
zM414 318q9 42 7.5 76t-14.5 57.5t-39 36t-67 12.5q-78 0 -126 -48.5t-65 -133.5l-1 -5h304zM215 712h78l-17 -89h-78zM386 712h78l-17 -89h-78z" />
    <glyph glyph-name="igrave" unicode="&#xec;" horiz-adv-x="227" 
d="M181 606h-69l-78 134h89zM4 0l106 548h72l-106 -548h-72z" />
    <glyph glyph-name="iacute" unicode="&#xed;" horiz-adv-x="227" 
d="M234 740h98l-135 -134h-79zM4 0l106 548h72l-106 -548h-72z" />
    <glyph glyph-name="icircumflex" unicode="&#xee;" horiz-adv-x="227" 
d="M152 754h67l68 -148h-58l-50 95l-89 -95h-64zM4 0l106 548h72l-106 -548h-72z" />
    <glyph glyph-name="idieresis" unicode="&#xef;" horiz-adv-x="227" 
d="M50 712h78l-17 -89h-78zM221 712h78l-17 -89h-78zM4 0l106 548h72l-106 -548h-72z" />
    <glyph glyph-name="eth" unicode="&#xf0;" horiz-adv-x="566" 
d="M178 623l116 47q-17 12 -37 24t-43 25l35 55q32 -18 61 -36.5t55 -39.5l116 47l11 -48l-87 -35q33 -34 57 -73.5t36.5 -87t12.5 -104.5t-14 -125l-8 -39q-25 -119 -93.5 -181t-183.5 -62q-113 0 -162.5 68.5t-26.5 189.5l8 45q22 121 94 183.5t185 62.5q36 0 65 -8.5
t46 -22.5q-12 35 -30.5 65.5t-52.5 61.5l-151 -60zM427 288q18 96 -14.5 142t-110.5 46t-129 -46t-69 -142l-9 -47q-19 -94 14 -141t111 -47q80 0 129.5 45.5t68.5 142.5z" />
    <glyph glyph-name="ntilde" unicode="&#xf1;" horiz-adv-x="570" 
d="M355 0l73 381q11 60 -3.5 86.5t-68.5 26.5q-41 0 -93.5 -16t-103.5 -47l-83 -431h-72l106 548h64l-3 -52q44 26 99 46t106 20q42 0 70 -13t42.5 -36.5t17.5 -55.5t-4 -71l-74 -386h-73zM390 613q-24 0 -38 10t-24 22.5t-19.5 22.5t-23.5 10q-17 0 -31 -17t-22 -47h-59
q7 24 17 46t24 39.5t32 27.5t41 10q24 0 38.5 -10t25 -22.5t19.5 -22.5t23 -10q21 0 32.5 17t20.5 48h58q-6 -22 -14.5 -44t-21.5 -40t-32 -29t-46 -11z" />
    <glyph glyph-name="ograve" unicode="&#xf2;" horiz-adv-x="568" 
d="M490 233q-47 -243 -277 -243q-113 0 -162.5 68.5t-26.5 189.5l13 68q24 121 95 183.5t184 62.5q115 0 163 -70t24 -191zM433 311q19 96 -14 142t-111 46t-128.5 -46t-69.5 -142l-14 -70q-19 -94 14 -141t111 -47q160 0 198 188zM358 606h-69l-78 134h89z" />
    <glyph glyph-name="oacute" unicode="&#xf3;" horiz-adv-x="568" 
d="M490 233q-47 -243 -277 -243q-113 0 -162.5 68.5t-26.5 189.5l13 68q24 121 95 183.5t184 62.5q115 0 163 -70t24 -191zM433 311q19 96 -14 142t-111 46t-128.5 -46t-69.5 -142l-14 -70q-19 -94 14 -141t111 -47q160 0 198 188zM398 740h98l-135 -134h-79z" />
    <glyph glyph-name="ocircumflex" unicode="&#xf4;" horiz-adv-x="568" 
d="M490 233q-47 -243 -277 -243q-113 0 -162.5 68.5t-26.5 189.5l13 68q24 121 95 183.5t184 62.5q115 0 163 -70t24 -191zM433 311q19 96 -14 142t-111 46t-128.5 -46t-69.5 -142l-14 -70q-19 -94 14 -141t111 -47q160 0 198 188zM324 754h67l68 -148h-58l-50 95l-89 -95
h-64z" />
    <glyph glyph-name="otilde" unicode="&#xf5;" horiz-adv-x="568" 
d="M490 233q-47 -243 -277 -243q-113 0 -162.5 68.5t-26.5 189.5l13 68q24 121 95 183.5t184 62.5q115 0 163 -70t24 -191zM433 311q19 96 -14 142t-111 46t-128.5 -46t-69.5 -142l-14 -70q-19 -94 14 -141t111 -47q160 0 198 188zM389 613q-24 0 -38 10t-24 22.5
t-19.5 22.5t-23.5 10q-17 0 -31 -17t-22 -47h-59q7 24 17 46t24 39.5t32 27.5t41 10q24 0 38.5 -10t25 -22.5t19.5 -22.5t23 -10q21 0 32.5 17t20.5 48h58q-6 -22 -14.5 -44t-21.5 -40t-32 -29t-46 -11z" />
    <glyph glyph-name="odieresis" unicode="&#xf6;" horiz-adv-x="568" 
d="M490 233q-47 -243 -277 -243q-113 0 -162.5 68.5t-26.5 189.5l13 68q24 121 95 183.5t184 62.5q115 0 163 -70t24 -191zM433 311q19 96 -14 142t-111 46t-128.5 -46t-69.5 -142l-14 -70q-19 -94 14 -141t111 -47q160 0 198 188zM225 712h78l-17 -89h-78zM396 712h78
l-17 -89h-78z" />
    <glyph glyph-name="divide" unicode="&#xf7;" horiz-adv-x="583" 
d="M59 384h478l-15 -70h-478zM286 592h98l-19 -101h-98zM211 206h98l-19 -101h-98z" />
    <glyph glyph-name="oslash" unicode="&#xf8;" horiz-adv-x="575" 
d="M495 233q-47 -243 -277 -243q-74 0 -122 31l-54 -64h-72l85 101q-24 34 -31 81.5t5 108.5l13 68q24 121 95 183.5t184 62.5q80 0 129 -37l50 59h72l-84 -99q43 -69 20 -184zM101 241q-16 -76 4 -124l300 355q-33 27 -92 27q-78 0 -128.5 -46t-69.5 -142zM438 311
q14 71 -1 114l-296 -351q31 -21 85 -21q160 0 198 188z" />
    <glyph glyph-name="ugrave" unicode="&#xf9;" horiz-adv-x="570" 
d="M177 548l-74 -382q-11 -54 3.5 -81t66.5 -27q42 0 94.5 17t100.5 47l84 426h73l-106 -548h-64l2 56q-47 -29 -99.5 -47.5t-103.5 -18.5q-84 0 -112.5 47t-12.5 127l75 384h73zM371 606h-69l-78 134h89z" />
    <glyph glyph-name="uacute" unicode="&#xfa;" horiz-adv-x="570" 
d="M177 548l-74 -382q-11 -54 3.5 -81t66.5 -27q42 0 94.5 17t100.5 47l84 426h73l-106 -548h-64l2 56q-47 -29 -99.5 -47.5t-103.5 -18.5q-84 0 -112.5 47t-12.5 127l75 384h73zM398 740h98l-135 -134h-79z" />
    <glyph glyph-name="ucircumflex" unicode="&#xfb;" horiz-adv-x="570" 
d="M177 548l-74 -382q-11 -54 3.5 -81t66.5 -27q42 0 94.5 17t100.5 47l84 426h73l-106 -548h-64l2 56q-47 -29 -99.5 -47.5t-103.5 -18.5q-84 0 -112.5 47t-12.5 127l75 384h73zM318 754h67l68 -148h-58l-50 95l-89 -95h-64z" />
    <glyph glyph-name="udieresis" unicode="&#xfc;" horiz-adv-x="570" 
d="M177 548l-74 -382q-11 -54 3.5 -81t66.5 -27q42 0 94.5 17t100.5 47l84 426h73l-106 -548h-64l2 56q-47 -29 -99.5 -47.5t-103.5 -18.5q-84 0 -112.5 47t-12.5 127l75 384h73zM222 712h78l-17 -89h-78zM393 712h78l-17 -89h-78z" />
    <glyph glyph-name="yacute" unicode="&#xfd;" horiz-adv-x="517" 
d="M103 -213h-73l123 213l-105 548h74l60 -345q6 -33 9 -64t7 -74q21 45 38 77.5t34 63.5l191 342h76zM371 740h98l-135 -134h-79z" />
    <glyph glyph-name="thorn" unicode="&#xfe;" 
d="M89 79q27 -11 64 -17t69 -6q46 0 80.5 8.5t59.5 28t41 52t25 80.5l23 121q16 82 -8 115t-87 33q-24 0 -50.5 -5.5t-52.5 -14.5t-50 -20t-45 -23zM149 750l76 24l-54 -276q18 10 42 21.5t52 21t58.5 15.5t60.5 6q48 0 79.5 -17t48 -46t19.5 -66.5t-5 -77.5l-30 -155
q-12 -63 -37 -103.5t-60 -64t-80 -33t-96 -9.5q-15 0 -35 2t-40.5 5t-39 8t-31.5 11l-45 -232h-71z" />
    <glyph glyph-name="ydieresis" unicode="&#xff;" horiz-adv-x="517" 
d="M103 -213h-73l123 213l-105 548h74l60 -345q6 -33 9 -64t7 -74q21 45 38 77.5t34 63.5l191 342h76zM192 712h78l-17 -89h-78zM363 712h78l-17 -89h-78z" />
    <glyph glyph-name="Amacron" unicode="&#x100;" horiz-adv-x="649" 
d="M571 0h-78l-40 221h-317l-121 -221h-81l419 750h74zM442 290l-44 259q-6 32 -10 58t-9 63q-15 -33 -32 -64l-34 -62l-140 -254h269zM276 915h279l-11 -60h-279z" />
    <glyph glyph-name="amacron" unicode="&#x101;" horiz-adv-x="516" 
d="M318 0l4 56q-17 -10 -40 -21.5t-49.5 -21.5t-56.5 -16.5t-61 -6.5q-76 0 -105.5 42.5t-12.5 124.5l4 20q9 44 28.5 73t51.5 46t77 24t105 7h108l8 40q6 31 7 55.5t-8.5 41.5t-32 26t-63.5 9q-35 0 -79 -8t-86 -23l12 65q45 15 89 22t85 7q61 0 94 -18t46.5 -47.5t12 -67
t-8.5 -77.5l-68 -352h-61zM360 269h-107q-47 0 -79.5 -5t-53.5 -17t-32.5 -33t-17.5 -53l-2 -11q-10 -54 6 -76t59 -22q22 0 47.5 4.5t52 13t51.5 19t45 22.5zM183 715h279l-11 -60h-279z" />
    <glyph glyph-name="Abreve" unicode="&#x102;" horiz-adv-x="649" 
d="M571 0h-78l-40 221h-317l-121 -221h-81l419 750h74zM442 290l-44 259q-6 32 -10 58t-9 63q-15 -33 -32 -64l-34 -62l-140 -254h269zM399 806q-30 0 -52 10.5t-36 29.5t-19 44t-2 54h53q-2 -40 11.5 -61t47.5 -21q38 0 60.5 22.5t33.5 59.5h56q-14 -61 -51.5 -99.5
t-101.5 -38.5z" />
    <glyph glyph-name="abreve" unicode="&#x103;" horiz-adv-x="516" 
d="M318 0l4 56q-17 -10 -40 -21.5t-49.5 -21.5t-56.5 -16.5t-61 -6.5q-76 0 -105.5 42.5t-12.5 124.5l4 20q9 44 28.5 73t51.5 46t77 24t105 7h108l8 40q6 31 7 55.5t-8.5 41.5t-32 26t-63.5 9q-35 0 -79 -8t-86 -23l12 65q45 15 89 22t85 7q61 0 94 -18t46.5 -47.5t12 -67
t-8.5 -77.5l-68 -352h-61zM360 269h-107q-47 0 -79.5 -5t-53.5 -17t-32.5 -33t-17.5 -53l-2 -11q-10 -54 6 -76t59 -22q22 0 47.5 4.5t52 13t51.5 19t45 22.5zM311 606q-30 0 -52 10.5t-36 29.5t-19 44t-2 54h53q-2 -40 11.5 -61t47.5 -21q38 0 60.5 22.5t33.5 59.5h56
q-14 -61 -51.5 -99.5t-101.5 -38.5z" />
    <glyph glyph-name="Aogonek" unicode="&#x104;" horiz-adv-x="649" 
d="M483 -223q-61 0 -89 30t-20 72l2 11q3 19 15 36t28.5 31t36 24.5t37.5 16.5l-40 223h-317l-121 -221h-81l419 750h74l144 -750q-48 -22 -80.5 -51t-37.5 -59l-1 -6q-4 -24 8.5 -35t50.5 -11q14 0 32.5 2t29.5 5l-12 -58q-14 -4 -34 -7t-44 -3zM442 290l-44 259
q-6 32 -10 58t-9 63q-15 -33 -32 -64l-34 -62l-140 -254h269z" />
    <glyph glyph-name="aogonek" unicode="&#x105;" horiz-adv-x="516" 
d="M379 0q-48 -22 -80.5 -51t-37.5 -59l-1 -6q-4 -24 8.5 -35t50.5 -11q14 0 32.5 2t29.5 5l-12 -58q-14 -4 -34 -7t-44 -3q-61 0 -89 30t-20 72l2 11q4 19 16.5 37t31 33t41 25.5t45.5 16.5l4 54q-17 -10 -40 -21.5t-49.5 -21.5t-56.5 -16.5t-61 -6.5q-76 0 -105.5 42.5
t-12.5 124.5l4 20q9 44 28.5 73t51.5 46t77 24t105 7h108l8 40q6 31 7 55.5t-8.5 41.5t-32 26t-63.5 9q-35 0 -79 -8t-86 -23l12 65q45 15 89 22t85 7q61 0 94 -18t46.5 -47.5t12 -67t-8.5 -77.5zM360 269h-107q-47 0 -79.5 -5t-53.5 -17t-32.5 -33t-17.5 -53l-2 -11
q-10 -54 6 -76t59 -22q22 0 47.5 4.5t52 13t51.5 19t45 22.5z" />
    <glyph glyph-name="Cacute" unicode="&#x106;" horiz-adv-x="601" 
d="M602 669q-30 11 -78.5 16.5t-98.5 5.5q-67 0 -115 -15.5t-81 -46.5t-54 -78t-33 -110l-28 -140q-12 -61 -10 -106t23 -75t64 -45t112 -15q43 0 94 5.5t102 21.5l-13 -68q-20 -8 -45 -13t-51.5 -9t-53 -5.5t-50.5 -1.5q-86 0 -141 21.5t-83 63.5t-31.5 104.5t13.5 145.5
l25 125q18 92 50.5 152t79 95t106 49t130.5 14q24 0 49 -1.5t49 -4.5t45 -8t37 -11zM488 940h98l-135 -134h-79z" />
    <glyph glyph-name="cacute" unicode="&#x107;" horiz-adv-x="475" 
d="M450 481q-32 11 -64.5 14t-67.5 3q-48 0 -83 -13t-59 -36.5t-39 -56t-23 -72.5l-18 -86q-8 -41 -6.5 -74.5t16.5 -57t46 -36.5t82 -13q32 0 68.5 5t78.5 19l-12 -63q-36 -15 -78 -19.5t-77 -4.5q-120 0 -167.5 61.5t-21.5 194.5l15 75q14 69 40 115.5t63 74.5t83 39.5
t99 11.5q36 0 72.5 -5t63.5 -16zM373 740h98l-135 -134h-79z" />
    <glyph glyph-name="Ccircumflex" unicode="&#x108;" horiz-adv-x="601" 
d="M602 669q-30 11 -78.5 16.5t-98.5 5.5q-67 0 -115 -15.5t-81 -46.5t-54 -78t-33 -110l-28 -140q-12 -61 -10 -106t23 -75t64 -45t112 -15q43 0 94 5.5t102 21.5l-13 -68q-20 -8 -45 -13t-51.5 -9t-53 -5.5t-50.5 -1.5q-86 0 -141 21.5t-83 63.5t-31.5 104.5t13.5 145.5
l25 125q18 92 50.5 152t79 95t106 49t130.5 14q24 0 49 -1.5t49 -4.5t45 -8t37 -11zM419 954h67l68 -148h-58l-50 95l-89 -95h-64z" />
    <glyph glyph-name="ccircumflex" unicode="&#x109;" horiz-adv-x="475" 
d="M450 481q-32 11 -64.5 14t-67.5 3q-48 0 -83 -13t-59 -36.5t-39 -56t-23 -72.5l-18 -86q-8 -41 -6.5 -74.5t16.5 -57t46 -36.5t82 -13q32 0 68.5 5t78.5 19l-12 -63q-36 -15 -78 -19.5t-77 -4.5q-120 0 -167.5 61.5t-21.5 194.5l15 75q14 69 40 115.5t63 74.5t83 39.5
t99 11.5q36 0 72.5 -5t63.5 -16zM310 754h67l68 -148h-58l-50 95l-89 -95h-64z" />
    <glyph glyph-name="Cdotaccent" unicode="&#x10a;" horiz-adv-x="601" 
d="M602 669q-30 11 -78.5 16.5t-98.5 5.5q-67 0 -115 -15.5t-81 -46.5t-54 -78t-33 -110l-28 -140q-12 -61 -10 -106t23 -75t64 -45t112 -15q43 0 94 5.5t102 21.5l-13 -68q-20 -8 -45 -13t-51.5 -9t-53 -5.5t-50.5 -1.5q-86 0 -141 21.5t-83 63.5t-31.5 104.5t13.5 145.5
l25 125q18 92 50.5 152t79 95t106 49t130.5 14q24 0 49 -1.5t49 -4.5t45 -8t37 -11zM405 913h79l-17 -89h-79z" />
    <glyph glyph-name="cdotaccent" unicode="&#x10b;" horiz-adv-x="475" 
d="M450 481q-32 11 -64.5 14t-67.5 3q-48 0 -83 -13t-59 -36.5t-39 -56t-23 -72.5l-18 -86q-8 -41 -6.5 -74.5t16.5 -57t46 -36.5t82 -13q32 0 68.5 5t78.5 19l-12 -63q-36 -15 -78 -19.5t-77 -4.5q-120 0 -167.5 61.5t-21.5 194.5l15 75q14 69 40 115.5t63 74.5t83 39.5
t99 11.5q36 0 72.5 -5t63.5 -16zM299 713h79l-17 -89h-79z" />
    <glyph glyph-name="Ccaron" unicode="&#x10c;" horiz-adv-x="601" 
d="M602 669q-30 11 -78.5 16.5t-98.5 5.5q-67 0 -115 -15.5t-81 -46.5t-54 -78t-33 -110l-28 -140q-12 -61 -10 -106t23 -75t64 -45t112 -15q43 0 94 5.5t102 21.5l-13 -68q-20 -8 -45 -13t-51.5 -9t-53 -5.5t-50.5 -1.5q-86 0 -141 21.5t-83 63.5t-31.5 104.5t13.5 145.5
l25 125q18 92 50.5 152t79 95t106 49t130.5 14q24 0 49 -1.5t49 -4.5t45 -8t37 -11zM321 944h58l49 -95l89 95h65l-127 -148h-67z" />
    <glyph glyph-name="ccaron" unicode="&#x10d;" horiz-adv-x="475" 
d="M450 481q-32 11 -64.5 14t-67.5 3q-48 0 -83 -13t-59 -36.5t-39 -56t-23 -72.5l-18 -86q-8 -41 -6.5 -74.5t16.5 -57t46 -36.5t82 -13q32 0 68.5 5t78.5 19l-12 -63q-36 -15 -78 -19.5t-77 -4.5q-120 0 -167.5 61.5t-21.5 194.5l15 75q14 69 40 115.5t63 74.5t83 39.5
t99 11.5q36 0 72.5 -5t63.5 -16zM212 744h58l49 -95l89 95h65l-127 -148h-67z" />
    <glyph glyph-name="Dcaron" unicode="&#x10e;" horiz-adv-x="684" 
d="M8 0l145 750h239q83 0 139 -17t86.5 -56.5t35.5 -103t-13 -156.5l-23 -118q-17 -86 -42 -143.5t-66 -92t-103.5 -49t-153.5 -14.5h-244zM215 680l-120 -610h164q76 0 125.5 14.5t80.5 44t48.5 73t28.5 101.5l27 138q12 62 10.5 107t-22.5 74.5t-63 43.5t-110 14h-169z
M333 944h58l49 -95l89 95h65l-127 -148h-67z" />
    <glyph glyph-name="dcaron" unicode="&#x10f;" horiz-adv-x="638" 
d="M738 761l-59 -167h-52l43 167h68zM165 -10q-46 0 -77.5 15t-49 41t-22 62t3.5 78l34 170q11 58 35 97.5t57 63.5t73.5 34.5t85.5 10.5q53 0 95 -12t68 -27l44 227l77 24l-150 -774h-63l4 54q-38 -24 -93.5 -44t-121.5 -20zM456 459q-26 14 -64.5 25t-89.5 11
q-32 0 -60.5 -7t-51.5 -25t-40.5 -48.5t-26.5 -77.5l-29 -145q-14 -75 11.5 -105t85.5 -30q48 0 100.5 17t96.5 44z" />
    <glyph glyph-name="Dcroat" unicode="&#x110;" horiz-adv-x="682" 
d="M16 420h71l64 330h239q83 0 139 -17t86.5 -56.5t35.5 -103t-13 -156.5l-23 -118q-17 -86 -42 -143.5t-66 -92t-103.5 -49t-153.5 -14.5h-244l67 350h-71zM213 680l-51 -260h234l-14 -70h-234l-55 -280h164q76 0 125.5 14.5t80.5 44t48.5 73t28.5 101.5l27 138
q12 62 10.5 107t-22.5 74.5t-63 43.5t-110 14h-169z" />
    <glyph glyph-name="dcroat" unicode="&#x111;" horiz-adv-x="589" 
d="M334 674h163l15 76l77 24l-19 -100h69l-11 -56h-69l-120 -618h-63l4 54q-38 -24 -93.5 -44t-121.5 -20q-46 0 -77.5 15t-49 41t-22 62t3.5 78l30 147q12 58 36 97.5t56.5 63.5t73 34.5t85.5 10.5q53 0 95 -12t68 -27l22 118h-163zM452 436q-26 14 -64.5 25t-89.5 11
q-32 0 -60 -7t-51.5 -25t-40.5 -48.5t-27 -77.5l-25 -122q-14 -75 11.5 -105t85.5 -30q48 0 100.5 17t96.5 44z" />
    <glyph glyph-name="Emacron" unicode="&#x112;" 
d="M602 750l-13 -70h-374l-50 -256h342l-14 -69h-342l-56 -285h387l-12 -70h-462l145 750h449zM265 915h279l-11 -60h-279z" />
    <glyph glyph-name="emacron" unicode="&#x113;" horiz-adv-x="535" 
d="M98 255l-4 -19q-11 -51 -8 -85.5t21.5 -56.5t54.5 -31.5t92 -9.5q14 0 32.5 2t37 5t36.5 7.5t30 9.5l-12 -63q-35 -14 -77.5 -19t-76.5 -5q-130 0 -177 65.5t-22 192.5l11 60q13 69 39.5 117t62.5 78.5t80 44.5t92 14q49 0 87 -14t61.5 -46t29.5 -84t-9 -128l-7 -35h-374
zM414 318q9 42 7.5 76t-14.5 57.5t-39 36t-67 12.5q-78 0 -126 -48.5t-65 -133.5l-1 -5h304zM183 715h279l-11 -60h-279z" />
    <glyph glyph-name="Ebreve" unicode="&#x114;" 
d="M602 750l-13 -70h-374l-50 -256h342l-14 -69h-342l-56 -285h387l-12 -70h-462l145 750h449zM398 806q-30 0 -52 10.5t-36 29.5t-19 44t-2 54h53q-2 -40 11.5 -61t47.5 -21q38 0 60.5 22.5t33.5 59.5h56q-14 -61 -51.5 -99.5t-101.5 -38.5z" />
    <glyph glyph-name="ebreve" unicode="&#x115;" horiz-adv-x="535" 
d="M98 255l-4 -19q-11 -51 -8 -85.5t21.5 -56.5t54.5 -31.5t92 -9.5q14 0 32.5 2t37 5t36.5 7.5t30 9.5l-12 -63q-35 -14 -77.5 -19t-76.5 -5q-130 0 -177 65.5t-22 192.5l11 60q13 69 39.5 117t62.5 78.5t80 44.5t92 14q49 0 87 -14t61.5 -46t29.5 -84t-9 -128l-7 -35h-374
zM414 318q9 42 7.5 76t-14.5 57.5t-39 36t-67 12.5q-78 0 -126 -48.5t-65 -133.5l-1 -5h304zM315 606q-30 0 -52 10.5t-36 29.5t-19 44t-2 54h53q-2 -40 11.5 -61t47.5 -21q38 0 60.5 22.5t33.5 59.5h56q-14 -61 -51.5 -99.5t-101.5 -38.5z" />
    <glyph glyph-name="Edotaccent" unicode="&#x116;" 
d="M602 750l-13 -70h-374l-50 -256h342l-14 -69h-342l-56 -285h387l-12 -70h-462l145 750h449zM378 913h79l-17 -89h-79z" />
    <glyph glyph-name="edotaccent" unicode="&#x117;" horiz-adv-x="535" 
d="M98 255l-4 -19q-11 -51 -8 -85.5t21.5 -56.5t54.5 -31.5t92 -9.5q14 0 32.5 2t37 5t36.5 7.5t30 9.5l-12 -63q-35 -14 -77.5 -19t-76.5 -5q-130 0 -177 65.5t-22 192.5l11 60q13 69 39.5 117t62.5 78.5t80 44.5t92 14q49 0 87 -14t61.5 -46t29.5 -84t-9 -128l-7 -35h-374
zM414 318q9 42 7.5 76t-14.5 57.5t-39 36t-67 12.5q-78 0 -126 -48.5t-65 -133.5l-1 -5h304zM296 713h79l-17 -89h-79z" />
    <glyph glyph-name="Eogonek" unicode="&#x118;" 
d="M323 -223q-61 0 -89 30t-20 72l2 11q4 20 16.5 37.5t30.5 32t38.5 25t39.5 15.5h-333l145 750h449l-13 -70h-374l-50 -256h342l-14 -69h-342l-56 -285h387l-12 -70h-59q-48 -22 -80.5 -51t-37.5 -59l-1 -6q-4 -24 8.5 -35t50.5 -11q14 0 32.5 2t29.5 5l-12 -58
q-14 -4 -34 -7t-44 -3z" />
    <glyph glyph-name="eogonek" unicode="&#x119;" horiz-adv-x="535" 
d="M98 255l-4 -19q-11 -51 -8 -85.5t21.5 -56.5t54.5 -31.5t92 -9.5q14 0 32.5 2t37 5t36.5 7.5t30 9.5l-12 -63q-8 -3 -15.5 -6t-15.5 -5q-50 -25 -83 -53.5t-38 -59.5l-1 -6q-4 -24 8.5 -35t50.5 -11q14 0 32.5 2t29.5 5l-12 -58q-14 -4 -34 -7t-44 -3q-61 0 -89 30
t-20 72l2 11q6 33 35 59.5t62 41.5q-6 -1 -11.5 -1h-10.5q-130 0 -177 65.5t-22 192.5l11 60q13 69 39.5 117t62.5 78.5t80 44.5t92 14q49 0 87 -14t61.5 -46t29.5 -84t-9 -128l-7 -35h-374zM414 318q9 42 7.5 76t-14.5 57.5t-39 36t-67 12.5q-78 0 -126 -48.5t-65 -133.5
l-1 -5h304z" />
    <glyph glyph-name="Ecaron" unicode="&#x11a;" 
d="M602 750l-13 -70h-374l-50 -256h342l-14 -69h-342l-56 -285h387l-12 -70h-462l145 750h449zM301 944h58l49 -95l89 95h65l-127 -148h-67z" />
    <glyph glyph-name="ecaron" unicode="&#x11b;" horiz-adv-x="535" 
d="M98 255l-4 -19q-11 -51 -8 -85.5t21.5 -56.5t54.5 -31.5t92 -9.5q14 0 32.5 2t37 5t36.5 7.5t30 9.5l-12 -63q-35 -14 -77.5 -19t-76.5 -5q-130 0 -177 65.5t-22 192.5l11 60q13 69 39.5 117t62.5 78.5t80 44.5t92 14q49 0 87 -14t61.5 -46t29.5 -84t-9 -128l-7 -35h-374
zM414 318q9 42 7.5 76t-14.5 57.5t-39 36t-67 12.5q-78 0 -126 -48.5t-65 -133.5l-1 -5h304zM221 744h58l49 -95l89 95h65l-127 -148h-67z" />
    <glyph glyph-name="Gcircumflex" unicode="&#x11c;" horiz-adv-x="650" 
d="M607 669q-37 11 -78 16.5t-96 5.5q-76 0 -127 -19.5t-84 -53.5t-51.5 -79t-28.5 -97l-25 -130q-12 -60 -10.5 -107t23 -79t67 -49t122.5 -17q38 0 74.5 3.5t73.5 11.5l52 261h-163l12 66h237l-73 -379q-25 -9 -55 -15.5t-60.5 -10.5t-60.5 -5.5t-56 -1.5q-90 0 -147.5 22
t-87 64.5t-34 104.5t10.5 142l24 120q17 87 47.5 147t77 98t109.5 55t144 17q49 0 95.5 -5.5t80.5 -19.5zM417 954h67l68 -148h-58l-50 95l-89 -95h-64z" />
    <glyph glyph-name="gcircumflex" unicode="&#x11d;" horiz-adv-x="586" 
d="M171 -3q-48 0 -80.5 14t-51 39.5t-23 61t3.5 77.5l32 163q12 60 36 100.5t57 64.5t74 34.5t87 10.5q55 0 95.5 -15t66.5 -38l13 41h63l-115 -589q-9 -44 -25.5 -78t-46 -57.5t-73 -36t-104.5 -12.5q-42 0 -78.5 5t-59.5 13l13 66q35 -11 65 -14t59 -3q41 0 71.5 5.5
t52.5 20t35.5 38.5t20.5 61l15 76q-38 -18 -87.5 -33t-115.5 -15zM452 447q-27 22 -63.5 35t-87.5 13q-32 0 -61 -7t-52 -25t-40 -48.5t-26 -77.5l-27 -138q-14 -75 11 -105t85 -30q24 0 50.5 3.5t52 10t49.5 15.5t44 20zM336 754h67l68 -148h-58l-50 95l-89 -95h-64z" />
    <glyph glyph-name="Gbreve" unicode="&#x11e;" horiz-adv-x="650" 
d="M607 669q-37 11 -78 16.5t-96 5.5q-76 0 -127 -19.5t-84 -53.5t-51.5 -79t-28.5 -97l-25 -130q-12 -60 -10.5 -107t23 -79t67 -49t122.5 -17q38 0 74.5 3.5t73.5 11.5l52 261h-163l12 66h237l-73 -379q-25 -9 -55 -15.5t-60.5 -10.5t-60.5 -5.5t-56 -1.5q-90 0 -147.5 22
t-87 64.5t-34 104.5t10.5 142l24 120q17 87 47.5 147t77 98t109.5 55t144 17q49 0 95.5 -5.5t80.5 -19.5zM422 806q-30 0 -52 10.5t-36 29.5t-19 44t-2 54h53q-2 -40 11.5 -61t47.5 -21q38 0 60.5 22.5t33.5 59.5h56q-14 -61 -51.5 -99.5t-101.5 -38.5z" />
    <glyph glyph-name="gbreve" unicode="&#x11f;" horiz-adv-x="586" 
d="M171 -3q-48 0 -80.5 14t-51 39.5t-23 61t3.5 77.5l32 163q12 60 36 100.5t57 64.5t74 34.5t87 10.5q55 0 95.5 -15t66.5 -38l13 41h63l-115 -589q-9 -44 -25.5 -78t-46 -57.5t-73 -36t-104.5 -12.5q-42 0 -78.5 5t-59.5 13l13 66q35 -11 65 -14t59 -3q41 0 71.5 5.5
t52.5 20t35.5 38.5t20.5 61l15 76q-38 -18 -87.5 -33t-115.5 -15zM452 447q-27 22 -63.5 35t-87.5 13q-32 0 -61 -7t-52 -25t-40 -48.5t-26 -77.5l-27 -138q-14 -75 11 -105t85 -30q24 0 50.5 3.5t52 10t49.5 15.5t44 20zM337 606q-30 0 -52 10.5t-36 29.5t-19 44t-2 54h53
q-2 -40 11.5 -61t47.5 -21q38 0 60.5 22.5t33.5 59.5h56q-14 -61 -51.5 -99.5t-101.5 -38.5z" />
    <glyph glyph-name="Gdotaccent" unicode="&#x120;" horiz-adv-x="650" 
d="M607 669q-37 11 -78 16.5t-96 5.5q-76 0 -127 -19.5t-84 -53.5t-51.5 -79t-28.5 -97l-25 -130q-12 -60 -10.5 -107t23 -79t67 -49t122.5 -17q38 0 74.5 3.5t73.5 11.5l52 261h-163l12 66h237l-73 -379q-25 -9 -55 -15.5t-60.5 -10.5t-60.5 -5.5t-56 -1.5q-90 0 -147.5 22
t-87 64.5t-34 104.5t10.5 142l24 120q17 87 47.5 147t77 98t109.5 55t144 17q49 0 95.5 -5.5t80.5 -19.5zM402 913h79l-17 -89h-79z" />
    <glyph glyph-name="gdotaccent" unicode="&#x121;" horiz-adv-x="586" 
d="M171 -3q-48 0 -80.5 14t-51 39.5t-23 61t3.5 77.5l32 163q12 60 36 100.5t57 64.5t74 34.5t87 10.5q55 0 95.5 -15t66.5 -38l13 41h63l-115 -589q-9 -44 -25.5 -78t-46 -57.5t-73 -36t-104.5 -12.5q-42 0 -78.5 5t-59.5 13l13 66q35 -11 65 -14t59 -3q41 0 71.5 5.5
t52.5 20t35.5 38.5t20.5 61l15 76q-38 -18 -87.5 -33t-115.5 -15zM452 447q-27 22 -63.5 35t-87.5 13q-32 0 -61 -7t-52 -25t-40 -48.5t-26 -77.5l-27 -138q-14 -75 11 -105t85 -30q24 0 50.5 3.5t52 10t49.5 15.5t44 20zM322 713h79l-17 -89h-79z" />
    <glyph glyph-name="uni0122" unicode="&#x122;" horiz-adv-x="650" 
d="M607 669q-37 11 -78 16.5t-96 5.5q-76 0 -127 -19.5t-84 -53.5t-51.5 -79t-28.5 -97l-25 -130q-12 -60 -10.5 -107t23 -79t67 -49t122.5 -17q38 0 74.5 3.5t73.5 11.5l52 261h-163l12 66h237l-73 -379q-25 -9 -55 -15.5t-60.5 -10.5t-60.5 -5.5t-56 -1.5q-90 0 -147.5 22
t-87 64.5t-34 104.5t10.5 142l24 120q17 87 47.5 147t77 98t109.5 55t144 17q49 0 95.5 -5.5t80.5 -19.5zM281 -56h88l-95 -177h-68z" />
    <glyph glyph-name="uni0123" unicode="&#x123;" horiz-adv-x="586" 
d="M171 -3q-48 0 -80.5 14t-51 39.5t-23 61t3.5 77.5l32 163q12 60 36 100.5t57 64.5t74 34.5t87 10.5q55 0 95.5 -15t66.5 -38l13 41h63l-115 -589q-9 -44 -25.5 -78t-46 -57.5t-73 -36t-104.5 -12.5q-42 0 -78.5 5t-59.5 13l13 66q35 -11 65 -14t59 -3q41 0 71.5 5.5
t52.5 20t35.5 38.5t20.5 61l15 76q-38 -18 -87.5 -33t-115.5 -15zM452 447q-27 22 -63.5 35t-87.5 13q-32 0 -61 -7t-52 -25t-40 -48.5t-26 -77.5l-27 -138q-14 -75 11 -105t85 -30q24 0 50.5 3.5t52 10t49.5 15.5t44 20zM369 606h-88l95 177h68z" />
    <glyph glyph-name="Hcircumflex" unicode="&#x124;" horiz-adv-x="700" 
d="M547 0h-76l68 357h-388l-68 -357h-75l145 750h75l-63 -323h388l63 323h76zM423 954h67l68 -148h-58l-50 95l-89 -95h-64z" />
    <glyph glyph-name="hcircumflex" unicode="&#x125;" horiz-adv-x="587" 
d="M355 0l73 381q11 60 -3.5 86.5t-68.5 26.5q-44 0 -95 -16.5t-102 -45.5l-83 -432h-72l145 750l77 24l-54 -277q46 26 100 45.5t105 19.5q42 0 69.5 -13t42.5 -36.5t17.5 -55.5t-4.5 -71l-74 -386h-73zM390 954h67l68 -148h-58l-50 95l-89 -95h-64z" />
    <glyph glyph-name="Hbar" unicode="&#x126;" horiz-adv-x="704" 
d="M42 586h81l32 164h75l-32 -164h388l32 164h76l-32 -164h81l-12 -62h-81l-101 -524h-76l61 316h-388l-61 -316h-75l101 524h-81zM548 386l26 138h-388l-26 -138h388z" />
    <glyph glyph-name="hbar" unicode="&#x127;" horiz-adv-x="570" 
d="M60 670h75l16 80l77 24l-21 -104h156l-12 -60h-155l-25 -127q46 26 100 45.5t105 19.5q42 0 69.5 -13t42.5 -36.5t18 -55.5t-4 -71l-72 -372h-73l71 367q11 60 -4 86.5t-69 26.5q-44 0 -95 -16.5t-102 -45.5l-80 -418h-72l118 610h-76z" />
    <glyph glyph-name="Itilde" unicode="&#x128;" horiz-adv-x="236" 
d="M83 0h-75l145 750h75zM259 813q-24 0 -38 10t-24 22.5t-19.5 22.5t-23.5 10q-17 0 -31 -17t-22 -47h-59q7 24 17 46t24 39.5t32 27.5t41 10q24 0 38.5 -10t25 -22.5t19.5 -22.5t23 -10q21 0 32.5 17t20.5 48h58q-6 -22 -14.5 -44t-21.5 -40t-32 -29t-46 -11z" />
    <glyph glyph-name="itilde" unicode="&#x129;" horiz-adv-x="227" 
d="M217 613q-24 0 -38 10t-24 22.5t-19.5 22.5t-23.5 10q-17 0 -31 -17t-22 -47h-59q7 24 17 46t24 39.5t32 27.5t41 10q24 0 38.5 -10t25 -22.5t19.5 -22.5t23 -10q21 0 32.5 17t20.5 48h58q-6 -22 -14.5 -44t-21.5 -40t-32 -29t-46 -11zM4 0l106 548h72l-106 -548h-72z
" />
    <glyph glyph-name="Imacron" unicode="&#x12a;" horiz-adv-x="236" 
d="M81 0h-75l145 750h75zM69 915h280l-11 -60h-280z" />
    <glyph glyph-name="imacron" unicode="&#x12b;" horiz-adv-x="227" 
d="M28 715h279l-11 -60h-279zM4 0l106 548h72l-106 -548h-72z" />
    <glyph glyph-name="Ibreve" unicode="&#x12c;" horiz-adv-x="236" 
d="M83 0h-75l145 750h75zM198 806q-30 0 -52 10.5t-36 29.5t-19 44t-2 54h53q-2 -40 11.5 -61t47.5 -21q38 0 60.5 22.5t33.5 59.5h56q-14 -61 -51.5 -99.5t-101.5 -38.5z" />
    <glyph glyph-name="ibreve" unicode="&#x12d;" horiz-adv-x="227" 
d="M4 0l106 548h72l-106 -548h-72zM153 606q-30 0 -52 10.5t-36 29.5t-19 44t-2 54h53q-2 -40 11.5 -61t47.5 -21q38 0 60.5 22.5t33.5 59.5h56q-14 -61 -51.5 -99.5t-101.5 -38.5z" />
    <glyph glyph-name="Iogonek" unicode="&#x12e;" horiz-adv-x="236" 
d="M-5 -223q-61 0 -89 30t-20 72l2 11q4 19 16 36t29 31.5t36.5 25t37.5 16.5l146 751h75l-145 -750q-48 -22 -80.5 -51t-37.5 -59l-1 -6q-4 -24 8.5 -35t50.5 -11q14 0 32.5 2t29.5 5l-12 -58q-14 -4 -34 -7t-44 -3z" />
    <glyph glyph-name="iogonek" unicode="&#x12f;" horiz-adv-x="227" 
d="M-12 -223q-61 0 -89 30t-20 72l2 11q4 20 16.5 37.5t30 31.5t37.5 24.5t39 16.5l106 548h72l-106 -548q-48 -22 -80.5 -51t-37.5 -59l-1 -6q-4 -24 8.5 -35t50.5 -11q14 0 32.5 2t29.5 5l-12 -58q-14 -4 -34 -7t-44 -3zM208 669h-76l15 82h76z" />
    <glyph glyph-name="Idotaccent" unicode="&#x130;" horiz-adv-x="236" 
d="M83 0h-75l145 750h75zM181 913h79l-17 -89h-79z" />
    <glyph glyph-name="dotlessi" unicode="&#x131;" horiz-adv-x="227" 
d="M4 0l106 548h72l-106 -548h-72z" />
    <glyph glyph-name="IJ" unicode="&#x132;" horiz-adv-x="609" 
d="M83 0h-75l145 750h75zM611 750l-113 -581q-9 -48 -24.5 -82t-40 -55.5t-60.5 -31.5t-87 -10q-28 0 -60.5 4.5t-51.5 10.5l14 73q26 -8 54 -11t55 -3q61 0 88.5 29t39.5 94l110 563h76z" />
    <glyph glyph-name="ij" unicode="&#x133;" horiz-adv-x="474" 
d="M4 0l106 548h72l-106 -548h-72zM208 669h-76l15 82h76zM304 -90q-7 -34 -17.5 -58.5t-28 -40.5t-42.5 -24t-60 -8q-20 0 -44.5 2.5t-44.5 8.5l12 62q18 -4 36 -6t41 -2q36 0 52.5 17t24.5 59l123 628h73zM455 669h-77l15 82h77z" />
    <glyph glyph-name="Jcircumflex" unicode="&#x134;" horiz-adv-x="376" 
d="M378 750l-113 -581q-9 -48 -24.5 -82t-40 -55.5t-60.5 -31.5t-87 -10q-28 0 -60.5 4.5t-51.5 10.5l14 73q26 -8 54 -11t55 -3q61 0 88.5 29t39.5 94l110 563h76zM342 954h67l68 -148h-58l-50 95l-89 -95h-64z" />
    <glyph glyph-name="jcircumflex" unicode="&#x135;" horiz-adv-x="243" 
d="M77 -90q-7 -34 -17.5 -58.5t-28 -40.5t-42.5 -24t-60 -8q-20 0 -44.5 2.5t-44.5 8.5l12 62q18 -4 36 -6t41 -2q36 0 52.5 17t24.5 59l123 628h73zM167 754h67l68 -148h-58l-50 95l-89 -95h-64z" />
    <glyph glyph-name="uni0136" unicode="&#x136;" horiz-adv-x="630" 
d="M329 379l214 -379h-83l-192 344h-119l-66 -344h-75l145 750h75l-66 -337h109l297 337h92zM240 -56h88l-95 -177h-68z" />
    <glyph glyph-name="uni0137" unicode="&#x137;" horiz-adv-x="510" 
d="M140 334h73l217 214h94l-257 -248l157 -300h-81l-134 269h-81l-52 -269h-72l145 750l77 24zM180 -56h88l-95 -177h-68z" />
    <glyph glyph-name="kgreenlandic" unicode="&#x138;" horiz-adv-x="510" 
d="M136 315h83l214 233h91l-253 -267l153 -281h-81l-131 250h-88l-48 -250h-72l106 548h72zM180 -56h88l-95 -177h-68z" />
    <glyph glyph-name="Lacute" unicode="&#x139;" horiz-adv-x="556" 
d="M228 750l-132 -678h374l-13 -72h-449l145 750h75zM273 940h98l-135 -134h-79z" />
    <glyph glyph-name="lacute" unicode="&#x13a;" horiz-adv-x="230" 
d="M149 750l77 24l-150 -774h-72zM268 940h98l-135 -134h-79z" />
    <glyph glyph-name="uni013B" unicode="&#x13b;" horiz-adv-x="556" 
d="M228 750l-132 -678h374l-13 -72h-449l145 750h75zM224 -56h88l-95 -177h-68z" />
    <glyph glyph-name="uni013C" unicode="&#x13c;" horiz-adv-x="230" 
d="M149 750l77 24l-150 -774h-72zM-11 -56h88l-95 -177h-68z" />
    <glyph glyph-name="Lcaron" unicode="&#x13d;" horiz-adv-x="556" 
d="M420 750l-63 -177h-51l46 177h68zM228 750l-132 -678h374l-13 -72h-449l145 750h75z" />
    <glyph glyph-name="lcaron" unicode="&#x13e;" horiz-adv-x="261" 
d="M361 761l-56 -167h-52l40 167h68zM149 750l77 24l-150 -774h-72z" />
    <glyph glyph-name="Ldot" unicode="&#x13f;" horiz-adv-x="596" 
d="M228 750l-132 -678h374l-13 -72h-449l145 750h75zM431 470h79l-17 -89h-79z" />
    <glyph glyph-name="ldot" unicode="&#x140;" horiz-adv-x="327" 
d="M149 750l77 24l-150 -774h-72zM258 442h79l-17 -89h-79z" />
    <glyph glyph-name="Lslash" unicode="&#x141;" horiz-adv-x="577" 
d="M249 750l-68 -346l267 115l-13 -72l-268 -116l-50 -259h374l-13 -72h-449l57 296l-106 -46l13 72l107 46l74 382h75z" />
    <glyph glyph-name="lslash" unicode="&#x142;" horiz-adv-x="253" 
d="M-42 341l126 74l65 335l77 24l-61 -311l128 75l-14 -75l-128 -75l-75 -388h-72l65 340l-125 -74z" />
    <glyph glyph-name="Nacute" unicode="&#x143;" horiz-adv-x="702" 
d="M549 0h-78l-219 514q-13 30 -25 64t-21 71l-125 -649h-73l145 750h78l215 -511q8 -19 14.5 -35.5t12 -32.5t11 -33t11.5 -36l125 648h74zM501 940h98l-135 -134h-79z" />
    <glyph glyph-name="nacute" unicode="&#x144;" horiz-adv-x="570" 
d="M355 0l73 381q11 60 -3.5 86.5t-68.5 26.5q-41 0 -93.5 -16t-103.5 -47l-83 -431h-72l106 548h64l-3 -52q44 26 99 46t106 20q42 0 70 -13t42.5 -36.5t17.5 -55.5t-4 -71l-74 -386h-73zM401 740h98l-135 -134h-79z" />
    <glyph glyph-name="uni0145" unicode="&#x145;" horiz-adv-x="702" 
d="M549 0h-78l-219 514q-13 30 -25 64t-21 71l-125 -649h-73l145 750h78l215 -511q8 -19 14.5 -35.5t12 -32.5t11 -33t11.5 -36l125 648h74zM271 -56h88l-95 -177h-68z" />
    <glyph glyph-name="uni0146" unicode="&#x146;" horiz-adv-x="570" 
d="M355 0l73 381q11 60 -3.5 86.5t-68.5 26.5q-41 0 -93.5 -16t-103.5 -47l-83 -431h-72l106 548h64l-3 -52q44 26 99 46t106 20q42 0 70 -13t42.5 -36.5t17.5 -55.5t-4 -71l-74 -386h-73zM189 -56h88l-95 -177h-68z" />
    <glyph glyph-name="Ncaron" unicode="&#x147;" horiz-adv-x="702" 
d="M549 0h-78l-219 514q-13 30 -25 64t-21 71l-125 -649h-73l145 750h78l215 -511q8 -19 14.5 -35.5t12 -32.5t11 -33t11.5 -36l125 648h74zM335 944h58l49 -95l89 95h65l-127 -148h-67z" />
    <glyph glyph-name="ncaron" unicode="&#x148;" horiz-adv-x="570" 
d="M355 0l73 381q11 60 -3.5 86.5t-68.5 26.5q-41 0 -93.5 -16t-103.5 -47l-83 -431h-72l106 548h64l-3 -52q44 26 99 46t106 20q42 0 70 -13t42.5 -36.5t17.5 -55.5t-4 -71l-74 -386h-73zM245 744h58l49 -95l89 95h65l-127 -148h-67z" />
    <glyph glyph-name="napostrophe" unicode="&#x149;" horiz-adv-x="577" 
d="M129 700l-78 -194h-51l56 194h73zM362 0l73 381q11 60 -3.5 86.5t-68.5 26.5q-41 0 -93.5 -16t-103.5 -47l-83 -431h-72l106 548h64l-3 -52q44 26 99 46t106 20q42 0 70 -13t42.5 -36.5t17.5 -55.5t-4 -71l-74 -386h-73z" />
    <glyph glyph-name="Eng" unicode="&#x14a;" horiz-adv-x="702" 
d="M252 514q-13 30 -25 64t-21 71l-125 -649h-73l145 750h78l215 -511q8 -19 14.5 -35.5t12 -32.5t11 -33t11.5 -36l125 648h74l-162 -840q-13 -65 -49.5 -98t-109.5 -33q-20 0 -46.5 2.5t-46.5 9.5l12 63q18 -5 38.5 -7.5t41.5 -2.5q36 0 57.5 17t30.5 59l15 71z" />
    <glyph glyph-name="eng" unicode="&#x14b;" horiz-adv-x="570" 
d="M428 381q11 60 -3.5 86.5t-68.5 26.5q-41 0 -93.5 -16t-103.5 -47l-83 -431h-72l106 548h64l-3 -52q44 26 99 46t106 20q42 0 70 -13t43 -36.5t17.5 -55.5t-4.5 -71l-93 -478q-7 -34 -17.5 -58.5t-28 -40t-43 -23t-61.5 -7.5q-20 0 -44 2t-45 9l12 62q19 -4 37.5 -6
t41.5 -2q36 0 52.5 17t24.5 59z" />
    <glyph glyph-name="Omacron" unicode="&#x14c;" horiz-adv-x="719" 
d="M656 309q-32 -163 -125.5 -242t-242.5 -79q-74 0 -127.5 23t-85 67.5t-40 108t7.5 144.5l21 108q31 162 125 242.5t243 80.5q74 0 127.5 -23.5t84.5 -68t39.5 -108.5t-6.5 -145zM601 422q28 139 -21 204t-159 65q-111 0 -183.5 -65t-100.5 -204l-18 -94
q-27 -140 20.5 -204.5t158.5 -64.5q110 0 184 64.5t101 204.5zM321 915h279l-11 -60h-279z" />
    <glyph glyph-name="omacron" unicode="&#x14d;" horiz-adv-x="568" 
d="M490 233q-47 -243 -277 -243q-113 0 -162.5 68.5t-26.5 189.5l13 68q24 121 95 183.5t184 62.5q115 0 163 -70t24 -191zM433 311q19 96 -14 142t-111 46t-128.5 -46t-69.5 -142l-14 -70q-19 -94 14 -141t111 -47q160 0 198 188zM197 715h279l-11 -60h-279z" />
    <glyph glyph-name="Obreve" unicode="&#x14e;" horiz-adv-x="719" 
d="M656 309q-32 -163 -125.5 -242t-242.5 -79q-74 0 -127.5 23t-85 67.5t-40 108t7.5 144.5l21 108q31 162 125 242.5t243 80.5q74 0 127.5 -23.5t84.5 -68t39.5 -108.5t-6.5 -145zM601 422q28 139 -21 204t-159 65q-111 0 -183.5 -65t-100.5 -204l-18 -94
q-27 -140 20.5 -204.5t158.5 -64.5q110 0 184 64.5t101 204.5zM439 806q-30 0 -52 10.5t-36 29.5t-19 44t-2 54h53q-2 -40 11.5 -61t47.5 -21q38 0 60.5 22.5t33.5 59.5h56q-14 -61 -51.5 -99.5t-101.5 -38.5z" />
    <glyph glyph-name="obreve" unicode="&#x14f;" horiz-adv-x="568" 
d="M490 233q-47 -243 -277 -243q-113 0 -162.5 68.5t-26.5 189.5l13 68q24 121 95 183.5t184 62.5q115 0 163 -70t24 -191zM433 311q19 96 -14 142t-111 46t-128.5 -46t-69.5 -142l-14 -70q-19 -94 14 -141t111 -47q160 0 198 188zM325 606q-30 0 -52 10.5t-36 29.5t-19 44
t-2 54h53q-2 -40 11.5 -61t47.5 -21q38 0 60.5 22.5t33.5 59.5h56q-14 -61 -51.5 -99.5t-101.5 -38.5z" />
    <glyph glyph-name="Ohungarumlaut" unicode="&#x150;" horiz-adv-x="719" 
d="M656 309q-32 -163 -125.5 -242t-242.5 -79q-74 0 -127.5 23t-85 67.5t-40 108t7.5 144.5l21 108q31 162 125 242.5t243 80.5q74 0 127.5 -23.5t84.5 -68t39.5 -108.5t-6.5 -145zM601 422q28 139 -21 204t-159 65q-111 0 -183.5 -65t-100.5 -204l-18 -94
q-27 -140 20.5 -204.5t158.5 -64.5q110 0 184 64.5t101 204.5zM549 940h79l-95 -134h-58zM399 940h79l-95 -134h-60z" />
    <glyph glyph-name="ohungarumlaut" unicode="&#x151;" horiz-adv-x="568" 
d="M490 233q-47 -243 -277 -243q-113 0 -162.5 68.5t-26.5 189.5l13 68q24 121 95 183.5t184 62.5q115 0 163 -70t24 -191zM433 311q19 96 -14 142t-111 46t-128.5 -46t-69.5 -142l-14 -70q-19 -94 14 -141t111 -47q160 0 198 188zM448 740h79l-95 -134h-58zM298 740h79
l-95 -134h-60z" />
    <glyph glyph-name="OE" unicode="&#x152;" horiz-adv-x="989" 
d="M298 0q-75 0 -130.5 22.5t-88.5 66t-43 106.5t6 144l20 106q16 81 49.5 138.5t82.5 94.5t112 54.5t137 17.5h564l-13 -70h-373l-50 -256h341l-14 -69h-341l-56 -285h387l-12 -70h-578zM117 331q-14 -70 -6 -119t33.5 -80.5t67.5 -46t97 -14.5h117l119 608h-115
q-56 0 -103.5 -13t-85.5 -43t-65 -79t-41 -121z" />
    <glyph glyph-name="oe" unicode="&#x153;" horiz-adv-x="909" 
d="M477 255l-4 -19q-11 -51 -8.5 -85.5t20.5 -56.5t53 -31.5t91 -9.5q14 0 32.5 2t37 5t36.5 7.5t30 9.5l-12 -63q-35 -14 -77.5 -19t-76.5 -5q-80 0 -123.5 23.5t-62.5 72.5q-32 -46 -83.5 -71t-121.5 -25q-113 0 -160 68.5t-24 189.5l13 68q23 121 92 183.5t182 62.5
q71 0 111.5 -24.5t57.5 -75.5q39 53 91 76.5t114 23.5q51 0 89 -14.5t60.5 -47.5t28 -85.5t-9.5 -128.5l-6 -31h-370zM423 311q37 188 -120 188q-156 0 -193 -188l-14 -70q-38 -188 120 -188q80 0 127 47t66 141zM789 318q9 42 8.5 76t-13.5 57.5t-39 36t-69 12.5
q-78 0 -124 -48.5t-63 -133.5l-1 -5h300z" />
    <glyph glyph-name="Racute" unicode="&#x154;" horiz-adv-x="637" 
d="M153 750h264q54 0 96.5 -8.5t69 -31.5t35.5 -63t-3 -104l-9 -45q-8 -44 -23 -74t-36.5 -50.5t-49.5 -32t-62 -17.5l104 -324h-80l-99 315h-217l-60 -315h-75zM215 681l-58 -299h165q52 0 89 5t61.5 18.5t38.5 37t21 60.5l12 58q13 69 -18.5 94.5t-119.5 25.5h-191z
M468 940h98l-135 -134h-79z" />
    <glyph glyph-name="racute" unicode="&#x155;" horiz-adv-x="399" 
d="M361 487q-53 -5 -107 -25.5t-101 -59.5l-77 -402h-72l106 548h64l-8 -76q15 13 37 28t49 28t58.5 22.5t65.5 11.5zM311 740h98l-135 -134h-79z" />
    <glyph glyph-name="uni0156" unicode="&#x156;" horiz-adv-x="637" 
d="M153 750h264q54 0 96.5 -8.5t69 -31.5t35.5 -63t-3 -104l-9 -45q-8 -44 -23 -74t-36.5 -50.5t-49.5 -32t-62 -17.5l104 -324h-80l-99 315h-217l-60 -315h-75zM215 681l-58 -299h165q52 0 89 5t61.5 18.5t38.5 37t21 60.5l12 58q13 69 -18.5 94.5t-119.5 25.5h-191z
M238 -56h88l-95 -177h-68z" />
    <glyph glyph-name="uni0157" unicode="&#x157;" horiz-adv-x="366" 
d="M361 487q-53 -5 -107 -25.5t-101 -59.5l-77 -402h-72l106 548h64l-8 -76q15 13 37 28t49 28t58.5 22.5t65.5 11.5zM-9 -56h88l-95 -177h-68z" />
    <glyph glyph-name="Rcaron" unicode="&#x158;" horiz-adv-x="637" 
d="M153 750h264q54 0 96.5 -8.5t69 -31.5t35.5 -63t-3 -104l-9 -45q-8 -44 -23 -74t-36.5 -50.5t-49.5 -32t-62 -17.5l104 -324h-80l-99 315h-217l-60 -315h-75zM215 681l-58 -299h165q52 0 89 5t61.5 18.5t38.5 37t21 60.5l12 58q13 69 -18.5 94.5t-119.5 25.5h-191z
M313 944h58l49 -95l89 95h65l-127 -148h-67z" />
    <glyph glyph-name="rcaron" unicode="&#x159;" horiz-adv-x="366" 
d="M361 487q-53 -5 -107 -25.5t-101 -59.5l-77 -402h-72l106 548h64l-8 -76q15 13 37 28t49 28t58.5 22.5t65.5 11.5zM147 744h58l49 -95l89 95h65l-127 -148h-67z" />
    <glyph glyph-name="Sacute" unicode="&#x15a;" horiz-adv-x="574" 
d="M507 252q0 -128 -74.5 -195t-225.5 -67q-55 0 -112.5 8.5t-111.5 31.5l15 74q69 -28 122.5 -36.5t98.5 -8.5q103 0 156.5 43.5t53.5 134.5q0 18 -4.5 31.5t-17 25t-34.5 21t-56 19.5l-100 28q-68 19 -100.5 60t-32.5 99q0 121 75 180t210 59q55 0 103 -6t82 -19l-12 -66
q-39 12 -80.5 17.5t-87.5 5.5q-42 0 -81 -6.5t-68.5 -24.5t-47 -50t-17.5 -83q0 -37 21.5 -60.5t72.5 -37.5l97 -28q45 -13 75 -28t48 -33.5t25.5 -40.5t7.5 -48zM422 940h98l-135 -134h-79z" />
    <glyph glyph-name="sacute" unicode="&#x15b;" horiz-adv-x="461" 
d="M384 187q0 -99 -59.5 -148t-166.5 -49q-20 0 -43.5 2t-47 5.5t-46.5 9.5t-41 15l13 66q47 -20 90.5 -27t81.5 -7q42 0 70 9.5t45 26t24 39.5t7 50q0 12 -4 21t-14 16.5t-28 14t-45 14.5l-43 12q-68 19 -95.5 49.5t-27.5 76.5q0 48 15.5 82t45 55.5t71 31.5t93.5 10
q42 0 78.5 -5t62.5 -15l-12 -61q-30 9 -62.5 14t-69.5 5q-81 0 -116 -27.5t-35 -85.5q0 -25 18.5 -40.5t68.5 -28.5l43 -11q73 -19 101 -47.5t28 -72.5zM323 740h98l-135 -134h-79z" />
    <glyph glyph-name="Scircumflex" unicode="&#x15c;" horiz-adv-x="574" 
d="M507 252q0 -128 -74.5 -195t-225.5 -67q-55 0 -112.5 8.5t-111.5 31.5l15 74q69 -28 122.5 -36.5t98.5 -8.5q103 0 156.5 43.5t53.5 134.5q0 18 -4.5 31.5t-17 25t-34.5 21t-56 19.5l-100 28q-68 19 -100.5 60t-32.5 99q0 121 75 180t210 59q55 0 103 -6t82 -19l-12 -66
q-39 12 -80.5 17.5t-87.5 5.5q-42 0 -81 -6.5t-68.5 -24.5t-47 -50t-17.5 -83q0 -37 21.5 -60.5t72.5 -37.5l97 -28q45 -13 75 -28t48 -33.5t25.5 -40.5t7.5 -48zM378 954h67l68 -148h-58l-50 95l-89 -95h-64z" />
    <glyph glyph-name="scircumflex" unicode="&#x15d;" horiz-adv-x="460" 
d="M384 187q0 -99 -59.5 -148t-166.5 -49q-20 0 -43.5 2t-47 5.5t-46.5 9.5t-41 15l13 66q47 -20 90.5 -27t81.5 -7q42 0 70 9.5t45 26t24 39.5t7 50q0 12 -4 21t-14 16.5t-28 14t-45 14.5l-43 12q-68 19 -95.5 49.5t-27.5 76.5q0 48 15.5 82t45 55.5t71 31.5t93.5 10
q42 0 78.5 -5t62.5 -15l-12 -61q-30 9 -62.5 14t-69.5 5q-81 0 -116 -27.5t-35 -85.5q0 -25 18.5 -40.5t68.5 -28.5l43 -11q73 -19 101 -47.5t28 -72.5zM272 754h67l68 -148h-58l-50 95l-89 -95h-64z" />
    <glyph glyph-name="Scedilla" unicode="&#x15e;" horiz-adv-x="574" 
d="M159 -263q-20 0 -38.5 1.5t-39.5 5.5l11 56q14 -2 32 -3.5t36 -1.5q26 0 43 3.5t27 10t14 14.5t6 17l2 11q2 11 0 20t-11 15t-26.5 9t-46.5 3h-16l18 93q-47 2 -94.5 10.5t-92.5 28.5l15 74q69 -28 122.5 -36.5t98.5 -8.5q103 0 156.5 43.5t53.5 134.5q0 18 -4.5 31.5
t-17 25t-34.5 21t-56 19.5l-100 28q-68 19 -100.5 60t-32.5 99q0 121 75 180t210 59q55 0 103 -6t82 -19l-12 -66q-39 12 -80.5 17.5t-87.5 5.5q-42 0 -81 -6.5t-68.5 -24.5t-47 -50t-17.5 -83q0 -37 21.5 -60.5t72.5 -37.5l97 -28q45 -13 75 -28t48 -33.5t25.5 -40.5
t7.5 -48q0 -122 -67.5 -188.5t-204.5 -72.5l-9 -48q63 -5 85 -30.5t14 -65.5l-2 -11q-6 -31 -20 -50t-35.5 -30t-49 -15t-59.5 -4z" />
    <glyph glyph-name="scedilla" unicode="&#x15f;" horiz-adv-x="460" 
d="M100 -263q-20 0 -38.5 1.5t-39.5 5.5l11 56q14 -2 32 -3.5t36 -1.5q26 0 43 3.5t27 10t14 14.5t6 17l2 11q2 11 0 20t-11 15t-26.5 9t-46.5 3h-16l18 94q-34 3 -69 10t-62 20l13 66q47 -20 90.5 -27t81.5 -7q42 0 70 9.5t45 26t24 39.5t7 50q0 12 -4 21t-14 16.5t-28 14
t-45 14.5l-43 12q-68 19 -95.5 49.5t-27.5 76.5q0 48 15.5 82t45 55.5t71 31.5t93.5 10q42 0 78.5 -5t62.5 -15l-12 -61q-30 9 -62.5 14t-69.5 5q-81 0 -116 -27.5t-35 -85.5q0 -25 18.5 -40.5t68.5 -28.5l43 -11q73 -19 101 -47.5t28 -72.5q0 -94 -54.5 -143t-153.5 -53
l-9 -48q63 -5 85 -30.5t14 -65.5l-2 -11q-6 -31 -20 -50t-35.5 -30t-49 -15t-59.5 -4z" />
    <glyph glyph-name="Scaron" unicode="&#x160;" horiz-adv-x="574" 
d="M507 252q0 -128 -74.5 -195t-225.5 -67q-55 0 -112.5 8.5t-111.5 31.5l15 74q69 -28 122.5 -36.5t98.5 -8.5q103 0 156.5 43.5t53.5 134.5q0 18 -4.5 31.5t-17 25t-34.5 21t-56 19.5l-100 28q-68 19 -100.5 60t-32.5 99q0 121 75 180t210 59q55 0 103 -6t82 -19l-12 -66
q-39 12 -80.5 17.5t-87.5 5.5q-42 0 -81 -6.5t-68.5 -24.5t-47 -50t-17.5 -83q0 -37 21.5 -60.5t72.5 -37.5l97 -28q45 -13 75 -28t48 -33.5t25.5 -40.5t7.5 -48zM271 944h58l49 -95l89 95h65l-127 -148h-67z" />
    <glyph glyph-name="scaron" unicode="&#x161;" horiz-adv-x="479" 
d="M384 187q0 -99 -59.5 -148t-166.5 -49q-20 0 -43.5 2t-47 5.5t-46.5 9.5t-41 15l13 66q47 -20 90.5 -27t81.5 -7q42 0 70 9.5t45 26t24 39.5t7 50q0 12 -4 21t-14 16.5t-28 14t-45 14.5l-43 12q-68 19 -95.5 49.5t-27.5 76.5q0 48 15.5 82t45 55.5t71 31.5t93.5 10
q42 0 78.5 -5t62.5 -15l-12 -61q-30 9 -62.5 14t-69.5 5q-81 0 -116 -27.5t-35 -85.5q0 -25 18.5 -40.5t68.5 -28.5l43 -11q73 -19 101 -47.5t28 -72.5zM178 744h58l49 -95l89 95h65l-127 -148h-67z" />
    <glyph glyph-name="uni0162" unicode="&#x162;" horiz-adv-x="589" 
d="M177 -263q-20 0 -38.5 1.5t-39.5 5.5l11 56q14 -2 32 -3.5t36 -1.5q26 0 43 3.5t27 10t14 14.5t6 17l2 11q2 11 0 20t-11 15t-26.5 9t-46.5 3h-16l20 102h-6l132 679h-239l13 71h554l-13 -71h-239l-132 -679h-5l-11 -57q63 -5 85 -30.5t14 -65.5l-2 -11q-6 -31 -20 -50
t-35.5 -30t-49 -15t-59.5 -4z" />
    <glyph glyph-name="uni0163" unicode="&#x163;" horiz-adv-x="385" 
d="M77 -263q-20 0 -38.5 1.5t-39.5 5.5l11 56q14 -2 32 -3.5t36 -1.5q26 0 43 3.5t27 10t14 14.5t6 17l2 11q2 11 0 20t-11 15t-26.5 9t-46.5 3h-16l23 120q-19 19 -23.5 49.5t3.5 69.5l68 347h-96l13 64h96l24 124l77 24l-28 -148h150l-13 -64h-150l-65 -337
q-11 -53 1 -71.5t51 -18.5q19 0 42 4.5t43 14.5l-13 -66q-20 -11 -48.5 -15.5t-49.5 -4.5h-11t-10 1l-10 -48q63 -5 85 -30.5t14 -65.5l-2 -11q-6 -31 -20 -50t-35.5 -30t-49 -15t-59.5 -4z" />
    <glyph glyph-name="Tcaron" unicode="&#x164;" horiz-adv-x="589" 
d="M90 750h554l-13 -71h-239l-132 -679h-76l132 679h-239zM275 944h58l49 -95l89 95h65l-127 -148h-67z" />
    <glyph glyph-name="tcaron" unicode="&#x165;" horiz-adv-x="385" 
d="M414 761l-57 -167h-51l40 167h68zM214 484l-65 -337q-11 -53 1 -71.5t51 -18.5q19 0 42 4.5t43 14.5l-13 -66q-20 -11 -48.5 -15.5t-49.5 -4.5q-68 0 -91.5 40.5t-10.5 106.5l68 347h-96l13 64h96l24 124l77 24l-28 -148h150l-13 -64h-150z" />
    <glyph glyph-name="Tbar" unicode="&#x166;" horiz-adv-x="596" 
d="M97 750h554l-13 -71h-239l-50 -258h183l-12 -62h-183l-70 -359h-76l70 359h-184l12 62h184l50 258h-239z" />
    <glyph glyph-name="tbar" unicode="&#x167;" horiz-adv-x="385" 
d="M214 484l-28 -141h152l-11 -60h-152l-26 -136q-11 -53 1 -71.5t51 -18.5q19 0 42 4.5t43 14.5l-13 -66q-20 -11 -48.5 -15.5t-49.5 -4.5q-68 0 -91.5 40.5t-10.5 106.5l28 146h-93l11 60h94l28 141h-96l13 64h96l24 124l77 24l-28 -148h150l-13 -64h-150z" />
    <glyph glyph-name="Utilde" unicode="&#x168;" horiz-adv-x="704" 
d="M218 750l-91 -468q-12 -61 -8.5 -103.5t23.5 -69t56.5 -38.5t89.5 -12q55 0 97 12t72.5 38.5t50.5 69t32 103.5l91 468h75l-94 -482q-27 -139 -103 -210t-219 -71q-146 0 -207 70.5t-32 219.5l92 473h75zM495 813q-24 0 -38 10t-24 22.5t-19.5 22.5t-23.5 10
q-17 0 -31 -17t-22 -47h-59q7 24 17 46t24 39.5t32 27.5t41 10q24 0 38.5 -10t25 -22.5t19.5 -22.5t23 -10q21 0 32.5 17t20.5 48h58q-6 -22 -14.5 -44t-21.5 -40t-32 -29t-46 -11z" />
    <glyph glyph-name="utilde" unicode="&#x169;" horiz-adv-x="570" 
d="M177 548l-74 -382q-11 -54 3.5 -81t66.5 -27q42 0 94.5 17t100.5 47l84 426h73l-106 -548h-64l2 56q-47 -29 -99.5 -47.5t-103.5 -18.5q-84 0 -112.5 47t-12.5 127l75 384h73zM389 613q-24 0 -38 10t-24 22.5t-19.5 22.5t-23.5 10q-17 0 -31 -17t-22 -47h-59q7 24 17 46
t24 39.5t32 27.5t41 10q24 0 38.5 -10t25 -22.5t19.5 -22.5t23 -10q21 0 32.5 17t20.5 48h58q-6 -22 -14.5 -44t-21.5 -40t-32 -29t-46 -11z" />
    <glyph glyph-name="Umacron" unicode="&#x16a;" horiz-adv-x="704" 
d="M218 750l-91 -468q-12 -61 -8.5 -103.5t23.5 -69t56.5 -38.5t89.5 -12q55 0 97 12t72.5 38.5t50.5 69t32 103.5l91 468h75l-94 -482q-27 -139 -103 -210t-219 -71q-146 0 -207 70.5t-32 219.5l92 473h75zM303 915h279l-11 -60h-279z" />
    <glyph glyph-name="umacron" unicode="&#x16b;" horiz-adv-x="570" 
d="M177 548l-74 -382q-11 -54 3.5 -81t66.5 -27q42 0 94.5 17t100.5 47l84 426h73l-106 -548h-64l2 56q-47 -29 -99.5 -47.5t-103.5 -18.5q-84 0 -112.5 47t-12.5 127l75 384h73zM197 715h279l-11 -60h-279z" />
    <glyph glyph-name="Ubreve" unicode="&#x16c;" horiz-adv-x="704" 
d="M218 750l-91 -468q-12 -61 -8.5 -103.5t23.5 -69t56.5 -38.5t89.5 -12q55 0 97 12t72.5 38.5t50.5 69t32 103.5l91 468h75l-94 -482q-27 -139 -103 -210t-219 -71q-146 0 -207 70.5t-32 219.5l92 473h75zM430 806q-30 0 -52 10.5t-36 29.5t-19 44t-2 54h53
q-2 -40 11.5 -61t47.5 -21q38 0 60.5 22.5t33.5 59.5h56q-14 -61 -51.5 -99.5t-101.5 -38.5z" />
    <glyph glyph-name="ubreve" unicode="&#x16d;" horiz-adv-x="570" 
d="M177 548l-74 -382q-11 -54 3.5 -81t66.5 -27q42 0 94.5 17t100.5 47l84 426h73l-106 -548h-64l2 56q-47 -29 -99.5 -47.5t-103.5 -18.5q-84 0 -112.5 47t-12.5 127l75 384h73zM324 606q-30 0 -52 10.5t-36 29.5t-19 44t-2 54h53q-2 -40 11.5 -61t47.5 -21q38 0 60.5 22.5
t33.5 59.5h56q-14 -61 -51.5 -99.5t-101.5 -38.5z" />
    <glyph glyph-name="Uring" unicode="&#x16e;" horiz-adv-x="704" 
d="M218 750l-91 -468q-12 -61 -8.5 -103.5t23.5 -69t56.5 -38.5t89.5 -12q55 0 97 12t72.5 38.5t50.5 69t32 103.5l91 468h75l-94 -482q-27 -139 -103 -210t-219 -71q-146 0 -207 70.5t-32 219.5l92 473h75zM438 839q26 0 45.5 19t19.5 50q0 41 -42 41q-26 0 -45.5 -19
t-19.5 -50q0 -41 42 -41zM468 993q38 0 60.5 -24t22.5 -57q0 -24 -9.5 -45.5t-25.5 -37.5t-38 -25t-47 -9q-38 0 -60.5 24t-22.5 57q0 24 9.5 45.5t25.5 37.5t38 25t47 9z" />
    <glyph glyph-name="uring" unicode="&#x16f;" horiz-adv-x="570" 
d="M177 548l-74 -382q-11 -54 3.5 -81t66.5 -27q42 0 94.5 17t100.5 47l84 426h73l-106 -548h-64l2 56q-47 -29 -99.5 -47.5t-103.5 -18.5q-84 0 -112.5 47t-12.5 127l75 384h73zM334 639q26 0 45.5 19t19.5 50q0 41 -42 41q-26 0 -45.5 -19t-19.5 -50q0 -41 42 -41z
M364 793q38 0 60.5 -24t22.5 -57q0 -24 -9.5 -45.5t-25.5 -37.5t-38 -25t-47 -9q-38 0 -60.5 24t-22.5 57q0 24 9.5 45.5t25.5 37.5t38 25t47 9z" />
    <glyph glyph-name="Uhungarumlaut" unicode="&#x170;" horiz-adv-x="704" 
d="M218 750l-91 -468q-12 -61 -8.5 -103.5t23.5 -69t56.5 -38.5t89.5 -12q55 0 97 12t72.5 38.5t50.5 69t32 103.5l91 468h75l-94 -482q-27 -139 -103 -210t-219 -71q-146 0 -207 70.5t-32 219.5l92 473h75zM545 940h79l-95 -134h-58zM395 940h79l-95 -134h-60z" />
    <glyph glyph-name="uhungarumlaut" unicode="&#x171;" horiz-adv-x="570" 
d="M177 548l-74 -382q-11 -54 3.5 -81t66.5 -27q42 0 94.5 17t100.5 47l84 426h73l-106 -548h-64l2 56q-47 -29 -99.5 -47.5t-103.5 -18.5q-84 0 -112.5 47t-12.5 127l75 384h73zM437 740h79l-95 -134h-58zM287 740h79l-95 -134h-60z" />
    <glyph glyph-name="Uogonek" unicode="&#x172;" horiz-adv-x="704" 
d="M311 -223q-61 0 -89 30t-20 72l2 11q6 32 32 57t58 40h-4q-146 0 -207 70.5t-32 219.5l92 473h75l-91 -468q-12 -61 -8.5 -103.5t23.5 -69t56.5 -38.5t89.5 -12q55 0 97 12t72.5 38.5t50.5 69t32 103.5l91 468h75l-94 -482q-22 -110 -72.5 -177t-140.5 -91
q-48 -22 -80.5 -51t-37.5 -59l-1 -6q-4 -24 8.5 -35t50.5 -11q14 0 32.5 2t29.5 5l-12 -58q-14 -4 -34 -7t-44 -3z" />
    <glyph glyph-name="uogonek" unicode="&#x173;" horiz-adv-x="570" 
d="M177 548l-74 -382q-11 -54 3.5 -81t66.5 -27q42 0 94.5 17t100.5 47l84 426h73l-106 -548q-48 -22 -80.5 -51t-37.5 -59l-1 -6q-4 -24 8.5 -35t50.5 -11q14 0 32.5 2t29.5 5l-12 -58q-14 -4 -34 -7t-44 -3q-61 0 -89 30t-20 72l2 11q3 19 15.5 37t30.5 32t40 25t45 17
l2 55q-47 -29 -99.5 -47.5t-103.5 -18.5q-84 0 -112.5 47t-12.5 127l75 384h73z" />
    <glyph glyph-name="Wcircumflex" unicode="&#x174;" horiz-adv-x="915" 
d="M513 464q-4 39 -5.5 85.5t1.5 100.5q-21 -55 -41.5 -101t-38.5 -85l-212 -464h-81l-55 750h77l29 -493q2 -35 4 -76.5t0 -92.5q20 50 38 92t35 77l225 493h72l38 -493q2 -31 3.5 -72t-0.5 -93q17 45 35 87.5t34 77.5l225 493h79l-354 -750h-72zM529 954h67l68 -148h-58
l-50 95l-89 -95h-64z" />
    <glyph glyph-name="wcircumflex" unicode="&#x175;" horiz-adv-x="776" 
d="M130 548l40 -345q2 -27 4.5 -51.5t4.5 -59.5h1q14 36 23.5 60t23.5 51l164 345h66l33 -344q2 -26 3.5 -52.5t2.5 -59.5h1q14 33 26 59t25 52l167 345h72l-272 -548h-71l-31 338q-3 32 -4.5 60.5t0.5 59.5h-1q-6 -17 -11 -31t-10.5 -27t-11.5 -26t-13 -29l-165 -345h-68
l-72 548h73zM429 754h67l68 -148h-58l-50 95l-89 -95h-64z" />
    <glyph glyph-name="Ycircumflex" unicode="&#x176;" horiz-adv-x="574" 
d="M317 313l-60 -313h-75l60 311l-162 439h76l89 -253l22 -64t19 -66q21 35 44 67t45 63l181 253h85zM364 954h67l68 -148h-58l-50 95l-89 -95h-64z" />
    <glyph glyph-name="ycircumflex" unicode="&#x177;" horiz-adv-x="517" 
d="M103 -213h-73l123 213l-105 548h74l60 -345q6 -33 9 -64t7 -74q21 45 38 77.5t34 63.5l191 342h76zM292 754h67l68 -148h-58l-50 95l-89 -95h-64z" />
    <glyph glyph-name="Ydieresis" unicode="&#x178;" horiz-adv-x="574" 
d="M317 313l-60 -313h-75l60 311l-162 439h76l89 -253l22 -64t19 -66q21 35 44 67t45 63l181 253h85zM269 912h78l-17 -89h-78zM440 912h78l-17 -89h-78z" />
    <glyph glyph-name="Zacute" unicode="&#x179;" horiz-adv-x="590" 
d="M139 158q-19 -22 -38.5 -43.5t-45.5 -48.5h443l-12 -66h-533l10 59l470 533q20 22 41.5 45.5t43.5 46.5h-417l12 66h506l-12 -59zM429 940h98l-135 -134h-79z" />
    <glyph glyph-name="zacute" unicode="&#x17a;" horiz-adv-x="473" 
d="M145 151q-21 -23 -41.5 -44.5t-44.5 -44.5h325l-11 -62h-412l10 55l320 353q20 21 38 40t37 37h-300l12 63h388l-11 -56zM333 740h98l-135 -134h-79z" />
    <glyph glyph-name="Zdotaccent" unicode="&#x17b;" horiz-adv-x="590" 
d="M139 158q-19 -22 -38.5 -43.5t-45.5 -48.5h443l-12 -66h-533l10 59l470 533q20 22 41.5 45.5t43.5 46.5h-417l12 66h506l-12 -59zM359 913h79l-17 -89h-79z" />
    <glyph glyph-name="zdotaccent" unicode="&#x17c;" horiz-adv-x="473" 
d="M145 151q-21 -23 -41.5 -44.5t-44.5 -44.5h325l-11 -62h-412l10 55l320 353q20 21 38 40t37 37h-300l12 63h388l-11 -56zM263 713h79l-17 -89h-79z" />
    <glyph glyph-name="Zcaron" unicode="&#x17d;" horiz-adv-x="590" 
d="M139 158q-19 -22 -38.5 -43.5t-45.5 -48.5h443l-12 -66h-533l10 59l470 533q20 22 41.5 45.5t43.5 46.5h-417l12 66h506l-12 -59zM280 944h58l49 -95l89 95h65l-127 -148h-67z" />
    <glyph glyph-name="zcaron" unicode="&#x17e;" horiz-adv-x="473" 
d="M145 151q-21 -23 -41.5 -44.5t-44.5 -44.5h325l-11 -62h-412l10 55l320 353q20 21 38 40t37 37h-300l12 63h388l-11 -56zM186 744h58l49 -95l89 95h65l-127 -148h-67z" />
    <glyph glyph-name="longs" unicode="&#x17f;" horiz-adv-x="311" 
d="M77 0h-73l125 646q14 69 52.5 98.5t107.5 29.5q29 0 54 -4t38 -9l-11 -58q-16 3 -33 5.5t-36 2.5q-23 0 -40 -3t-29 -12t-20 -25.5t-13 -42.5z" />
    <glyph glyph-name="uni0180" unicode="&#x180;" horiz-adv-x="581" 
d="M54 672h80l15 78l76 24l-20 -102h159l-11 -60h-160l-25 -128q18 10 42 21.5t52 21t58.5 15.5t60.5 6q48 0 79.5 -17t48 -46t19.5 -66.5t-5 -77.5l-26 -135q-12 -63 -35.5 -104.5t-55.5 -66.5t-72.5 -35.5t-86.5 -10.5q-56 0 -97 18.5t-70 41.5l-15 -49h-61l118 612h-79z
M97 112q19 -18 41 -29t43 -17t39.5 -8t32.5 -2q74 0 116 39.5t59 128.5l20 108q15 82 -8.5 115t-86.5 33q-24 0 -50.5 -5.5t-52.5 -14.5t-50 -20t-45 -23z" />
    <glyph glyph-name="uni0181" unicode="&#x181;" horiz-adv-x="716" 
d="M227 682h-33q-33 0 -53.5 -9t-31.5 -27t-14.5 -43.5t-2.5 -58.5h-63q-2 46 5.5 84t28 65t55.5 42t89 15h269q54 0 95.5 -7.5t67.5 -26.5t36 -52t1 -85l-8 -46q-5 -24 -14 -46.5t-25 -41.5t-40.5 -33.5t-58.5 -22.5q69 -10 94 -50t14 -91l-15 -74q-10 -54 -30 -88t-54 -53
t-84 -26t-119 -7h-241zM239 358l-57 -291h165q52 0 88 5t59.5 18.5t37 37t20.5 60.5l11 55q6 29 2.5 50.5t-20 36t-48 21.5t-81.5 7h-177zM303 683l-52 -262h172q33 0 61 5t50 17t37 33.5t21 54.5l10 51q6 31 2.5 50.5t-20 30.5t-47 15.5t-77.5 4.5h-157z" />
    <glyph glyph-name="uni0182" unicode="&#x182;" horiz-adv-x="632" 
d="M153 750h436l-13 -68h-361l-50 -256h173q133 0 184 -42.5t31 -145.5l-12 -62q-11 -59 -34 -94t-57.5 -53t-81.5 -23.5t-107 -5.5h-253zM276 69q48 0 81.5 5t55.5 18.5t35 37t20 60.5l10 53q7 36 2.5 58.5t-22.5 35t-50 17.5t-80 5h-176l-57 -290h181z" />
    <glyph glyph-name="uni0183" unicode="&#x183;" horiz-adv-x="580" 
d="M377 522q48 0 79.5 -17t48 -46t19.5 -66.5t-5 -77.5l-22 -109q-13 -63 -36 -104.5t-55.5 -66.5t-72.5 -35.5t-86 -10.5q-56 0 -97 18.5t-70 41.5l-15 -49h-61l147 759h413l-13 -67h-342l-45 -234q18 10 42 21.5t52 21t58.5 15.5t60.5 6zM97 112q19 -18 41 -29t43 -17
t39.5 -8t32.5 -2q74 0 116 39.5t59 128.5l16 82q15 82 -8.5 115t-86.5 33q-24 0 -50.5 -5.5t-52.5 -14.5t-50 -20t-45 -23z" />
    <glyph glyph-name="uni0184" unicode="&#x184;" horiz-adv-x="644" 
d="M151 750h75l-48 -250h194q63 0 105 -10.5t64.5 -34.5t27.5 -62.5t-6 -93.5l-23 -118q-11 -55 -31 -90t-50 -55.5t-70 -28t-91 -7.5h-75q-114 0 -156 49t-21 161zM309 69q40 0 67.5 7.5t45.5 21.5t27.5 35t14.5 48l26 130q7 37 5 61t-17 37.5t-44.5 18.5t-78.5 5h-190
l-48 -244q-6 -32 -4.5 -54.5t14 -37t37.5 -21.5t66 -7h79z" />
    <glyph glyph-name="uni0185" unicode="&#x185;" 
d="M149 750l76 24l-54 -276q18 10 42 21.5t52 21t58.5 15.5t60.5 6q48 0 79.5 -17t48 -46t19.5 -66.5t-5 -77.5l-26 -136q-23 -118 -87.5 -173.5t-176.5 -55.5h-24q-103 0 -150 36.5t-30 119.5zM106 161q-11 -57 16 -82t105 -25h18q80 0 123 41t60 129l23 122q16 82 -8 115
t-87 33q-24 0 -50.5 -5.5t-52.5 -14.5t-50 -20t-45 -23z" />
    <glyph glyph-name="uni0186" unicode="&#x186;" horiz-adv-x="573" 
d="M120 736q38 14 87 19t102 5q73 0 126.5 -19t84.5 -60.5t39 -106.5t-11 -157l-25 -123q-17 -82 -43 -139.5t-68.5 -94t-104 -53.5t-148.5 -17q-24 0 -50 1.5t-51 5t-47.5 9t-40.5 14.5l13 67q45 -16 92.5 -21.5t91.5 -5.5q69 0 117.5 15t81 45t52 75t31.5 106l28 140
q12 63 9.5 110t-24 78t-63.5 46.5t-108 15.5q-50 0 -99.5 -5.5t-84.5 -16.5z" />
    <glyph glyph-name="uni0187" unicode="&#x187;" horiz-adv-x="600" 
d="M600 669q-30 11 -78.5 16.5t-98.5 5.5q-67 0 -115 -15.5t-81 -46.5t-54 -78t-33 -110l-28 -140q-12 -61 -10 -106t23 -75t64 -45t112 -15q43 0 94 5.5t102 21.5l-13 -68q-20 -8 -45 -13t-51.5 -9t-53 -5.5t-50.5 -1.5q-86 0 -141 21.5t-83 63.5t-31.5 104.5t13.5 145.5
l25 125q18 92 50.5 152t79 95t106 49t130.5 14q29 0 58.5 -2t56.5 -7l3 18q7 38 19 64t29 41.5t40.5 22.5t54.5 7q20 0 37 -2.5t29 -6.5l-12 -61q-11 3 -22 5t-31 2q-32 0 -50.5 -17.5t-26.5 -62.5l-10 -52z" />
    <glyph glyph-name="uni0188" unicode="&#x188;" horiz-adv-x="512" 
d="M450 481q-32 11 -64.5 14t-67.5 3q-48 0 -83 -13t-59 -36.5t-39 -56t-23 -72.5l-18 -86q-8 -41 -6.5 -74.5t16.5 -57t46 -36.5t82 -13q32 0 68.5 5t78.5 19l-12 -63q-36 -15 -78 -19.5t-77 -4.5q-120 0 -167.5 61.5t-21.5 194.5l15 75q14 69 40 115.5t63 74.5t83 39.5
t99 11.5q18 0 36.5 -1.5t35.5 -3.5l3 13q7 38 19.5 63t30 40t40 21t51.5 6q20 0 37 -2.5t28 -6.5l-11 -60q-11 3 -23.5 5t-31.5 2q-33 0 -50.5 -18t-25.5 -63l-11 -59z" />
    <glyph glyph-name="uni0189" unicode="&#x189;" horiz-adv-x="693" 
d="M16 420h82l64 330h239q83 0 139 -17t86.5 -56.5t35.5 -103t-13 -156.5l-23 -118q-17 -86 -42 -143.5t-66 -92t-103.5 -49t-153.5 -14.5h-244l67 350h-82zM224 680l-51 -260h224l-14 -70h-224l-55 -280h164q76 0 125.5 14.5t80.5 44t48.5 73t28.5 101.5l27 138
q12 62 10.5 107t-22.5 74.5t-63 43.5t-110 14h-169z" />
    <glyph glyph-name="uni018A" unicode="&#x18a;" horiz-adv-x="771" 
d="M95 0l132 682h-33q-33 0 -53.5 -9t-31.5 -27t-14.5 -43.5t-2.5 -58.5h-63q-2 46 5.5 84t28 65t55.5 42t89 15h272q83 0 139 -17t86.5 -56.5t35.5 -103t-13 -156.5l-23 -118q-17 -86 -42 -143.5t-66 -92t-103.5 -49t-153.5 -14.5h-244zM302 680l-120 -610h164
q76 0 125.5 14.5t80.5 44t48.5 73t28.5 101.5l27 138q12 62 10.5 107t-22.5 74.5t-63 43.5t-110 14h-169z" />
    <glyph glyph-name="uni018B" unicode="&#x18b;" horiz-adv-x="634" 
d="M481 0h-253q-60 0 -104.5 9t-71.5 32t-36 61.5t2 97.5l12 62q10 50 30.5 82t55 50t83 25t113.5 7h175l50 256h-361l13 68h437zM417 69l57 290h-175q-48 0 -82 -5t-57 -17.5t-37 -35t-21 -58.5l-10 -53q-7 -37 -3.5 -60.5t20.5 -37t48.5 -18.5t79.5 -5h180z" />
    <glyph glyph-name="uni018C" unicode="&#x18c;" horiz-adv-x="586" 
d="M264 522q31 0 59 -6.5t52 -16t43.5 -21t33.5 -20.5l45 234h-341l13 67h413l-147 -759h-61l3 49q-38 -23 -86 -41.5t-105 -18.5q-45 0 -81 12t-58.5 38.5t-29.5 69.5t5 106l22 114q8 40 25 75.5t44.5 61.5t65 41t85.5 15zM439 392q-16 12 -36 23t-42 19.5t-46 14t-48 5.5
q-63 0 -100.5 -33t-53.5 -115l-16 -82q-17 -89 9 -128.5t100 -39.5q27 0 75.5 10.5t103.5 46.5z" />
    <glyph glyph-name="uni018D" unicode="&#x18d;" horiz-adv-x="554" 
d="M280 -99q3 17 -6 31t-30.5 30.5t-54.5 37.5t-78 52q-61 42 -76.5 105t-1.5 138l8 40q23 117 93 172t177 55q111 0 158 -66.5t24 -187.5l-8 -38q-22 -112 -87.5 -166t-167.5 -59q40 -24 66 -43t40 -36.5t17 -35t-1 -37.5l-2 -9q-5 -22 -16.5 -41.5t-34 -34t-56.5 -23
t-84 -8.5q-41 0 -75.5 7t-66.5 24l12 64q32 -17 68.5 -24.5t69.5 -7.5q31 0 51.5 5t33.5 13.5t19 18.5t8 19zM300 498q-35 0 -65.5 -10t-55 -31.5t-42.5 -56.5t-28 -85l-5 -30q-10 -50 -6 -85t20 -57t42.5 -32.5t62.5 -10.5q72 0 122.5 43t70.5 142l5 30q10 50 6 85
t-20.5 56.5t-43.5 31.5t-63 10z" />
    <glyph glyph-name="uni018E" unicode="&#x18e;" horiz-adv-x="595" 
d="M587 750l-145 -750h-462l12 70h387l56 285h-342l14 69h342l50 256h-374l13 70h449z" />
    <glyph glyph-name="uni018F" unicode="&#x18f;" horiz-adv-x="676" 
d="M553 406l9 43q13 64 9 109.5t-28 75t-69 43.5t-113 14q-40 0 -90 -7.5t-101 -24.5l14 73q21 7 46.5 13t51.5 10t51.5 6t48.5 2q86 0 142 -23t85 -67.5t33.5 -110t-12.5 -151.5l-18 -90q-19 -93 -51 -157t-75.5 -103t-98 -56.5t-117.5 -17.5t-113 19.5t-81.5 62.5
t-41.5 111t9 165l12 61h498zM111 308q-11 -57 -8 -103.5t22 -79.5t55.5 -51t93.5 -18q55 0 97.5 17t74 48.5t52.5 77t34 102.5l9 39h-423z" />
    <glyph glyph-name="uni0190" unicode="&#x190;" horiz-adv-x="565" 
d="M301 353q-37 0 -75 -7.5t-68.5 -27t-50 -55t-19.5 -90.5q0 -54 40.5 -84t130.5 -30q60 0 117.5 10t102.5 27l-15 -74q-39 -15 -95 -25t-126 -10q-118 0 -177.5 48.5t-59.5 131.5q0 95 48.5 150.5t137.5 74.5q-27 9 -45.5 23.5t-30 32.5t-16 38.5t-4.5 40.5
q0 59 21.5 103.5t61.5 74t95.5 44t123.5 14.5q60 0 105 -8.5t80 -23.5l-14 -68q-39 16 -82 23t-94 7q-218 0 -218 -163q0 -51 35.5 -80t99.5 -29h124l-13 -68h-120z" />
    <glyph glyph-name="uni0191" unicode="&#x191;" horiz-adv-x="556" 
d="M592 750l-13 -70h-364l-55 -278h334l-13 -70h-334l-57 -295l-10 -55q-8 -41 -19 -70.5t-29.5 -48.5t-45 -28t-64.5 -9q-22 0 -41.5 3t-31.5 8l13 65q11 -3 25.5 -6t34.5 -3q21 0 35.5 5.5t23.5 17.5t15 31t11 46l1 7l4 23l3 14l138 713h439z" />
    <glyph glyph-name="florin" unicode="&#x192;" horiz-adv-x="357" 
d="M368 548l-13 -64h-149l-96 -500q-8 -44 -20.5 -74t-31.5 -49t-46 -27t-64 -8q-22 0 -42 3.5t-34 8.5l12 61q11 -4 27.5 -6.5t36.5 -2.5q22 0 37 5.5t25.5 17.5t17 31t11.5 46l95 494h-94l13 64h94l19 98q14 70 54 99t101 29q29 0 55 -3.5t41 -8.5l-11 -58q-16 3 -33 5
t-35 2q-23 0 -40.5 -3t-29.5 -12t-20 -25.5t-13 -42.5l-16 -80h149z" />
    <glyph glyph-name="uni0193" unicode="&#x193;" horiz-adv-x="665" 
d="M615 709l-8 -40q-37 11 -78 16.5t-96 5.5q-76 0 -127 -19.5t-84 -53.5t-51.5 -79t-28.5 -97l-25 -130q-12 -60 -10.5 -107t23 -79t67 -49t122.5 -17q38 0 74.5 3.5t73.5 11.5l52 261h-163l12 66h237l-73 -379q-25 -9 -55 -15.5t-60.5 -10.5t-60.5 -5.5t-56 -1.5
q-90 0 -147.5 22t-87 64.5t-34 104.5t10.5 142l24 120q17 87 47.5 147t77 98t109.5 55t144 17q29 0 57 -2t54 -6l3 17q7 38 19 64t29 41.5t40.5 22.5t54.5 7q20 0 37 -2.5t29 -6.5l-12 -61q-11 3 -22 5t-31 2q-32 0 -50.5 -17.5t-26.5 -62.5z" />
    <glyph glyph-name="uni0194" unicode="&#x194;" horiz-adv-x="574" 
d="M327 371l46 -112q17 -36 25.5 -70t2.5 -63l-1 -13q-12 -58 -63.5 -91.5t-125.5 -33.5q-40 0 -68.5 11t-45.5 29t-23.5 41t-1.5 48l2 10q7 35 29.5 67t40.5 53l102 126l-154 377h81l126 -311l252 311h84zM273 306l-69 -86q-14 -17 -23.5 -29.5t-15.5 -22.5t-9.5 -19.5
t-5.5 -19.5l-1 -6q-8 -37 14 -54.5t60 -17.5q42 0 70.5 19.5t35.5 52.5l1 6q5 20 -0.5 37.5t-20.5 53.5z" />
    <glyph glyph-name="uni0195" unicode="&#x195;" horiz-adv-x="895" 
d="M451 170q-5 -27 -2.5 -48t15 -36t36 -22.5t60.5 -7.5q68 0 106 30t49 84l73 378h72l-75 -384q-16 -82 -70.5 -128t-156.5 -46q-103 0 -149.5 48t-29.5 139l39 204q11 59 -2 86t-67 27q-44 0 -91.5 -16.5t-98.5 -45.5l-83 -432h-72l145 750l77 24l-54 -277q46 27 96.5 46
t101.5 19q42 0 69 -13t41 -36.5t16.5 -55.5t-4.5 -71z" />
    <glyph glyph-name="uni0196" unicode="&#x196;" horiz-adv-x="265" 
d="M149 750l77 24l-123 -630q-11 -53 -1 -71t48 -18q20 0 42.5 3t42.5 11l-12 -64q-20 -8 -46 -11.5t-51 -3.5q-64 0 -87.5 36t-8.5 112z" />
    <glyph glyph-name="uni0197" unicode="&#x197;" horiz-adv-x="280" 
d="M186 423h124l-12 -63h-124l-69 -360h-75l69 360h-122l12 63h122l64 327h75z" />
    <glyph glyph-name="uni0198" unicode="&#x198;" horiz-adv-x="634" 
d="M672 689q-6 3 -13.5 5t-18.5 2q-12 0 -20.5 -3.5t-18 -11.5t-21 -21t-28.5 -32l-223 -249l214 -379h-83l-192 344h-119l-66 -344h-75l145 750h75l-66 -337h109l240 272q19 21 34 35.5t29 23.5t29.5 13t36.5 4q16 0 26 -3t18 -8z" />
    <glyph glyph-name="uni0199" unicode="&#x199;" horiz-adv-x="510" 
d="M128 636q14 76 49 107t99 31q22 0 38 -2.5t28 -7.5l-12 -59q-11 3 -23.5 5.5t-31.5 2.5q-37 0 -53 -20t-25 -68l-57 -291h73l217 214h94l-257 -248l157 -300h-81l-134 269h-81l-52 -269h-72z" />
    <glyph glyph-name="uni019A" unicode="&#x19a;" horiz-adv-x="298" 
d="M2 427h116l63 323l77 24l-68 -347h118l-12 -63h-118l-70 -364h-72l70 364h-116z" />
    <glyph glyph-name="uni019B" unicode="&#x19b;" horiz-adv-x="471" 
d="M231 598l-14 81q-2 17 -11.5 25.5t-30.5 8.5q-16 0 -33 -5t-25 -9l11 59q34 16 72 16q42 0 59.5 -21.5t23.5 -55.5l13 -71l155 68l-12 -60l-134 -58l104 -576h-69l-59 342q-3 15 -5.5 28t-4.5 26t-4 28.5t-4 35.5q-11 -21 -19 -37.5t-16 -31.5t-17 -30.5t-20 -34.5
l-190 -326h-81l323 533l-3 15l-186 -80l12 59z" />
    <glyph glyph-name="uni019C" unicode="&#x19c;" horiz-adv-x="938" 
d="M222 750l-113 -576q-10 -51 7 -79.5t66 -28.5q37 0 91.5 13.5t106.5 45.5l121 625h75l-113 -576q-9 -52 8.5 -80t66.5 -28q16 0 39.5 3t49.5 10.5t53.5 18.5t52.5 28l122 624h75l-145 -750h-67l3 57q-45 -29 -94.5 -46.5t-109.5 -17.5q-45 0 -77.5 20.5t-46.5 58.5
q-60 -41 -112 -60t-113 -19q-78 0 -113.5 49.5t-18.5 134.5l111 573h75z" />
    <glyph glyph-name="uni019D" unicode="&#x19d;" horiz-adv-x="696" 
d="M549 0h-78l-219 514q-13 30 -25 64t-21 71l-128 -667q-8 -41 -19 -70.5t-29 -48.5t-44 -28t-64 -9q-22 0 -41.5 3t-31.5 8l13 65q11 -3 25.5 -6t34.5 -3q21 0 35 6t23.5 18t15.5 31.5t11 46.5l146 755h78l215 -511q8 -19 14.5 -35.5t12 -32.5t11 -33t11.5 -36l125 648h74
z" />
    <glyph glyph-name="uni019E" unicode="&#x19e;" horiz-adv-x="571" 
d="M312 -216l116 597q11 60 -3.5 86.5t-68.5 26.5q-42 0 -94 -16t-103 -47l-83 -431h-72l106 548h64l-3 -52q44 26 99 46t106 20q43 0 71 -13t43 -36.5t17.5 -56t-4.5 -71.5l-118 -601h-73z" />
    <glyph glyph-name="uni019F" unicode="&#x19f;" horiz-adv-x="719" 
d="M656 309q-32 -163 -125.5 -242t-242.5 -79q-74 0 -127.5 23t-85 67.5t-40 108t7.5 144.5l21 108q31 162 125 242.5t243 80.5q74 0 127.5 -23.5t84.5 -68t39.5 -108.5t-6.5 -145zM586 347h-464l-3 -16q-26 -140 19.5 -206t159.5 -66q110 0 184 64.5t101 204.5zM135 411
h464l2 11q28 139 -21 204t-159 65q-111 0 -183.5 -65t-100.5 -204z" />
    <glyph glyph-name="Ohorn" unicode="&#x1a0;" horiz-adv-x="752" 
d="M656 309q-32 -163 -125.5 -242t-242.5 -79q-74 0 -127.5 23t-85 67.5t-40 108t7.5 144.5l21 108q31 162 125 242.5t243 80.5q77 0 130.5 -25t84.5 -72h39q33 0 52.5 7.5t30.5 23.5t14 41t3 61h65q1 -49 -7 -86t-26.5 -62t-49.5 -37.5t-77 -12.5h-15q21 -75 1 -183z
M601 422q28 139 -21 204t-159 65q-111 0 -183.5 -65t-100.5 -204l-18 -94q-27 -140 20.5 -204.5t158.5 -64.5q110 0 184 64.5t101 204.5z" />
    <glyph glyph-name="ohorn" unicode="&#x1a1;" horiz-adv-x="603" 
d="M490 233q-47 -243 -277 -243q-113 0 -162.5 68.5t-26.5 189.5l13 68q24 121 95 183.5t184 62.5q70 0 115 -26.5t65 -76.5h19q29 0 45 11t23.5 29t9.5 41t2 47h61q1 -40 -4.5 -75t-22 -61.5t-45 -41.5t-71.5 -15h-3q2 -21 0 -44t-7 -49zM433 311q19 96 -14 142t-111 46
t-128.5 -46t-69.5 -142l-14 -70q-19 -94 14 -141t111 -47q160 0 198 188z" />
    <glyph glyph-name="uni01A2" unicode="&#x1a2;" horiz-adv-x="997" 
d="M656 309q-32 -163 -125.5 -242t-242.5 -79q-74 0 -127.5 23t-85 67.5t-40 108t7.5 144.5l21 108q31 162 125 242.5t243 80.5q115 0 180 -57q35 20 84.5 38.5t111.5 18.5q90 0 130 -46.5t24 -126.5l-157 -805h-73l155 795q5 28 4 49t-12 35.5t-32.5 22t-57.5 7.5
q-32 0 -67.5 -10t-68.5 -28q52 -91 24 -238zM601 422q28 139 -21 204t-159 65q-111 0 -183.5 -65t-100.5 -204l-18 -94q-27 -140 20.5 -204.5t158.5 -64.5q110 0 184 64.5t101 204.5z" />
    <glyph glyph-name="uni01A3" unicode="&#x1a3;" horiz-adv-x="823" 
d="M490 233q-47 -243 -277 -243q-113 0 -162.5 68.5t-26.5 189.5l13 68q24 121 95 183.5t184 62.5q92 0 143 -48q30 20 70.5 34t88.5 14q44 0 74 -12.5t46.5 -35.5t20.5 -55t-4 -72l-117 -603h-73l118 602q5 28 5 49t-8.5 35.5t-26.5 21.5t-50 7q-26 0 -54 -7t-57 -24
q31 -66 11 -167zM433 311q19 96 -14 142t-111 46t-128.5 -46t-69.5 -142l-14 -70q-19 -94 14 -141t111 -47q160 0 198 188z" />
    <glyph glyph-name="uni01A4" unicode="&#x1a4;" horiz-adv-x="703" 
d="M227 682h-33q-33 0 -53.5 -9t-31.5 -27t-14.5 -43.5t-2.5 -58.5h-63q-2 46 5.5 84t28 65t55.5 42t89 15h295q54 0 97 -8.5t70 -31t36.5 -63.5t-3.5 -105l-10 -51q-12 -60 -34.5 -96.5t-58.5 -56.5t-86 -26.5t-115 -6.5h-170l-58 -305h-75zM302 681l-60 -308h165
q52 0 89 5t61.5 18.5t38.5 37t22 61.5l13 67q7 34 2.5 57t-21 37t-46.5 19.5t-73 5.5h-191z" />
    <glyph glyph-name="uni01A5" unicode="&#x1a5;" 
d="M384 562q49 0 80 -17.5t47.5 -46.5t19.5 -66t-5 -77l-30 -155q-12 -63 -37 -103.5t-60 -64t-80 -33t-96 -9.5q-15 0 -35 2t-40.5 5t-39 8t-31.5 11l-45 -232h-71l135 692l14 72l17 88q14 76 49 107t99 31q22 0 38 -2.5t28 -7.5l-12 -59q-11 3 -23.5 5.5t-31.5 2.5
q-37 0 -53 -20t-25 -68l-25 -127q18 9 41.5 20.5t51.5 21t58 16t62 6.5zM89 79q27 -11 64 -17t69 -6q46 0 80.5 8.5t59.5 28t41 52t25 80.5l23 122q17 82 -8 114.5t-88 32.5q-23 0 -49 -5.5t-52 -14t-50.5 -19.5t-45.5 -23z" />
    <glyph glyph-name="uni01A6" unicode="&#x1a6;" horiz-adv-x="615" 
d="M153 750h75l-21 -106h189q54 0 96 -9t68.5 -32.5t35.5 -64.5t-3 -105l-8 -43q-8 -44 -22.5 -73.5t-36 -49t-49.5 -31t-64 -18.5l102 -324h-78l-97 315h-217l-40 -209h-75zM194 575l-58 -299h165q52 0 89 5t61.5 18.5t38.5 37t22 60.5l11 58q7 34 2.5 57.5t-21 37
t-46 19.5t-73.5 6h-191z" />
    <glyph glyph-name="uni01A7" unicode="&#x1a7;" horiz-adv-x="574" 
d="M347 431q38 10 65.5 23t45 33t26 47.5t8.5 66.5q0 52 -36.5 71.5t-122.5 19.5q-46 0 -91 -6.5t-89 -18.5l12 68q19 6 43 10.5t49.5 8t52 5t50.5 1.5q107 0 157 -40t50 -116q0 -56 -14 -95.5t-40.5 -68t-66 -47t-90.5 -31.5l-110 -28q-45 -12 -76.5 -25.5t-50.5 -33
t-27.5 -47t-8.5 -67.5q0 -52 36 -77t117 -25q45 0 102.5 8.5t138.5 36.5l-15 -75q-62 -23 -123 -31t-117 -8q-62 0 -103 13.5t-66 36t-35.5 53t-10.5 64.5q0 61 16 102t45.5 68.5t72.5 44.5t97 31z" />
    <glyph glyph-name="uni01A8" unicode="&#x1a8;" horiz-adv-x="460" 
d="M241 319q37 9 61 19t37.5 23.5t19 32t5.5 44.5q0 32 -26 47t-89 15q-35 0 -71.5 -6t-69.5 -15l13 63q29 10 68 15t81 5q83 0 123 -30.5t40 -87.5q0 -43 -9.5 -72.5t-31.5 -51t-56.5 -36t-83.5 -27.5l-47 -12q-42 -11 -67 -21t-38.5 -23t-18 -30.5t-4.5 -42.5
q0 -37 23.5 -55.5t85.5 -18.5q38 0 82.5 7t101.5 27l-13 -67q-43 -17 -95.5 -24t-92.5 -7q-48 0 -79.5 11t-50 29t-26.5 42t-8 50q0 49 13.5 80t38 51.5t59.5 32.5t78 22z" />
    <glyph glyph-name="uni01A9" unicode="&#x1a9;" horiz-adv-x="536" 
d="M566 750l-13 -71h-353l171 -311l-284 -295h355l-13 -73h-459l10 58l304 320l-179 319l10 53h451z" />
    <glyph glyph-name="uni01AA" unicode="&#x1aa;" horiz-adv-x="343" 
d="M157 510q-54 0 -80.5 28.5t-26.5 71.5q0 35 11.5 64.5t32.5 51t50.5 33.5t65.5 12q29 0 50 -8t34.5 -22t19.5 -33t6 -41q0 -14 -3 -27l-127 -650q-3 -17 -5 -35t2.5 -32.5t17.5 -23.5t39 -9q42 0 79 14l-12 -64q-20 -7 -41.5 -10.5t-47.5 -3.5q-39 0 -62.5 14t-35 38
t-12 55.5t6.5 66.5l103 528q-14 -10 -30.5 -14t-34.5 -4zM171 568q35 0 59.5 26t24.5 66q0 25 -14.5 39t-41.5 14q-35 0 -59.5 -26t-24.5 -66q0 -25 14.5 -39t41.5 -14z" />
    <glyph glyph-name="uni01AB" unicode="&#x1ab;" horiz-adv-x="385" 
d="M214 484l-65 -337q-11 -53 1 -71.5t51 -18.5q19 0 42 4.5t43 14.5l-13 -66l-5 -26q-8 -44 -20.5 -74t-31.5 -49t-46 -27t-64 -8q-22 0 -42 3.5t-34 8.5l12 61q11 -4 27.5 -6.5t36.5 -2.5q22 0 37 5.5t25.5 17.5t17 31t11.5 46v1q-6 0 -11.5 -0.5t-10.5 -0.5
q-68 0 -91.5 40.5t-10.5 106.5l68 347h-96l13 64h96l24 124l77 24l-28 -148h150l-13 -64h-150z" />
    <glyph glyph-name="uni01AC" unicode="&#x1ac;" horiz-adv-x="640" 
d="M682 679h-241l-132 -679h-76l132 679h-116q-59 0 -81.5 -33t-23.5 -102h-67q0 44 8.5 82t29 65.5t55 43t86.5 15.5h439z" />
    <glyph glyph-name="uni01AD" unicode="&#x1ad;" horiz-adv-x="385" 
d="M214 484l-65 -337q-11 -53 1 -71.5t51 -18.5q19 0 42 4.5t43 14.5l-13 -66q-20 -11 -48.5 -15.5t-49.5 -4.5q-68 0 -91.5 40.5t-10.5 106.5l68 347h-96l13 64h96l17 88q14 76 49 107t99 31q22 0 38 -2.5t28 -7.5l-12 -59q-11 3 -23.5 5.5t-31.5 2.5q-37 0 -52.5 -20
t-24.5 -68l-15 -77h151l-13 -64h-150z" />
    <glyph glyph-name="uni01AE" unicode="&#x1ae;" horiz-adv-x="589" 
d="M90 750h554l-13 -71h-239l-127 -653l-5 -26l-2 -10q-10 -52 -2 -74t49 -22q20 0 35.5 2.5t29.5 6.5l-13 -66q-31 -11 -69 -11q-69 0 -96 38t-11 120l3 16l2 12l3 14l127 653h-239z" />
    <glyph glyph-name="Uhorn" unicode="&#x1af;" horiz-adv-x="772" 
d="M218 750l-91 -468q-12 -61 -8.5 -103.5t23.5 -69t56.5 -38.5t89.5 -12q55 0 97 12t72.5 38.5t50.5 69t32 103.5l91 468h75l-17 -85h17q33 0 52.5 7.5t30.5 23.5t14 41t3 61h65q1 -49 -7 -86t-26.5 -62t-49.5 -37.5t-77 -12.5h-35l-64 -332q-27 -139 -103 -210t-219 -71
q-146 0 -207 70.5t-32 219.5l92 473h75z" />
    <glyph glyph-name="uhorn" unicode="&#x1b0;" horiz-adv-x="618" 
d="M177 548l-74 -382q-11 -54 3.5 -81t66.5 -27q42 0 94.5 17t100.5 47l84 426h73l-18 -89h23q29 0 45 11t23.5 29t9.5 41t2 47h61q1 -40 -4.5 -75t-22 -61.5t-45 -41.5t-71.5 -15h-33l-76 -394h-64l2 56q-47 -29 -99.5 -47.5t-103.5 -18.5q-84 0 -112.5 47t-12.5 127
l75 384h73z" />
    <glyph glyph-name="uni01B1" unicode="&#x1b1;" horiz-adv-x="780" 
d="M92 750h292l-12 -66q-72 -20 -126.5 -84.5t-77.5 -177.5l-19 -98q-14 -69 -6.5 -119.5t31.5 -83.5t63.5 -48.5t90.5 -15.5q53 0 99 15.5t82 48.5t61.5 83.5t39.5 119.5l19 98q22 112 -7 177t-93 85l12 66h292l-13 -68h-175q43 -39 61 -101.5t0 -156.5l-22 -114
q-32 -163 -126.5 -243t-233.5 -80q-70 0 -124 23t-87.5 66.5t-44.5 107t5 144.5l22 114q9 46 25 84t36.5 68t44.5 51.5t49 36.5h-171z" />
    <glyph glyph-name="uni01B2" unicode="&#x1b2;" horiz-adv-x="605" 
d="M290 0h-74l-136 750h77l86 -506q7 -39 12.5 -74.5t10.5 -82.5q22 47 40 82.5t41 74.5l195 347q15 27 21 41t6 33q0 13 -9.5 21.5t-32.5 8.5q-26 0 -51 -7l13 66q17 5 33 6.5t33 1.5q52 0 73.5 -23.5t21.5 -56.5q0 -28 -11.5 -55t-32.5 -65z" />
    <glyph glyph-name="uni01B3" unicode="&#x1b3;" horiz-adv-x="654" 
d="M317 313l-60 -313h-75l60 311l-162 439h76l89 -253l22 -64t19 -66q21 35 44 67t45 63l127 178q16 22 30 38.5t29 27t32.5 16t38.5 5.5q42 0 64 -24t22 -65q0 -26 -7 -52t-18 -54h-62q3 7 6.5 18t6.5 24t5 26t2 25q0 16 -6.5 24t-23.5 8q-18 0 -30 -11.5t-28 -32.5z" />
    <glyph glyph-name="uni01B4" unicode="&#x1b4;" horiz-adv-x="587" 
d="M103 -213h-73l123 213l-105 548h74l60 -345q6 -33 9 -64t7 -74q21 45 38 78t34 63l270 475q16 27 29.5 45t27.5 28.5t29.5 15t35.5 4.5q13 0 27 -2.5t22 -7.5l-12 -61q-9 6 -34 6q-23 0 -36 -10t-26 -33z" />
    <glyph glyph-name="uni01B5" unicode="&#x1b5;" horiz-adv-x="590" 
d="M370 421h158l-12 -63h-202l-175 -200q-19 -22 -38.5 -43.5t-45.5 -48.5h443l-12 -66h-533l10 59l263 299h-160l12 63h204l151 171q20 22 41.5 45.5t43.5 46.5h-417l12 66h506l-12 -59z" />
    <glyph glyph-name="uni01B6" unicode="&#x1b6;" horiz-adv-x="473" 
d="M293 314h96l-12 -60h-139l-93 -103q-21 -23 -41.5 -44.5t-44.5 -44.5h325l-11 -62h-412l10 55l180 199h-102l12 60h145l85 94q20 21 38 40t37 37h-300l12 63h388l-11 -56z" />
    <glyph glyph-name="uni01B7" unicode="&#x1b7;" 
d="M471 683h-410l12 67h506l-12 -59l-322 -353q139 7 201 -58t35 -203l-11 -55q-11 -56 -38 -101.5t-71 -77.5t-106 -49t-143 -17q-85 0 -149 14.5t-103 31.5l13 70q48 -19 106.5 -32t141.5 -13q123 0 191 52.5t86 146.5l8 39q9 46 6 81.5t-22 59.5t-56.5 36.5t-98.5 12.5
q-24 0 -46.5 -1.5t-51.5 -5.5l3 49z" />
    <glyph glyph-name="uni01B8" unicode="&#x1b8;" horiz-adv-x="639" 
d="M434 318l-15 -49q-28 4 -50 5.5t-46 1.5q-63 0 -106 -12.5t-71 -36.5t-44 -59.5t-25 -81.5l-8 -39q-18 -94 29.5 -146.5t170.5 -52.5q44 0 81 3.5t69 9.5t60.5 14.5t55.5 17.5l-13 -73q-47 -17 -116.5 -30t-154.5 -13q-82 0 -136 22.5t-84.5 61.5t-38 90t3.5 108l11 55
q12 65 42.5 110t74.5 71.5t101 36.5t122 4l-196 355l12 59h506l-12 -67h-420z" />
    <glyph glyph-name="uni01B9" unicode="&#x1b9;" horiz-adv-x="537" 
d="M356 212l-26 -51q-24 3 -44.5 4t-41.5 1q-48 0 -82.5 -8.5t-58 -25.5t-37.5 -44.5t-21 -64.5l-5 -28q-8 -42 1.5 -71t32 -46t55.5 -24.5t71 -7.5q59 0 109 9.5t96 26.5l-14 -71q-39 -15 -94 -24.5t-111 -9.5q-65 0 -110.5 17t-72 47.5t-35 72.5t1.5 92l8 43q10 55 38 91
t68 56t89 26t103 2l-160 266l11 58h401l-12 -63h-317z" />
    <glyph glyph-name="uni01BA" unicode="&#x1ba;" horiz-adv-x="462" 
d="M-60 -111q0 40 15 66.5t43 43t67.5 26t87.5 17.5q63 10 103.5 22t63 28t31 38t8.5 52q0 44 -38 60.5t-113 16.5q-22 0 -42.5 -1.5t-46.5 -4.5l-6 46l125 106q27 22 54 41.5t56 39.5h-305l12 63h397l-11 -58l-219 -175q58 1 98 -7.5t65 -25t36 -40t11 -53.5
q0 -53 -17.5 -89t-52.5 -60t-87.5 -38.5t-122.5 -23.5q-41 -6 -68 -13t-42.5 -16t-21.5 -21t-6 -28q0 -12 5.5 -23t20 -19.5t41 -13.5t68.5 -5q36 0 83.5 8.5t94.5 25.5l-13 -66q-39 -15 -88 -23t-97 -8q-54 0 -90 9t-58 24.5t-31.5 36t-9.5 42.5z" />
    <glyph glyph-name="uni01BB" unicode="&#x1bb;" horiz-adv-x="610" 
d="M82 373h278q34 29 58 51.5t40 42.5t25 40t14 44l3 16q5 28 1 49.5t-21 36.5t-48.5 23t-81.5 8q-53 0 -107.5 -12t-98.5 -30l14 71q19 8 44 15.5t51.5 13.5t54 9.5t53.5 3.5q63 0 107 -13.5t70 -37.5t35 -58t2 -75l-5 -27q-11 -52 -37.5 -91t-71.5 -80h81l-13 -63h-139
l-20 -17l-259 -224h392l-12 -69h-492l12 69l277 241h-219z" />
    <glyph glyph-name="uni01BC" unicode="&#x1bc;" horiz-adv-x="608" 
d="M201 675h-106l13 70h475l-13 -70h-293l-75 -236q33 5 57 7.5t59 2.5q68 0 112 -15.5t68 -43t29.5 -64.5t-2.5 -80l-11 -54q-19 -97 -92.5 -149.5t-200.5 -52.5q-69 0 -126.5 11.5t-89.5 26.5l14 70q39 -16 91 -27t115 -11q97 0 150.5 39.5t66.5 105.5l7 39q6 35 2 61
t-23 43t-53.5 25.5t-88.5 8.5q-23 0 -47.5 -2t-49 -5t-47 -7t-39.5 -8z" />
    <glyph glyph-name="uni01BD" unicode="&#x1bd;" horiz-adv-x="450" 
d="M56 548h364l-12 -63h-213l-47 -155q20 5 39.5 7t43.5 2q47 0 77 -13.5t46 -35.5t20 -50.5t-2 -58.5l-9 -47q-14 -70 -68 -107t-149 -37q-54 0 -95.5 9.5t-65.5 20.5l13 66q32 -14 68 -22t85 -8q25 0 49 4t43.5 15t33.5 29.5t20 48.5l6 33q10 48 -11 70t-88 22
q-39 0 -73.5 -4.5t-70.5 -13.5l68 225h-84z" />
    <glyph glyph-name="uni01BE" unicode="&#x1be;" horiz-adv-x="499" 
d="M286 484q-1 -19 0.5 -33t8 -26.5t19.5 -26t35 -31.5q15 -12 29 -24.5t25 -28t17.5 -36t6.5 -47.5q0 -121 -61 -181t-198 -60q-56 0 -104.5 11t-79.5 27l14 70q38 -17 81 -28t91 -11q52 0 87 10.5t56.5 31.5t30.5 51.5t9 69.5q0 32 -15 52.5t-44 43.5q-25 20 -42 36.5
t-27 34.5t-13 40.5t0 54.5h-135l13 65h135l24 122l77 25l-28 -147h156l-13 -65h-155v0z" />
    <glyph glyph-name="uni01BF" unicode="&#x1bf;" horiz-adv-x="579" 
d="M110 548h64l-2 -52q19 11 43 22.5t51.5 21.5t57.5 16t60 6q45 0 75.5 -16t47.5 -43.5t21.5 -64t-3.5 -77.5l-23 -117q-17 -86 -61.5 -135t-104 -74t-128.5 -33t-134 -12l-40 -206h-73zM87 54q70 6 128 15.5t102.5 31.5t73.5 61t42 104l15 82q16 78 -6 113t-88 35
q-19 0 -43 -5.5t-50.5 -14.5t-52.5 -21t-48 -25z" />
    <glyph glyph-name="uni01C0" unicode="&#x1c0;" horiz-adv-x="228" 
d="M31 -216h-65l193 990h65z" />
    <glyph glyph-name="uni01C1" unicode="&#x1c1;" horiz-adv-x="405" 
d="M31 -216h-65l193 990h65zM209 -216h-65l193 990h65z" />
    <glyph glyph-name="uni01C2" unicode="&#x1c2;" horiz-adv-x="302" 
d="M176 340l-18 -92h109l-12 -63h-109l-78 -401h-65l78 401h-108l12 63h108l18 92h-107l12 63h108l72 371h65l-72 -371h109l-12 -63h-110z" />
    <glyph glyph-name="uni01C3" unicode="&#x1c3;" horiz-adv-x="270" 
d="M129 201h-58l94 549h84zM35 96h90l-18 -96h-90z" />
    <glyph glyph-name="uni01C4" unicode="&#x1c4;" horiz-adv-x="1264" 
d="M8 0l145 750h239q83 0 139 -17t86.5 -56.5t35.5 -103t-13 -156.5l-23 -118q-17 -86 -42 -143.5t-66 -92t-103.5 -49t-153.5 -14.5h-244zM215 680l-120 -610h164q76 0 125.5 14.5t80.5 44t48.5 73t28.5 101.5l27 138q12 62 10.5 107t-22.5 74.5t-63 43.5t-110 14h-169z
M813 158q-19 -22 -38.5 -43.5t-45.5 -48.5h443l-12 -66h-533l10 59l470 533q20 22 41.5 45.5t43.5 46.5h-417l12 66h506l-12 -59zM949 944h58l49 -95l89 95h65l-127 -148h-67z" />
    <glyph glyph-name="uni01C5" unicode="&#x1c5;" horiz-adv-x="1157" 
d="M8 0l145 750h239q83 0 139 -17t86.5 -56.5t35.5 -103t-13 -156.5l-23 -118q-17 -86 -42 -143.5t-66 -92t-103.5 -49t-153.5 -14.5h-244zM215 680l-120 -610h164q76 0 125.5 14.5t80.5 44t48.5 73t28.5 101.5l27 138q12 62 10.5 107t-22.5 74.5t-63 43.5t-110 14h-169z
M829 151q-21 -23 -41.5 -44.5t-44.5 -44.5h325l-11 -62h-412l10 55l320 353q20 21 38 40t37 37h-300l12 63h388l-11 -56zM865 744h58l49 -95l89 95h65l-127 -148h-67z" />
    <glyph glyph-name="uni01C6" unicode="&#x1c6;" horiz-adv-x="1060" 
d="M165 -10q-46 0 -77.5 15t-49 41t-22 62t3.5 78l34 170q11 58 35 97.5t57 63.5t73.5 34.5t85.5 10.5q53 0 95 -12t68 -27l44 227l77 24l-150 -774h-63l4 54q-38 -24 -93.5 -44t-121.5 -20zM456 459q-26 14 -64.5 25t-89.5 11q-32 0 -60.5 -7t-51.5 -25t-40.5 -48.5
t-26.5 -77.5l-29 -145q-14 -75 11.5 -105t85.5 -30q48 0 100.5 17t96.5 44zM732 151q-21 -23 -41.5 -44.5t-44.5 -44.5h325l-11 -62h-412l10 55l320 353q20 21 38 40t37 37h-300l12 63h388l-11 -56zM768 744h58l49 -95l89 95h65l-127 -148h-67z" />
    <glyph glyph-name="uni01C7" unicode="&#x1c7;" horiz-adv-x="932" 
d="M228 750l-132 -678h374l-13 -72h-449l145 750h75zM934 750l-113 -581q-9 -48 -24.5 -82t-40 -55.5t-60.5 -31.5t-87 -10q-28 0 -60.5 4.5t-51.5 10.5l14 73q26 -8 54 -11t55 -3q61 0 88.5 29t39.5 94l110 563h76z" />
    <glyph glyph-name="uni01C8" unicode="&#x1c8;" horiz-adv-x="806" 
d="M228 750l-132 -678h374l-13 -72h-449l145 750h75zM636 -90q-7 -34 -17.5 -58.5t-28 -40.5t-42.5 -24t-60 -8q-20 0 -44.5 2.5t-44.5 8.5l12 62q18 -4 36 -6t41 -2q36 0 52.5 17t24.5 59l123 628h73zM787 669h-77l15 82h77z" />
    <glyph glyph-name="uni01C9" unicode="&#x1c9;" horiz-adv-x="474" 
d="M149 750l77 24l-150 -774h-72zM304 -90q-7 -34 -17.5 -58.5t-28 -40.5t-42.5 -24t-60 -8q-20 0 -44.5 2.5t-44.5 8.5l12 62q18 -4 36 -6t41 -2q36 0 52.5 17t24.5 59l123 628h73zM455 669h-77l15 82h77z" />
    <glyph glyph-name="uni01CA" unicode="&#x1ca;" horiz-adv-x="1074" 
d="M549 0h-78l-219 514q-13 30 -25 64t-21 71l-125 -649h-73l145 750h78l215 -511q8 -19 14.5 -35.5t12 -32.5t11 -33t11.5 -36l125 648h74zM1076 750l-113 -581q-9 -48 -24.5 -82t-40 -55.5t-60.5 -31.5t-87 -10q-28 0 -60.5 4.5t-51.5 10.5l14 73q26 -8 54 -11t55 -3
q61 0 88.5 29t39.5 94l110 563h76z" />
    <glyph glyph-name="uni01CB" unicode="&#x1cb;" horiz-adv-x="948" 
d="M549 0h-78l-219 514q-13 30 -25 64t-21 71l-125 -649h-73l145 750h78l215 -511q8 -19 14.5 -35.5t12 -32.5t11 -33t11.5 -36l125 648h74zM778 -90q-7 -34 -17.5 -58.5t-28 -40.5t-42.5 -24t-60 -8q-20 0 -44.5 2.5t-44.5 8.5l12 62q18 -4 36 -6t41 -2q36 0 52.5 17
t24.5 59l123 628h73zM929 669h-77l15 82h77z" />
    <glyph glyph-name="uni01CC" unicode="&#x1cc;" horiz-adv-x="819" 
d="M355 0l73 381q11 60 -3.5 86.5t-68.5 26.5q-41 0 -93.5 -16t-103.5 -47l-83 -431h-72l106 548h64l-3 -52q44 26 99 46t106 20q42 0 70 -13t42.5 -36.5t17.5 -55.5t-4 -71l-74 -386h-73zM649 -90q-7 -34 -17.5 -58.5t-28 -40.5t-42.5 -24t-60 -8q-20 0 -44.5 2.5
t-44.5 8.5l12 62q18 -4 36 -6t41 -2q36 0 52.5 17t24.5 59l123 628h73zM800 669h-77l15 82h77z" />
    <glyph glyph-name="uni01CD" unicode="&#x1cd;" horiz-adv-x="649" 
d="M571 0h-78l-40 221h-317l-121 -221h-81l419 750h74zM442 290l-44 259q-6 32 -10 58t-9 63q-15 -33 -32 -64l-34 -62l-140 -254h269zM299 944h58l49 -95l89 95h65l-127 -148h-67z" />
    <glyph glyph-name="uni01CE" unicode="&#x1ce;" horiz-adv-x="519" 
d="M318 0l4 56q-17 -10 -40 -21.5t-49.5 -21.5t-56.5 -16.5t-61 -6.5q-76 0 -105.5 42.5t-12.5 124.5l4 20q9 44 28.5 73t51.5 46t77 24t105 7h108l8 40q6 31 7 55.5t-8.5 41.5t-32 26t-63.5 9q-35 0 -79 -8t-86 -23l12 65q45 15 89 22t85 7q61 0 94 -18t46.5 -47.5t12 -67
t-8.5 -77.5l-68 -352h-61zM360 269h-107q-47 0 -79.5 -5t-53.5 -17t-32.5 -33t-17.5 -53l-2 -11q-10 -54 6 -76t59 -22q22 0 47.5 4.5t52 13t51.5 19t45 22.5zM202 744h58l49 -95l89 95h65l-127 -148h-67z" />
    <glyph glyph-name="uni01CF" unicode="&#x1cf;" horiz-adv-x="236" 
d="M83 0h-75l145 750h75zM100 944h58l49 -95l89 95h65l-127 -148h-67z" />
    <glyph glyph-name="uni01D0" unicode="&#x1d0;" horiz-adv-x="227" 
d="M54 744h58l49 -95l89 95h65l-127 -148h-67zM4 0l106 548h72l-106 -548h-72z" />
    <glyph glyph-name="uni01D1" unicode="&#x1d1;" horiz-adv-x="719" 
d="M656 309q-32 -163 -125.5 -242t-242.5 -79q-74 0 -127.5 23t-85 67.5t-40 108t7.5 144.5l21 108q31 162 125 242.5t243 80.5q74 0 127.5 -23.5t84.5 -68t39.5 -108.5t-6.5 -145zM601 422q28 139 -21 204t-159 65q-111 0 -183.5 -65t-100.5 -204l-18 -94
q-27 -140 20.5 -204.5t158.5 -64.5q110 0 184 64.5t101 204.5zM340 944h58l49 -95l89 95h65l-127 -148h-67z" />
    <glyph glyph-name="uni01D2" unicode="&#x1d2;" horiz-adv-x="568" 
d="M490 233q-47 -243 -277 -243q-113 0 -162.5 68.5t-26.5 189.5l13 68q24 121 95 183.5t184 62.5q115 0 163 -70t24 -191zM433 311q19 96 -14 142t-111 46t-128.5 -46t-69.5 -142l-14 -70q-19 -94 14 -141t111 -47q160 0 198 188zM226 744h58l49 -95l89 95h65l-127 -148
h-67z" />
    <glyph glyph-name="uni01D3" unicode="&#x1d3;" horiz-adv-x="704" 
d="M218 750l-91 -468q-12 -61 -8.5 -103.5t23.5 -69t56.5 -38.5t89.5 -12q55 0 97 12t72.5 38.5t50.5 69t32 103.5l91 468h75l-94 -482q-27 -139 -103 -210t-219 -71q-146 0 -207 70.5t-32 219.5l92 473h75zM332 944h58l49 -95l89 95h65l-127 -148h-67z" />
    <glyph glyph-name="uni01D4" unicode="&#x1d4;" horiz-adv-x="570" 
d="M177 548l-74 -382q-11 -54 3.5 -81t66.5 -27q42 0 94.5 17t100.5 47l84 426h73l-106 -548h-64l2 56q-47 -29 -99.5 -47.5t-103.5 -18.5q-84 0 -112.5 47t-12.5 127l75 384h73zM226 744h58l49 -95l89 95h65l-127 -148h-67z" />
    <glyph glyph-name="uni01D5" unicode="&#x1d5;" horiz-adv-x="704" 
d="M218 750l-91 -468q-12 -61 -8.5 -103.5t23.5 -69t56.5 -38.5t89.5 -12q55 0 97 12t72.5 38.5t50.5 69t32 103.5l91 468h75l-94 -482q-27 -139 -103 -210t-219 -71q-146 0 -207 70.5t-32 219.5l92 473h75zM325 892h78l-17 -89h-78zM496 892h78l-17 -89h-78zM334 1022h279
l-11 -60h-279z" />
    <glyph glyph-name="uni01D6" unicode="&#x1d6;" horiz-adv-x="570" 
d="M177 548l-74 -382q-11 -54 3.5 -81t66.5 -27q42 0 94.5 17t100.5 47l84 426h73l-106 -548h-64l2 56q-47 -29 -99.5 -47.5t-103.5 -18.5q-84 0 -112.5 47t-12.5 127l75 384h73zM222 694h78l-17 -89h-78zM393 694h78l-17 -89h-78zM228 811h279l-11 -60h-279z" />
    <glyph glyph-name="uni01D7" unicode="&#x1d7;" horiz-adv-x="704" 
d="M218 750l-91 -468q-12 -61 -8.5 -103.5t23.5 -69t56.5 -38.5t89.5 -12q55 0 97 12t72.5 38.5t50.5 69t32 103.5l91 468h75l-94 -482q-27 -139 -103 -210t-219 -71q-146 0 -207 70.5t-32 219.5l92 473h75zM530 1059h98l-135 -134h-79zM325 892h78l-17 -89h-78zM496 892h78
l-17 -89h-78z" />
    <glyph glyph-name="uni01D8" unicode="&#x1d8;" horiz-adv-x="570" 
d="M177 548l-74 -382q-11 -54 3.5 -81t66.5 -27q42 0 94.5 17t100.5 47l84 426h73l-106 -548h-64l2 56q-47 -29 -99.5 -47.5t-103.5 -18.5q-84 0 -112.5 47t-12.5 127l75 384h73zM424 861h98l-135 -134h-79zM222 694h78l-17 -89h-78zM393 694h78l-17 -89h-78z" />
    <glyph glyph-name="uni01D9" unicode="&#x1d9;" horiz-adv-x="704" 
d="M218 750l-91 -468q-12 -61 -8.5 -103.5t23.5 -69t56.5 -38.5t89.5 -12q55 0 97 12t72.5 38.5t50.5 69t32 103.5l91 468h75l-94 -482q-27 -139 -103 -210t-219 -71q-146 0 -207 70.5t-32 219.5l92 473h75zM357 1070h58l49 -95l89 95h65l-127 -148h-67zM325 892h78l-17 -89
h-78zM496 892h78l-17 -89h-78z" />
    <glyph glyph-name="uni01DA" unicode="&#x1da;" horiz-adv-x="570" 
d="M177 548l-74 -382q-11 -54 3.5 -81t66.5 -27q42 0 94.5 17t100.5 47l84 426h73l-106 -548h-64l2 56q-47 -29 -99.5 -47.5t-103.5 -18.5q-84 0 -112.5 47t-12.5 127l75 384h73zM251 877h58l49 -95l89 95h65l-127 -148h-67zM222 694h78l-17 -89h-78zM393 694h78l-17 -89
h-78z" />
    <glyph glyph-name="uni01DB" unicode="&#x1db;" horiz-adv-x="704" 
d="M218 750l-91 -468q-12 -61 -8.5 -103.5t23.5 -69t56.5 -38.5t89.5 -12q55 0 97 12t72.5 38.5t50.5 69t32 103.5l91 468h75l-94 -482q-27 -139 -103 -210t-219 -71q-146 0 -207 70.5t-32 219.5l92 473h75zM485 925h-69l-78 134h89zM325 892h78l-17 -89h-78zM496 892h78
l-17 -89h-78z" />
    <glyph glyph-name="uni01DC" unicode="&#x1dc;" horiz-adv-x="570" 
d="M177 548l-74 -382q-11 -54 3.5 -81t66.5 -27q42 0 94.5 17t100.5 47l84 426h73l-106 -548h-64l2 56q-47 -29 -99.5 -47.5t-103.5 -18.5q-84 0 -112.5 47t-12.5 127l75 384h73zM388 727h-69l-78 134h89zM222 694h78l-17 -89h-78zM393 694h78l-17 -89h-78z" />
    <glyph glyph-name="uni01DD" unicode="&#x1dd;" horiz-adv-x="546" 
d="M407 297l4 19q10 51 7.5 85.5t-21 56.5t-54.5 31.5t-92 9.5q-14 0 -32.5 -2t-37 -5t-36.5 -7.5t-30 -9.5l12 63q35 14 77.5 19t76.5 5q130 0 177 -65.5t22 -192.5l-11 -60q-13 -69 -39.5 -117t-62.5 -78.5t-80 -44.5t-92 -14q-49 0 -87 14t-61.5 46t-29.5 84t9 128l7 35
h374zM91 234q-9 -42 -7.5 -76t14.5 -57.5t39 -36t67 -12.5q78 0 126 48.5t65 133.5l1 5h-304z" />
    <glyph glyph-name="uni01DE" unicode="&#x1de;" horiz-adv-x="649" 
d="M571 0h-78l-40 221h-317l-121 -221h-81l419 750h74zM442 290l-44 259q-6 32 -10 58t-9 63q-15 -33 -32 -64l-34 -62l-140 -254h269zM291 892h78l-17 -89h-78zM462 892h78l-17 -89h-78zM301 1022h279l-11 -60h-279z" />
    <glyph glyph-name="uni01DF" unicode="&#x1df;" horiz-adv-x="516" 
d="M318 0l4 56q-17 -10 -40 -21.5t-49.5 -21.5t-56.5 -16.5t-61 -6.5q-76 0 -105.5 42.5t-12.5 124.5l4 20q9 44 28.5 73t51.5 46t77 24t105 7h108l8 40q6 31 7 55.5t-8.5 41.5t-32 26t-63.5 9q-35 0 -79 -8t-86 -23l12 65q45 15 89 22t85 7q61 0 94 -18t46.5 -47.5t12 -67
t-8.5 -77.5l-68 -352h-61zM360 269h-107q-47 0 -79.5 -5t-53.5 -17t-32.5 -33t-17.5 -53l-2 -11q-10 -54 6 -76t59 -22q22 0 47.5 4.5t52 13t51.5 19t45 22.5zM208 694h78l-17 -89h-78zM379 694h78l-17 -89h-78zM214 811h279l-11 -60h-279z" />
    <glyph glyph-name="uni01E0" unicode="&#x1e0;" horiz-adv-x="649" 
d="M571 0h-78l-40 221h-317l-121 -221h-81l419 750h74zM442 290l-44 259q-6 32 -10 58t-9 63q-15 -33 -32 -64l-34 -62l-140 -254h269zM378 905h79l-17 -89h-79zM301 1022h279l-11 -60h-279z" />
    <glyph glyph-name="uni01E1" unicode="&#x1e1;" horiz-adv-x="516" 
d="M318 0l4 56q-17 -10 -40 -21.5t-49.5 -21.5t-56.5 -16.5t-61 -6.5q-76 0 -105.5 42.5t-12.5 124.5l4 20q9 44 28.5 73t51.5 46t77 24t105 7h108l8 40q6 31 7 55.5t-8.5 41.5t-32 26t-63.5 9q-35 0 -79 -8t-86 -23l12 65q45 15 89 22t85 7q61 0 94 -18t46.5 -47.5t12 -67
t-8.5 -77.5l-68 -352h-61zM360 269h-107q-47 0 -79.5 -5t-53.5 -17t-32.5 -33t-17.5 -53l-2 -11q-10 -54 6 -76t59 -22q22 0 47.5 4.5t52 13t51.5 19t45 22.5zM295 703h79l-17 -89h-79zM214 811h279l-11 -60h-279z" />
    <glyph glyph-name="uni01E2" unicode="&#x1e2;" horiz-adv-x="997" 
d="M1015 750l-13 -70h-374l-50 -256h342l-14 -69h-342l-56 -285h387l-12 -70h-462l42 221h-260l-182 -221h-91l612 750h473zM260 292h217l70 361q-19 -29 -47 -63zM567 915h279l-11 -60h-279z" />
    <glyph glyph-name="uni01E3" unicode="&#x1e3;" horiz-adv-x="858" 
d="M423 263l-4 -19q-11 -51 -9 -87t20 -59t54 -34t94 -11q14 0 32.5 2t37 5t36.5 7.5t30 9.5l-12 -63q-35 -14 -77.5 -19t-76.5 -5q-69 0 -115.5 20t-65.5 63q-22 -15 -51.5 -30t-63.5 -27t-69.5 -19t-69.5 -7q-78 0 -104.5 43t-12.5 126l3 18q7 43 26 70.5t51.5 44t78 23
t105.5 6.5h105l9 46q6 31 7.5 55.5t-7.5 41.5t-31 26t-63 9q-35 0 -79 -8t-86 -23l12 65q45 15 89 22t85 7q69 0 101 -22.5t43 -57.5q32 38 82.5 59t106.5 21q47 0 85 -13.5t61.5 -45t30.5 -82.5t-8 -127l-6 -31h-374zM354 263h-104q-47 0 -79.5 -4t-53.5 -15t-32 -31
t-17 -52l-2 -11q-10 -54 6 -76t59 -22q49 0 100.5 17.5t92.5 41.5zM739 326q9 42 8 74.5t-13.5 54.5t-39 33.5t-69.5 11.5q-78 0 -125.5 -44.5t-64.5 -129.5l-1 -5h304zM352 715h279l-11 -60h-279z" />
    <glyph glyph-name="uni01E4" unicode="&#x1e4;" horiz-adv-x="650" 
d="M341 263h163l22 106h-163l12 66h237l-34 -172h73l-13 -70h-73l-33 -170q-25 -9 -55 -15.5t-60.5 -10.5t-60.5 -5.5t-56 -1.5q-90 0 -147.5 22t-87 64.5t-34 104.5t10.5 142l24 120q17 87 47.5 147t77 98t109.5 55t144 17q49 0 95.5 -5.5t80.5 -19.5l-13 -66
q-37 11 -78 16.5t-96 5.5q-76 0 -127 -19.5t-84 -53.5t-51.5 -79t-28.5 -97l-25 -130q-12 -60 -10.5 -107t23 -79t67 -49t122.5 -17q38 0 74.5 3.5t73.5 11.5l23 118h-162z" />
    <glyph glyph-name="uni01E5" unicode="&#x1e5;" horiz-adv-x="581" 
d="M169 16q-48 0 -81 14t-51.5 39.5t-23 61t4.5 77.5l29 144q12 60 36 100.5t57 64.5t74 34.5t87 10.5q55 0 95.5 -15t66.5 -38l13 41h63l-112 -571h78l-12 -63h-81q-11 -33 -29.5 -59t-47 -44t-68 -27t-92.5 -9q-42 0 -78.5 5t-59.5 13l13 66q35 -11 65 -14t59 -3
q66 0 104.5 15t58.5 57h-353l12 63h360l16 85q-38 -18 -87.5 -33t-115.5 -15zM447 447q-27 22 -63.5 35t-87.5 13q-32 0 -61 -7t-52 -25t-40 -48.5t-26 -77.5l-24 -119q-15 -75 10.5 -105t85.5 -30q24 0 50.5 3.5t52 10t49.5 15.5t44 20z" />
    <glyph glyph-name="Gcaron" unicode="&#x1e6;" horiz-adv-x="650" 
d="M607 669q-37 11 -78 16.5t-96 5.5q-76 0 -127 -19.5t-84 -53.5t-51.5 -79t-28.5 -97l-25 -130q-12 -60 -10.5 -107t23 -79t67 -49t122.5 -17q38 0 74.5 3.5t73.5 11.5l52 261h-163l12 66h237l-73 -379q-25 -9 -55 -15.5t-60.5 -10.5t-60.5 -5.5t-56 -1.5q-90 0 -147.5 22
t-87 64.5t-34 104.5t10.5 142l24 120q17 87 47.5 147t77 98t109.5 55t144 17q49 0 95.5 -5.5t80.5 -19.5zM363 944h58l49 -95l89 95h65l-127 -148h-67z" />
    <glyph glyph-name="gcaron" unicode="&#x1e7;" horiz-adv-x="581" 
d="M166 -3q-48 0 -80.5 14t-51 39.5t-23 61t3.5 77.5l32 163q12 60 36 100.5t57 64.5t74 34.5t87 10.5q55 0 95.5 -15t66.5 -38l13 41h63l-115 -589q-9 -44 -25.5 -78t-46 -57.5t-73 -36t-104.5 -12.5q-42 0 -78.5 5t-59.5 13l13 66q35 -11 65 -14t59 -3q41 0 71.5 5.5
t52.5 20t35.5 38.5t20.5 61l15 76q-38 -18 -87.5 -33t-115.5 -15zM447 447q-27 22 -63.5 35t-87.5 13q-32 0 -61 -7t-52 -25t-40 -48.5t-26 -77.5l-27 -138q-14 -75 11 -105t85 -30q24 0 50.5 3.5t52 10t49.5 15.5t44 20zM243 744h58l49 -95l89 95h65l-127 -148h-67z" />
    <glyph glyph-name="uni01E8" unicode="&#x1e8;" horiz-adv-x="630" 
d="M329 379l214 -379h-83l-192 344h-119l-66 -344h-75l145 750h75l-66 -337h109l297 337h92zM301 944h58l49 -95l89 95h65l-127 -148h-67z" />
    <glyph glyph-name="uni01E9" unicode="&#x1e9;" horiz-adv-x="510" 
d="M140 334h73l217 214h94l-257 -248l157 -300h-81l-134 269h-81l-52 -269h-72l145 750l77 24zM270 944h58l49 -95l89 95h65l-127 -148h-67z" />
    <glyph glyph-name="uni01EA" unicode="&#x1ea;" horiz-adv-x="719" 
d="M306 -223q-61 0 -89 30t-20 72l2 11q6 32 33 57.5t59 40.5h-3q-74 0 -127.5 23t-85 67.5t-40 108t7.5 144.5l21 108q31 162 125 242.5t243 80.5q74 0 127.5 -23.5t84.5 -68t39.5 -108.5t-6.5 -145l-21 -108q-26 -133 -92.5 -209.5t-172.5 -100.5q-46 -22 -78 -50.5
t-37 -58.5l-1 -6q-4 -24 8.5 -35t50.5 -11q14 0 32.5 2t29.5 5l-12 -58q-14 -4 -34 -7t-44 -3zM601 422q28 139 -21 204t-159 65q-111 0 -183.5 -65t-100.5 -204l-18 -94q-27 -140 20.5 -204.5t158.5 -64.5q110 0 184 64.5t101 204.5z" />
    <glyph glyph-name="uni01EB" unicode="&#x1eb;" horiz-adv-x="568" 
d="M208 -223q-61 0 -89 30t-20 72l2 11q6 33 35 59.5t62 40.5q-106 5 -151.5 72.5t-22.5 185.5l13 68q24 121 95 183.5t184 62.5q115 0 163 -70t24 -191l-13 -68q-38 -195 -196 -233q-47 -22 -79 -51t-37 -59l-1 -6q-4 -24 8.5 -35t50.5 -11q14 0 32.5 2t29.5 5l-12 -58
q-14 -4 -34 -7t-44 -3zM433 311q19 96 -14 142t-111 46t-128.5 -46t-69.5 -142l-14 -70q-19 -94 14 -141t111 -47q160 0 198 188z" />
    <glyph glyph-name="uni01EC" unicode="&#x1ec;" horiz-adv-x="719" 
d="M305 -223q-61 0 -89 30t-20 72l2 11q6 32 33 57.5t59 40.5h-2q-74 0 -127.5 23t-85 67.5t-40 108t7.5 144.5l21 108q31 162 125 242.5t243 80.5q74 0 127.5 -23.5t84.5 -68t39.5 -108.5t-6.5 -145l-21 -108q-26 -134 -93.5 -210.5t-173.5 -99.5q-46 -22 -77.5 -51
t-36.5 -58l-1 -6q-4 -24 8.5 -35t50.5 -11q14 0 32.5 2t29.5 5l-12 -58q-14 -4 -34 -7t-44 -3zM601 422q28 139 -21 204t-159 65q-111 0 -183.5 -65t-100.5 -204l-18 -94q-27 -140 20.5 -204.5t158.5 -64.5q110 0 184 64.5t101 204.5zM322 915h279l-11 -60h-279z" />
    <glyph glyph-name="uni01ED" unicode="&#x1ed;" horiz-adv-x="568" 
d="M203 -223q-61 0 -89 30t-20 72l2 11q6 33 35 59.5t63 41.5q-103 6 -147.5 73.5t-22.5 183.5l13 68q24 121 95 183.5t184 62.5q115 0 163 -70t24 -191l-13 -68q-39 -203 -206 -236q-45 -22 -75.5 -50t-35.5 -57l-1 -6q-4 -24 8.5 -35t50.5 -11q14 0 32.5 2t29.5 5l-12 -58
q-14 -4 -34 -7t-44 -3zM433 311q19 96 -14 142t-111 46t-128.5 -46t-69.5 -142l-14 -70q-19 -94 14 -141t111 -47q160 0 198 188zM208 715h279l-11 -60h-279z" />
    <glyph glyph-name="uni01EE" unicode="&#x1ee;" 
d="M471 683h-410l12 67h506l-12 -59l-322 -353q139 7 201 -58t35 -203l-11 -55q-11 -56 -38 -101.5t-71 -77.5t-106 -49t-143 -17q-85 0 -149 14.5t-103 31.5l13 70q48 -19 106.5 -32t141.5 -13q123 0 191 52.5t86 146.5l8 39q9 46 6 81.5t-22 59.5t-56.5 36.5t-98.5 12.5
q-24 0 -46.5 -1.5t-51.5 -5.5l3 49zM237 944h58l49 -95l89 95h65l-127 -148h-67z" />
    <glyph glyph-name="uni01EF" unicode="&#x1ef;" horiz-adv-x="470" 
d="M361 485h-313l12 63h400l-11 -58l-257 -266q8 1 14 1h11q71 0 112.5 -19t61.5 -49t22 -66.5t-5 -72.5l-8 -41q-20 -101 -97 -150.5t-199 -49.5q-56 0 -109 10.5t-85 25.5l12 69q40 -17 86 -26.5t106 -9.5q38 0 73.5 7.5t64.5 24.5t50 46t29 71l5 28q7 35 3.5 62t-20 45
t-47 27t-77.5 9q-21 0 -41 -1t-46 -4l-7 51zM174 744h58l49 -95l89 95h65l-127 -148h-67z" />
    <glyph glyph-name="uni01F0" unicode="&#x1f0;" horiz-adv-x="243" 
d="M77 -90q-7 -34 -17.5 -58.5t-28 -40.5t-42.5 -24t-60 -8q-20 0 -44.5 2.5t-44.5 8.5l12 62q18 -4 36 -6t41 -2q36 0 52.5 17t24.5 59l123 628h73zM74 744h58l49 -95l89 95h65l-127 -148h-67z" />
    <glyph glyph-name="uni01F1" unicode="&#x1f1;" horiz-adv-x="1264" 
d="M8 0l145 750h239q83 0 139 -17t86.5 -56.5t35.5 -103t-13 -156.5l-23 -118q-17 -86 -42 -143.5t-66 -92t-103.5 -49t-153.5 -14.5h-244zM215 680l-120 -610h164q76 0 125.5 14.5t80.5 44t48.5 73t28.5 101.5l27 138q12 62 10.5 107t-22.5 74.5t-63 43.5t-110 14h-169z
M813 158q-19 -22 -38.5 -43.5t-45.5 -48.5h443l-12 -66h-533l10 59l470 533q20 22 41.5 45.5t43.5 46.5h-417l12 66h506l-12 -59z" />
    <glyph glyph-name="uni01F2" unicode="&#x1f2;" horiz-adv-x="1157" 
d="M8 0l145 750h239q83 0 139 -17t86.5 -56.5t35.5 -103t-13 -156.5l-23 -118q-17 -86 -42 -143.5t-66 -92t-103.5 -49t-153.5 -14.5h-244zM215 680l-120 -610h164q76 0 125.5 14.5t80.5 44t48.5 73t28.5 101.5l27 138q12 62 10.5 107t-22.5 74.5t-63 43.5t-110 14h-169z
M829 151q-21 -23 -41.5 -44.5t-44.5 -44.5h325l-11 -62h-412l10 55l320 353q20 21 38 40t37 37h-300l12 63h388l-11 -56z" />
    <glyph glyph-name="uni01F3" unicode="&#x1f3;" horiz-adv-x="1060" 
d="M165 -10q-46 0 -77.5 15t-49 41t-22 62t3.5 78l34 170q11 58 35 97.5t57 63.5t73.5 34.5t85.5 10.5q53 0 95 -12t68 -27l44 227l77 24l-150 -774h-63l4 54q-38 -24 -93.5 -44t-121.5 -20zM456 459q-26 14 -64.5 25t-89.5 11q-32 0 -60.5 -7t-51.5 -25t-40.5 -48.5
t-26.5 -77.5l-29 -145q-14 -75 11.5 -105t85.5 -30q48 0 100.5 17t96.5 44zM732 151q-21 -23 -41.5 -44.5t-44.5 -44.5h325l-11 -62h-412l10 55l320 353q20 21 38 40t37 37h-300l12 63h388l-11 -56z" />
    <glyph glyph-name="uni01F4" unicode="&#x1f4;" horiz-adv-x="650" 
d="M607 669q-37 11 -78 16.5t-96 5.5q-76 0 -127 -19.5t-84 -53.5t-51.5 -79t-28.5 -97l-25 -130q-12 -60 -10.5 -107t23 -79t67 -49t122.5 -17q38 0 74.5 3.5t73.5 11.5l52 261h-163l12 66h237l-73 -379q-25 -9 -55 -15.5t-60.5 -10.5t-60.5 -5.5t-56 -1.5q-90 0 -147.5 22
t-87 64.5t-34 104.5t10.5 142l24 120q17 87 47.5 147t77 98t109.5 55t144 17q49 0 95.5 -5.5t80.5 -19.5zM507 940h98l-135 -134h-79z" />
    <glyph glyph-name="uni01F5" unicode="&#x1f5;" horiz-adv-x="586" 
d="M171 -3q-48 0 -80.5 14t-51 39.5t-23 61t3.5 77.5l32 163q12 60 36 100.5t57 64.5t74 34.5t87 10.5q55 0 95.5 -15t66.5 -38l13 41h63l-115 -589q-9 -44 -25.5 -78t-46 -57.5t-73 -36t-104.5 -12.5q-42 0 -78.5 5t-59.5 13l13 66q35 -11 65 -14t59 -3q41 0 71.5 5.5
t52.5 20t35.5 38.5t20.5 61l15 76q-38 -18 -87.5 -33t-115.5 -15zM452 447q-27 22 -63.5 35t-87.5 13q-32 0 -61 -7t-52 -25t-40 -48.5t-26 -77.5l-27 -138q-14 -75 11 -105t85 -30q24 0 50.5 3.5t52 10t49.5 15.5t44 20zM382 740h98l-135 -134h-79z" />
    <glyph glyph-name="uni01F6" unicode="&#x1f6;" horiz-adv-x="1022" 
d="M580 170q-11 -54 12 -83t94 -29q67 0 104 29t48 83l73 378h76l-75 -384q-16 -82 -71 -128t-158 -46q-102 0 -149 48.5t-29 139.5l34 179h-388l-68 -357h-75l145 750h75l-63 -323h388l63 323h76z" />
    <glyph glyph-name="uni01F7" unicode="&#x1f7;" horiz-adv-x="623" 
d="M154 750h75l-14 -74l158 62q26 10 52 16t48 6q46 0 76 -17.5t45 -47.5t17.5 -69t-6.5 -82l-22 -112q-15 -76 -51.5 -140.5t-97 -115t-145.5 -84.5t-197 -49l-51 -259h-75zM105 116q105 18 177.5 50t120 75.5t73 97.5t37.5 114l21 107q13 70 -8.5 100t-66.5 30
q-16 0 -33.5 -4t-37.5 -12l-188 -73z" />
    <glyph glyph-name="uni01F8" unicode="&#x1f8;" horiz-adv-x="702" 
d="M549 0h-78l-219 514q-13 30 -25 64t-21 71l-125 -649h-73l145 750h78l215 -511q8 -19 14.5 -35.5t12 -32.5t11 -33t11.5 -36l125 648h74zM498 806h-69l-78 134h89z" />
    <glyph glyph-name="uni01F9" unicode="&#x1f9;" horiz-adv-x="570" 
d="M355 0l73 381q11 60 -3.5 86.5t-68.5 26.5q-41 0 -93.5 -16t-103.5 -47l-83 -431h-72l106 548h64l-3 -52q44 26 99 46t106 20q42 0 70 -13t42.5 -36.5t17.5 -55.5t-4 -71l-74 -386h-73zM406 606h-69l-78 134h89z" />
    <glyph glyph-name="Aringacute" unicode="&#x1fa;" horiz-adv-x="649" 
d="M571 0h-78l-40 221h-317l-121 -221h-81l419 750h74zM442 290l-44 259q-6 32 -10 58t-9 63q-15 -33 -32 -64l-34 -62l-140 -254h269zM404 826q26 0 45.5 19t19.5 50q0 41 -42 41q-26 0 -45.5 -19t-19.5 -50q0 -41 42 -41zM434 980q38 0 60.5 -24t22.5 -57
q0 -24 -9.5 -45.5t-25.5 -37.5t-38 -25t-47 -9q-38 0 -60.5 24t-22.5 57q0 24 9.5 45.5t25.5 37.5t38 25t47 9zM528 1146h98l-135 -134h-79z" />
    <glyph glyph-name="aringacute" unicode="&#x1fb;" horiz-adv-x="516" 
d="M318 0l4 56q-17 -10 -40 -21.5t-49.5 -21.5t-56.5 -16.5t-61 -6.5q-76 0 -105.5 42.5t-12.5 124.5l4 20q9 44 28.5 73t51.5 46t77 24t105 7h108l8 40q6 31 7 55.5t-8.5 41.5t-32 26t-63.5 9q-35 0 -79 -8t-86 -23l12 65q45 15 89 22t85 7q61 0 94 -18t46.5 -47.5t12 -67
t-8.5 -77.5l-68 -352h-61zM360 269h-107q-47 0 -79.5 -5t-53.5 -17t-32.5 -33t-17.5 -53l-2 -11q-10 -54 6 -76t59 -22q22 0 47.5 4.5t52 13t51.5 19t45 22.5zM332 636q26 0 45.5 19t19.5 50q0 41 -42 41q-26 0 -45.5 -19t-19.5 -50q0 -41 42 -41zM362 790q38 0 60.5 -24
t22.5 -57q0 -24 -9.5 -45.5t-25.5 -37.5t-38 -25t-47 -9q-38 0 -60.5 24t-22.5 57q0 24 9.5 45.5t25.5 37.5t38 25t47 9zM439 951h98l-135 -134h-79z" />
    <glyph glyph-name="AEacute" unicode="&#x1fc;" horiz-adv-x="997" 
d="M1015 750l-13 -70h-374l-50 -256h342l-14 -69h-342l-56 -285h387l-12 -70h-462l42 221h-260l-182 -221h-91l612 750h473zM260 292h217l70 361q-19 -29 -47 -63zM690 940h98l-135 -134h-79z" />
    <glyph glyph-name="aeacute" unicode="&#x1fd;" horiz-adv-x="858" 
d="M423 263l-4 -19q-11 -51 -9 -87t20 -59t54 -34t94 -11q14 0 32.5 2t37 5t36.5 7.5t30 9.5l-12 -63q-35 -14 -77.5 -19t-76.5 -5q-69 0 -115.5 20t-65.5 63q-22 -15 -51.5 -30t-63.5 -27t-69.5 -19t-69.5 -7q-78 0 -104.5 43t-12.5 126l3 18q7 43 26 70.5t51.5 44t78 23
t105.5 6.5h105l9 46q6 31 7.5 55.5t-7.5 41.5t-31 26t-63 9q-35 0 -79 -8t-86 -23l12 65q45 15 89 22t85 7q69 0 101 -22.5t43 -57.5q32 38 82.5 59t106.5 21q47 0 85 -13.5t61.5 -45t30.5 -82.5t-8 -127l-6 -31h-374zM354 263h-104q-47 0 -79.5 -4t-53.5 -15t-32 -31
t-17 -52l-2 -11q-10 -54 6 -76t59 -22q49 0 100.5 17.5t92.5 41.5zM739 326q9 42 8 74.5t-13.5 54.5t-39 33.5t-69.5 11.5q-78 0 -125.5 -44.5t-64.5 -129.5l-1 -5h304zM556 740h98l-135 -134h-79z" />
    <glyph glyph-name="Oslashacute" unicode="&#x1fe;" horiz-adv-x="723" 
d="M658 309q-32 -163 -125.5 -242t-242.5 -79q-110 0 -175 51l-71 -82h-78l108 126q-29 44 -37 106t8 142l21 108q31 162 125 242.5t243 80.5q113 0 177 -55l73 85h79l-112 -130q28 -45 35 -106.5t-7 -138.5zM121 328q-22 -116 8 -182l432 503q-50 42 -138 42
q-111 0 -183.5 -65t-100.5 -204zM603 422q22 110 -6 177l-432 -501q46 -39 135 -39q110 0 184 64.5t101 204.5zM512 940h98l-135 -134h-79z" />
    <glyph glyph-name="oslashacute" unicode="&#x1ff;" horiz-adv-x="575" 
d="M495 233q-47 -243 -277 -243q-74 0 -122 31l-54 -64h-72l85 101q-24 34 -31 81.5t5 108.5l13 68q24 121 95 183.5t184 62.5q80 0 129 -37l50 59h72l-84 -99q43 -69 20 -184zM101 241q-16 -76 4 -124l300 355q-33 27 -92 27q-78 0 -128.5 -46t-69.5 -142zM438 311
q14 71 -1 114l-296 -351q31 -21 85 -21q160 0 198 188zM396 740h98l-135 -134h-79z" />
    <glyph glyph-name="uni0200" unicode="&#x200;" horiz-adv-x="649" 
d="M571 0h-78l-40 221h-317l-121 -221h-81l419 750h74zM442 290l-44 259q-6 32 -10 58t-9 63q-15 -33 -32 -64l-34 -62l-140 -254h269zM345 806h-58l-44 134h76zM483 806h-57l-41 134h76z" />
    <glyph glyph-name="uni0201" unicode="&#x201;" horiz-adv-x="516" 
d="M318 0l4 56q-17 -10 -40 -21.5t-49.5 -21.5t-56.5 -16.5t-61 -6.5q-76 0 -105.5 42.5t-12.5 124.5l4 20q9 44 28.5 73t51.5 46t77 24t105 7h108l8 40q6 31 7 55.5t-8.5 41.5t-32 26t-63.5 9q-35 0 -79 -8t-86 -23l12 65q45 15 89 22t85 7q61 0 94 -18t46.5 -47.5t12 -67
t-8.5 -77.5l-68 -352h-61zM360 269h-107q-47 0 -79.5 -5t-53.5 -17t-32.5 -33t-17.5 -53l-2 -11q-10 -54 6 -76t59 -22q22 0 47.5 4.5t52 13t51.5 19t45 22.5zM281 606h-58l-44 134h76zM419 606h-57l-41 134h76z" />
    <glyph glyph-name="uni0202" unicode="&#x202;" horiz-adv-x="649" 
d="M571 0h-78l-40 221h-317l-121 -221h-81l419 750h74zM442 290l-44 259q-6 32 -10 58t-9 63q-15 -33 -32 -64l-34 -62l-140 -254h269zM428 944q30 0 51.5 -10.5t34 -29.5t17 -44t1.5 -54h-53q3 38 -9.5 60t-49.5 22q-38 0 -60 -22.5t-33 -59.5h-57q14 61 54.5 99.5
t103.5 38.5z" />
    <glyph glyph-name="uni0203" unicode="&#x203;" horiz-adv-x="516" 
d="M318 0l4 56q-17 -10 -40 -21.5t-49.5 -21.5t-56.5 -16.5t-61 -6.5q-76 0 -105.5 42.5t-12.5 124.5l4 20q9 44 28.5 73t51.5 46t77 24t105 7h108l8 40q6 31 7 55.5t-8.5 41.5t-32 26t-63.5 9q-35 0 -79 -8t-86 -23l12 65q45 15 89 22t85 7q61 0 94 -18t46.5 -47.5t12 -67
t-8.5 -77.5l-68 -352h-61zM360 269h-107q-47 0 -79.5 -5t-53.5 -17t-32.5 -33t-17.5 -53l-2 -11q-10 -54 6 -76t59 -22q22 0 47.5 4.5t52 13t51.5 19t45 22.5zM332 744q30 0 51.5 -10.5t34 -29.5t17 -44t1.5 -54h-53q3 38 -9.5 60t-49.5 22q-38 0 -60 -22.5t-33 -59.5h-57
q14 61 54.5 99.5t103.5 38.5z" />
    <glyph glyph-name="uni0204" unicode="&#x204;" 
d="M602 750l-13 -70h-374l-50 -256h342l-14 -69h-342l-56 -285h387l-12 -70h-462l145 750h449zM353 806h-58l-44 134h76zM491 806h-57l-41 134h76z" />
    <glyph glyph-name="uni0205" unicode="&#x205;" horiz-adv-x="535" 
d="M98 255l-4 -19q-11 -51 -8 -85.5t21.5 -56.5t54.5 -31.5t92 -9.5q14 0 32.5 2t37 5t36.5 7.5t30 9.5l-12 -63q-35 -14 -77.5 -19t-76.5 -5q-130 0 -177 65.5t-22 192.5l11 60q13 69 39.5 117t62.5 78.5t80 44.5t92 14q49 0 87 -14t61.5 -46t29.5 -84t-9 -128l-7 -35h-374
zM414 318q9 42 7.5 76t-14.5 57.5t-39 36t-67 12.5q-78 0 -126 -48.5t-65 -133.5l-1 -5h304zM291 606h-58l-44 134h76zM429 606h-57l-41 134h76z" />
    <glyph glyph-name="uni0206" unicode="&#x206;" 
d="M602 750l-13 -70h-374l-50 -256h342l-14 -69h-342l-56 -285h387l-12 -70h-462l145 750h449zM408 944q30 0 51.5 -10.5t34 -29.5t17 -44t1.5 -54h-53q3 38 -9.5 60t-49.5 22q-38 0 -60 -22.5t-33 -59.5h-57q14 61 54.5 99.5t103.5 38.5z" />
    <glyph glyph-name="uni0207" unicode="&#x207;" horiz-adv-x="535" 
d="M98 255l-4 -19q-11 -51 -8 -85.5t21.5 -56.5t54.5 -31.5t92 -9.5q14 0 32.5 2t37 5t36.5 7.5t30 9.5l-12 -63q-35 -14 -77.5 -19t-76.5 -5q-130 0 -177 65.5t-22 192.5l11 60q13 69 39.5 117t62.5 78.5t80 44.5t92 14q49 0 87 -14t61.5 -46t29.5 -84t-9 -128l-7 -35h-374
zM414 318q9 42 7.5 76t-14.5 57.5t-39 36t-67 12.5q-78 0 -126 -48.5t-65 -133.5l-1 -5h304zM343 744q30 0 51.5 -10.5t34 -29.5t17 -44t1.5 -54h-53q3 38 -9.5 60t-49.5 22q-38 0 -60 -22.5t-33 -59.5h-57q14 61 54.5 99.5t103.5 38.5z" />
    <glyph glyph-name="uni0208" unicode="&#x208;" horiz-adv-x="233" 
d="M83 0h-75l145 750h75zM155 806h-58l-44 134h76zM293 806h-57l-41 134h76z" />
    <glyph glyph-name="uni0209" unicode="&#x209;" horiz-adv-x="227" 
d="M112 606h-58l-44 134h76zM250 606h-57l-41 134h76zM4 0l106 548h72l-106 -548h-72z" />
    <glyph glyph-name="uni020A" unicode="&#x20a;" horiz-adv-x="236" 
d="M83 0h-75l145 750h75zM226 944q30 0 51.5 -10.5t34 -29.5t17 -44t1.5 -54h-53q3 38 -9.5 60t-49.5 22q-38 0 -60 -22.5t-33 -59.5h-57q14 61 54.5 99.5t103.5 38.5z" />
    <glyph glyph-name="uni020B" unicode="&#x20b;" horiz-adv-x="227" 
d="M182 744q30 0 51.5 -10.5t34 -29.5t17 -44t1.5 -54h-53q3 38 -9.5 60t-49.5 22q-38 0 -60 -22.5t-33 -59.5h-57q14 61 54.5 99.5t103.5 38.5zM4 0l106 548h72l-106 -548h-72z" />
    <glyph glyph-name="uni020C" unicode="&#x20c;" horiz-adv-x="719" 
d="M656 309q-32 -163 -125.5 -242t-242.5 -79q-74 0 -127.5 23t-85 67.5t-40 108t7.5 144.5l21 108q31 162 125 242.5t243 80.5q74 0 127.5 -23.5t84.5 -68t39.5 -108.5t-6.5 -145zM601 422q28 139 -21 204t-159 65q-111 0 -183.5 -65t-100.5 -204l-18 -94
q-27 -140 20.5 -204.5t158.5 -64.5q110 0 184 64.5t101 204.5zM414 806h-58l-44 134h76zM552 806h-57l-41 134h76z" />
    <glyph glyph-name="uni020D" unicode="&#x20d;" horiz-adv-x="568" 
d="M490 233q-47 -243 -277 -243q-113 0 -162.5 68.5t-26.5 189.5l13 68q24 121 95 183.5t184 62.5q115 0 163 -70t24 -191zM433 311q19 96 -14 142t-111 46t-128.5 -46t-69.5 -142l-14 -70q-19 -94 14 -141t111 -47q160 0 198 188zM306 606h-58l-44 134h76zM444 606h-57
l-41 134h76z" />
    <glyph glyph-name="uni020E" unicode="&#x20e;" horiz-adv-x="719" 
d="M656 309q-32 -163 -125.5 -242t-242.5 -79q-74 0 -127.5 23t-85 67.5t-40 108t7.5 144.5l21 108q31 162 125 242.5t243 80.5q74 0 127.5 -23.5t84.5 -68t39.5 -108.5t-6.5 -145zM601 422q28 139 -21 204t-159 65q-111 0 -183.5 -65t-100.5 -204l-18 -94
q-27 -140 20.5 -204.5t158.5 -64.5q110 0 184 64.5t101 204.5zM470 944q30 0 51.5 -10.5t34 -29.5t17 -44t1.5 -54h-53q3 38 -9.5 60t-49.5 22q-38 0 -60 -22.5t-33 -59.5h-57q14 61 54.5 99.5t103.5 38.5z" />
    <glyph glyph-name="uni020F" unicode="&#x20f;" horiz-adv-x="568" 
d="M490 233q-47 -243 -277 -243q-113 0 -162.5 68.5t-26.5 189.5l13 68q24 121 95 183.5t184 62.5q115 0 163 -70t24 -191zM433 311q19 96 -14 142t-111 46t-128.5 -46t-69.5 -142l-14 -70q-19 -94 14 -141t111 -47q160 0 198 188zM356 744q30 0 51.5 -10.5t34 -29.5t17 -44
t1.5 -54h-53q3 38 -9.5 60t-49.5 22q-38 0 -60 -22.5t-33 -59.5h-57q14 61 54.5 99.5t103.5 38.5z" />
    <glyph glyph-name="uni0210" unicode="&#x210;" horiz-adv-x="637" 
d="M153 750h264q54 0 96.5 -8.5t69 -31.5t35.5 -63t-3 -104l-9 -45q-8 -44 -23 -74t-36.5 -50.5t-49.5 -32t-62 -17.5l104 -324h-80l-99 315h-217l-60 -315h-75zM215 681l-58 -299h165q52 0 89 5t61.5 18.5t38.5 37t21 60.5l12 58q13 69 -18.5 94.5t-119.5 25.5h-191z
M361 806h-58l-44 134h76zM499 806h-57l-41 134h76z" />
    <glyph glyph-name="uni0211" unicode="&#x211;" horiz-adv-x="366" 
d="M361 487q-53 -5 -107 -25.5t-101 -59.5l-77 -402h-72l106 548h64l-8 -76q15 13 37 28t49 28t58.5 22.5t65.5 11.5zM212 606h-58l-44 134h76zM350 606h-57l-41 134h76z" />
    <glyph glyph-name="uni0212" unicode="&#x212;" horiz-adv-x="637" 
d="M153 750h264q54 0 96.5 -8.5t69 -31.5t35.5 -63t-3 -104l-9 -45q-8 -44 -23 -74t-36.5 -50.5t-49.5 -32t-62 -17.5l104 -324h-80l-99 315h-217l-60 -315h-75zM215 681l-58 -299h165q52 0 89 5t61.5 18.5t38.5 37t21 60.5l12 58q13 69 -18.5 94.5t-119.5 25.5h-191z
M429 944q30 0 51.5 -10.5t34 -29.5t17 -44t1.5 -54h-53q3 38 -9.5 60t-49.5 22q-38 0 -60 -22.5t-33 -59.5h-57q14 61 54.5 99.5t103.5 38.5z" />
    <glyph glyph-name="uni0213" unicode="&#x213;" horiz-adv-x="366" 
d="M361 487q-53 -5 -107 -25.5t-101 -59.5l-77 -402h-72l106 548h64l-8 -76q15 13 37 28t49 28t58.5 22.5t65.5 11.5zM279 744q30 0 51.5 -10.5t34 -29.5t17 -44t1.5 -54h-53q3 38 -9.5 60t-49.5 22q-38 0 -60 -22.5t-33 -59.5h-57q14 61 54.5 99.5t103.5 38.5z" />
    <glyph glyph-name="uni0214" unicode="&#x214;" horiz-adv-x="704" 
d="M218 750l-91 -468q-12 -61 -8.5 -103.5t23.5 -69t56.5 -38.5t89.5 -12q55 0 97 12t72.5 38.5t50.5 69t32 103.5l91 468h75l-94 -482q-27 -139 -103 -210t-219 -71q-146 0 -207 70.5t-32 219.5l92 473h75zM407 806h-58l-44 134h76zM545 806h-57l-41 134h76z" />
    <glyph glyph-name="uni0215" unicode="&#x215;" horiz-adv-x="570" 
d="M177 548l-74 -382q-11 -54 3.5 -81t66.5 -27q42 0 94.5 17t100.5 47l84 426h73l-106 -548h-64l2 56q-47 -29 -99.5 -47.5t-103.5 -18.5q-84 0 -112.5 47t-12.5 127l75 384h73zM290 606h-58l-44 134h76zM428 606h-57l-41 134h76z" />
    <glyph glyph-name="uni0216" unicode="&#x216;" horiz-adv-x="704" 
d="M218 750l-91 -468q-12 -61 -8.5 -103.5t23.5 -69t56.5 -38.5t89.5 -12q55 0 97 12t72.5 38.5t50.5 69t32 103.5l91 468h75l-94 -482q-27 -139 -103 -210t-219 -71q-146 0 -207 70.5t-32 219.5l92 473h75zM461 944q30 0 51.5 -10.5t34 -29.5t17 -44t1.5 -54h-53
q3 38 -9.5 60t-49.5 22q-38 0 -60 -22.5t-33 -59.5h-57q14 61 54.5 99.5t103.5 38.5z" />
    <glyph glyph-name="uni0217" unicode="&#x217;" horiz-adv-x="570" 
d="M177 548l-74 -382q-11 -54 3.5 -81t66.5 -27q42 0 94.5 17t100.5 47l84 426h73l-106 -548h-64l2 56q-47 -29 -99.5 -47.5t-103.5 -18.5q-84 0 -112.5 47t-12.5 127l75 384h73zM355 744q30 0 51.5 -10.5t34 -29.5t17 -44t1.5 -54h-53q3 38 -9.5 60t-49.5 22
q-38 0 -60 -22.5t-33 -59.5h-57q14 61 54.5 99.5t103.5 38.5z" />
    <glyph glyph-name="uni0218" unicode="&#x218;" horiz-adv-x="574" 
d="M507 252q0 -128 -74.5 -195t-225.5 -67q-55 0 -112.5 8.5t-111.5 31.5l15 74q69 -28 122.5 -36.5t98.5 -8.5q103 0 156.5 43.5t53.5 134.5q0 18 -4.5 31.5t-17 25t-34.5 21t-56 19.5l-100 28q-68 19 -100.5 60t-32.5 99q0 121 75 180t210 59q55 0 103 -6t82 -19l-12 -66
q-39 12 -80.5 17.5t-87.5 5.5q-42 0 -81 -6.5t-68.5 -24.5t-47 -50t-17.5 -83q0 -37 21.5 -60.5t72.5 -37.5l97 -28q45 -13 75 -28t48 -33.5t25.5 -40.5t7.5 -48zM207 -56h88l-95 -177h-68z" />
    <glyph glyph-name="uni0219" unicode="&#x219;" horiz-adv-x="460" 
d="M384 187q0 -99 -59.5 -148t-166.5 -49q-20 0 -43.5 2t-47 5.5t-46.5 9.5t-41 15l13 66q47 -20 90.5 -27t81.5 -7q42 0 70 9.5t45 26t24 39.5t7 50q0 12 -4 21t-14 16.5t-28 14t-45 14.5l-43 12q-68 19 -95.5 49.5t-27.5 76.5q0 48 15.5 82t45 55.5t71 31.5t93.5 10
q42 0 78.5 -5t62.5 -15l-12 -61q-30 9 -62.5 14t-69.5 5q-81 0 -116 -27.5t-35 -85.5q0 -25 18.5 -40.5t68.5 -28.5l43 -11q73 -19 101 -47.5t28 -72.5zM160 -56h88l-95 -177h-68z" />
    <glyph glyph-name="uni021A" unicode="&#x21a;" horiz-adv-x="589" 
d="M90 750h554l-13 -71h-239l-132 -679h-76l132 679h-239zM172 -56h88l-95 -177h-68z" />
    <glyph glyph-name="uni021B" unicode="&#x21b;" horiz-adv-x="385" 
d="M214 484l-65 -337q-11 -53 1 -71.5t51 -18.5q19 0 42 4.5t43 14.5l-13 -66q-20 -11 -48.5 -15.5t-49.5 -4.5q-68 0 -91.5 40.5t-10.5 106.5l68 347h-96l13 64h96l24 124l77 24l-28 -148h150l-13 -64h-150zM112 -56h88l-95 -177h-68z" />
    <glyph glyph-name="uni021C" unicode="&#x21c;" horiz-adv-x="540" 
d="M151 364l13 67l99 9q92 8 141.5 46.5t49.5 116.5q0 49 -39.5 69t-127.5 20q-35 0 -82 -6.5t-96 -22.5l14 68q39 14 90 22t96 8q115 0 168.5 -42.5t53.5 -115.5q0 -60 -31.5 -110t-94.5 -79q48 -19 67 -55.5t19 -73.5q0 -71 -27.5 -120.5t-72.5 -83.5t-102.5 -54
t-118.5 -31.5t-120 -16.5t-106 -8l15 75q82 7 163 17.5t146 35t105.5 68t40.5 117.5q0 24 -8 41.5t-22 28.5t-32 18t-39 10q-30 -6 -65 -9z" />
    <glyph glyph-name="uni021D" unicode="&#x21d;" horiz-adv-x="516" 
d="M79 165l12 64l96 11q93 11 144 49.5t51 116.5q0 50 -40.5 71t-128.5 21q-34 0 -81.5 -7t-95.5 -22l13 65q40 14 90.5 22t95.5 8q114 0 167.5 -42.5t53.5 -112.5q0 -67 -34 -116t-94 -76q25 -9 41.5 -22t26.5 -29.5t14.5 -35t4.5 -37.5q0 -71 -26.5 -121t-70.5 -84
t-100.5 -54t-117 -31.5t-120.5 -16.5t-110 -9l14 72q86 7 168.5 18.5t147 37t103.5 69.5t39 116q0 25 -9 42t-24 28t-34.5 16.5t-40.5 8.5q-14 -4 -29.5 -5.5t-32.5 -3.5z" />
    <glyph glyph-name="uni021E" unicode="&#x21e;" horiz-adv-x="700" 
d="M547 0h-76l68 357h-388l-68 -357h-75l145 750h75l-63 -323h388l63 323h76zM329 944h58l49 -95l89 95h65l-127 -148h-67z" />
    <glyph glyph-name="uni021F" unicode="&#x21f;" horiz-adv-x="608" 
d="M355 0l73 381q11 60 -3.5 86.5t-68.5 26.5q-44 0 -95 -16.5t-102 -45.5l-83 -432h-72l145 750l77 24l-54 -277q46 26 100 45.5t105 19.5q42 0 69.5 -13t42.5 -36.5t17.5 -55.5t-4.5 -71l-74 -386h-73zM285 944h58l49 -95l89 95h65l-127 -148h-67z" />
    <glyph glyph-name="uni0220" unicode="&#x220;" horiz-adv-x="712" 
d="M446 -216l145 746q7 37 7.5 66.5t-10 50.5t-33 32t-61.5 11q-69 0 -145 -26t-149 -67l-115 -597h-76l145 750h66l-6 -81q78 43 153 68t150 25q49 0 82 -16t52 -44.5t23 -68.5t-5 -88l-148 -761h-75z" />
    <glyph glyph-name="uni0221" unicode="&#x221;" horiz-adv-x="683" 
d="M454 89q26 14 53 22.5t55 8.5q45 0 65 -21.5t20 -54.5q0 -24 -10 -43t-26.5 -32.5t-38 -21t-43.5 -7.5q-31 0 -62.5 14.5t-51.5 48.5q-29 -27 -52.5 -55t-34.5 -47h-62q22 34 56 74t76 75q-2 10 -2 15q-57 -35 -113 -55t-118 -20q-46 0 -77.5 15t-49 41t-22 62t3.5 78
l34 170q11 58 35 97.5t57 63.5t73.5 34.5t85.5 10.5q53 0 95 -12t68 -27l44 227l77 24zM456 459q-26 14 -64.5 25t-89.5 11q-32 0 -60 -7t-51.5 -25t-41 -48.5t-26.5 -77.5l-29 -145q-14 -75 11.5 -105t85.5 -30q48 0 100.5 17t96.5 44zM551 71q-23 0 -47 -10t-47 -26
q7 -19 24 -32t47 -13q28 0 47.5 10.5t19.5 39.5q0 15 -10 23t-34 8z" />
    <glyph glyph-name="uni0222" unicode="&#x222;" horiz-adv-x="626" 
d="M286 353l-31 -10q-76 -25 -121 -65.5t-45 -112.5q0 -56 44.5 -82.5t117.5 -26.5q46 0 85.5 11t68 32.5t45 53.5t16.5 75q0 19 -6 35t-21.5 30t-42 26t-67.5 23zM445 762q72 -9 112.5 -52.5t40.5 -106.5q0 -80 -46.5 -134t-130.5 -89q67 -22 94.5 -63t27.5 -88
q0 -54 -20.5 -98.5t-59.5 -76t-95 -48.5t-126 -17q-60 0 -103.5 13t-72 35.5t-42.5 53t-14 66.5q0 81 48.5 137.5t151.5 87.5q-55 18 -81 57.5t-26 89.5q0 48 16.5 87.5t46 69.5t71 49.5t91.5 26.5l-13 -69q-64 -13 -100.5 -56.5t-36.5 -109.5q0 -42 26 -65t80 -37l63 -16
l49 22q58 26 91.5 65.5t33.5 104.5q0 39 -20.5 62.5t-68.5 31.5z" />
    <glyph glyph-name="uni0223" unicode="&#x223;" horiz-adv-x="581" 
d="M272 367l-32 -12q-75 -28 -117 -72.5t-42 -116.5q0 -54 38.5 -84t109.5 -30q45 0 82.5 13.5t64.5 37.5t41.5 57.5t14.5 74.5q0 40 -27.5 70.5t-98.5 50.5zM427 774q69 -11 101 -50.5t32 -98.5q0 -85 -45 -142.5t-130 -94.5q63 -23 90.5 -60.5t27.5 -84.5
q0 -51 -18.5 -96.5t-54.5 -80.5t-88 -55.5t-119 -20.5q-57 0 -97.5 13t-66 35t-37.5 52t-12 64q0 39 11.5 75.5t35 67.5t60 56t87.5 41q-52 23 -77.5 61t-25.5 89q0 48 17 87.5t45.5 69t66.5 48t80 24.5l-12 -61q-57 -13 -91.5 -55t-34.5 -108q0 -42 23 -71.5t73 -45.5
l51 -16l49 22q54 24 88.5 67.5t34.5 115.5q0 36 -17.5 60t-57.5 34z" />
    <glyph glyph-name="uni0224" unicode="&#x224;" horiz-adv-x="590" 
d="M139 158q-19 -22 -38.5 -43.5t-45.5 -48.5h443l-16 -88q-8 -41 -19.5 -69.5t-30 -47t-45 -27t-63.5 -8.5q-23 0 -42 3.5t-33 8.5l13 65q12 -4 26.5 -6.5t34.5 -2.5q21 0 35 5.5t23.5 17t15.5 29.5t11 44l2 10h-457l10 59l470 533q20 22 41.5 45.5t43.5 46.5h-417l12 66
h506l-12 -59z" />
    <glyph glyph-name="uni0225" unicode="&#x225;" horiz-adv-x="473" 
d="M145 151q-21 -23 -41.5 -44.5t-44.5 -44.5h325l-9 -51l-2 -11l-3 -18q-8 -43 -19.5 -72.5t-30.5 -48t-46.5 -27t-65.5 -8.5q-23 0 -43.5 3.5t-34.5 8.5l12 61q11 -4 28 -6.5t38 -2.5q22 0 37 5.5t25.5 17t17 30.5t11.5 46l2 11h-340l10 55l320 353q20 21 38 40t37 37
h-300l12 63h388l-11 -56z" />
    <glyph glyph-name="uni0226" unicode="&#x226;" horiz-adv-x="649" 
d="M571 0h-78l-40 221h-317l-121 -221h-81l419 750h74zM442 290l-44 259q-6 32 -10 58t-9 63q-15 -33 -32 -64l-34 -62l-140 -254h269zM382 913h79l-17 -89h-79z" />
    <glyph glyph-name="uni0227" unicode="&#x227;" horiz-adv-x="512" 
d="M318 0l4 56q-17 -10 -40 -21.5t-49.5 -21.5t-56.5 -16.5t-61 -6.5q-76 0 -105.5 42.5t-12.5 124.5l4 20q9 44 28.5 73t51.5 46t77 24t105 7h108l8 40q6 31 7 55.5t-8.5 41.5t-32 26t-63.5 9q-35 0 -79 -8t-86 -23l12 65q45 15 89 22t85 7q61 0 94 -18t46.5 -47.5t12 -67
t-8.5 -77.5l-68 -352h-61zM360 269h-107q-47 0 -79.5 -5t-53.5 -17t-32.5 -33t-17.5 -53l-2 -11q-10 -54 6 -76t59 -22q22 0 47.5 4.5t52 13t51.5 19t45 22.5zM291 713h79l-17 -89h-79z" />
    <glyph glyph-name="uni0228" unicode="&#x228;" 
d="M203 -263q-20 0 -38.5 1.5t-39.5 5.5l11 56q14 -2 32 -3.5t36 -1.5q26 0 43 3.5t27 10t14 14.5t6 17l2 11q2 11 0 20t-11 15t-26.5 9t-46.5 3h-16l20 102h-208l145 750h449l-13 -70h-374l-50 -256h342l-14 -69h-342l-56 -285h387l-12 -70h-189l-11 -57q63 -5 85 -30.5
t14 -65.5l-2 -11q-6 -31 -20 -50t-35.5 -30t-49 -15t-59.5 -4z" />
    <glyph glyph-name="uni0229" unicode="&#x229;" horiz-adv-x="535" 
d="M157 -263q-20 0 -38.5 1.5t-39.5 5.5l11 56q14 -2 32 -3.5t36 -1.5q26 0 43 3.5t27 10t14 14.5t6 17l2 11q2 11 0 20t-11 15t-26.5 9t-46.5 3h-16l18 96q-98 13 -131.5 77t-11.5 177l11 60q13 69 39.5 117t62.5 78.5t80 44.5t92 14q49 0 87 -14t61.5 -46t29.5 -84
t-9 -128l-7 -35h-374l-4 -19q-11 -51 -8 -85.5t21.5 -56.5t54.5 -31.5t92 -9.5q14 0 32.5 2t37 5t36.5 7.5t30 9.5l-12 -63q-33 -13 -72.5 -18t-72.5 -6l-9 -47q63 -5 85 -30.5t14 -65.5l-2 -11q-6 -31 -20 -50t-35.5 -30t-49 -15t-59.5 -4zM414 318q9 42 7.5 76t-14.5 57.5
t-39 36t-67 12.5q-78 0 -126 -48.5t-65 -133.5l-1 -5h304z" />
    <glyph glyph-name="uni022A" unicode="&#x22a;" horiz-adv-x="719" 
d="M656 309q-32 -163 -125.5 -242t-242.5 -79q-74 0 -127.5 23t-85 67.5t-40 108t7.5 144.5l21 108q31 162 125 242.5t243 80.5q74 0 127.5 -23.5t84.5 -68t39.5 -108.5t-6.5 -145zM601 422q28 139 -21 204t-159 65q-111 0 -183.5 -65t-100.5 -204l-18 -94
q-27 -140 20.5 -204.5t158.5 -64.5q110 0 184 64.5t101 204.5zM336 892h78l-17 -89h-78zM507 892h78l-17 -89h-78zM345 1022h279l-11 -60h-279z" />
    <glyph glyph-name="uni022B" unicode="&#x22b;" horiz-adv-x="568" 
d="M490 233q-47 -243 -277 -243q-113 0 -162.5 68.5t-26.5 189.5l13 68q24 121 95 183.5t184 62.5q115 0 163 -70t24 -191zM433 311q19 96 -14 142t-111 46t-128.5 -46t-69.5 -142l-14 -70q-19 -94 14 -141t111 -47q160 0 198 188zM220 694h78l-17 -89h-78zM391 694h78
l-17 -89h-78zM227 811h279l-11 -60h-279z" />
    <glyph glyph-name="uni022C" unicode="&#x22c;" horiz-adv-x="719" 
d="M656 309q-32 -163 -125.5 -242t-242.5 -79q-74 0 -127.5 23t-85 67.5t-40 108t7.5 144.5l21 108q31 162 125 242.5t243 80.5q74 0 127.5 -23.5t84.5 -68t39.5 -108.5t-6.5 -145zM601 422q28 139 -21 204t-159 65q-111 0 -183.5 -65t-100.5 -204l-18 -94
q-27 -140 20.5 -204.5t158.5 -64.5q110 0 184 64.5t101 204.5zM506 792q-24 0 -38 10t-24 22.5t-19.5 22.5t-23.5 10q-17 0 -31 -17t-22 -47h-59q7 24 17 46t24 39.5t32 27.5t41 10q24 0 38.5 -10t25 -22.5t19.5 -22.5t23 -10q21 0 32.5 17t20.5 48h58q-6 -22 -14.5 -44
t-21.5 -40t-32 -29t-46 -11zM345 1022h279l-11 -60h-279z" />
    <glyph glyph-name="uni022D" unicode="&#x22d;" horiz-adv-x="568" 
d="M490 233q-47 -243 -277 -243q-113 0 -162.5 68.5t-26.5 189.5l13 68q24 121 95 183.5t184 62.5q115 0 163 -70t24 -191zM433 311q19 96 -14 142t-111 46t-128.5 -46t-69.5 -142l-14 -70q-19 -94 14 -141t111 -47q160 0 198 188zM386 589q-24 0 -38 10t-24 22.5
t-19.5 22.5t-23.5 10q-17 0 -31 -17t-22 -47h-59q7 24 17 46t24 39.5t32 27.5t41 10q24 0 38.5 -10t25 -22.5t19.5 -22.5t23 -10q21 0 32.5 17t20.5 48h58q-6 -22 -14.5 -44t-21.5 -40t-32 -29t-46 -11zM226 811h279l-11 -60h-279z" />
    <glyph glyph-name="uni022E" unicode="&#x22e;" horiz-adv-x="719" 
d="M656 309q-32 -163 -125.5 -242t-242.5 -79q-74 0 -127.5 23t-85 67.5t-40 108t7.5 144.5l21 108q31 162 125 242.5t243 80.5q74 0 127.5 -23.5t84.5 -68t39.5 -108.5t-6.5 -145zM601 422q28 139 -21 204t-159 65q-111 0 -183.5 -65t-100.5 -204l-18 -94
q-27 -140 20.5 -204.5t158.5 -64.5q110 0 184 64.5t101 204.5zM425 913h79l-17 -89h-79z" />
    <glyph glyph-name="uni022F" unicode="&#x22f;" horiz-adv-x="568" 
d="M490 233q-47 -243 -277 -243q-113 0 -162.5 68.5t-26.5 189.5l13 68q24 121 95 183.5t184 62.5q115 0 163 -70t24 -191zM433 311q19 96 -14 142t-111 46t-128.5 -46t-69.5 -142l-14 -70q-19 -94 14 -141t111 -47q160 0 198 188zM308 713h79l-17 -89h-79z" />
    <glyph glyph-name="uni0230" unicode="&#x230;" horiz-adv-x="719" 
d="M656 309q-32 -163 -125.5 -242t-242.5 -79q-74 0 -127.5 23t-85 67.5t-40 108t7.5 144.5l21 108q31 162 125 242.5t243 80.5q74 0 127.5 -23.5t84.5 -68t39.5 -108.5t-6.5 -145zM601 422q28 139 -21 204t-159 65q-111 0 -183.5 -65t-100.5 -204l-18 -94
q-27 -140 20.5 -204.5t158.5 -64.5q110 0 184 64.5t101 204.5zM423 902h79l-17 -89h-79zM345 1022h279l-11 -60h-279z" />
    <glyph glyph-name="uni0231" unicode="&#x231;" horiz-adv-x="568" 
d="M490 233q-47 -243 -277 -243q-113 0 -162.5 68.5t-26.5 189.5l13 68q24 121 95 183.5t184 62.5q115 0 163 -70t24 -191zM433 311q19 96 -14 142t-111 46t-128.5 -46t-69.5 -142l-14 -70q-19 -94 14 -141t111 -47q160 0 198 188zM306 701h79l-17 -89h-79zM226 811h279
l-11 -60h-279z" />
    <glyph glyph-name="uni0232" unicode="&#x232;" horiz-adv-x="574" 
d="M317 313l-60 -313h-75l60 311l-162 439h76l89 -253l22 -64t19 -66q21 35 44 67t45 63l181 253h85zM240 915h279l-11 -60h-279z" />
    <glyph glyph-name="uni0233" unicode="&#x233;" horiz-adv-x="517" 
d="M103 -213h-73l123 213l-105 548h74l60 -345q6 -33 9 -64t7 -74q21 45 38 77.5t34 63.5l191 342h76zM176 715h279l-11 -60h-279z" />
    <glyph glyph-name="uni0234" unicode="&#x234;" horiz-adv-x="370" 
d="M155 198q20 4 48 4q67 0 97 -26.5t30 -65.5q0 -29 -10.5 -52t-29 -38.5t-43.5 -23.5t-53 -8q-35 0 -58.5 9.5t-38 26t-20.5 39t-6 48.5q-31 -21 -52.5 -50t-38.5 -61h-62q10 21 24.5 45t34 47.5t44 45t56.5 36.5l3 14l110 562l78 24zM198 147q-14 0 -27.5 -1.5
t-25.5 -3.5q-2 -17 -2 -34.5t5 -32t16.5 -24t32.5 -9.5q41 0 58.5 20.5t17.5 43.5q0 41 -75 41z" />
    <glyph glyph-name="uni0235" unicode="&#x235;" horiz-adv-x="673" 
d="M428 381q11 60 -3.5 86.5t-68.5 26.5q-41 0 -93.5 -16t-103.5 -47l-83 -431h-72l106 548h64l-3 -52q44 26 99 46t106 20q42 0 70 -13t43 -36.5t17.5 -55.5t-4.5 -71l-36 -188q11 2 22.5 3t24.5 1q64 0 92.5 -26t26.5 -66q0 -27 -11.5 -49.5t-31 -38.5t-44.5 -25t-52 -9
q-35 0 -56.5 10t-34 27.5t-17 40t-3.5 47.5q-33 -21 -56.5 -50.5t-40.5 -62.5h-63q10 21 24.5 45.5t35 48.5t47 45.5t59.5 36.5l3 12zM509 147q-26 0 -54 -5q-3 -19 -4 -37t3.5 -32t15.5 -22.5t31 -8.5q13 0 26.5 4t24 12t17 19.5t6.5 27.5q2 20 -13 31t-53 11z" />
    <glyph glyph-name="uni0236" unicode="&#x236;" horiz-adv-x="385" 
d="M158 198q20 4 48 4q67 0 97 -26.5t30 -65.5q0 -29 -10.5 -52t-29 -38.5t-43.5 -23.5t-53 -8q-35 0 -58.5 9.5t-38 26t-20.5 39t-6 48.5q-31 -21 -52.5 -50t-38.5 -61h-62q10 21 24.5 45t34 47.5t44 45t56.5 36.5l3 14l59 296h-97l13 64h96l24 124l77 24l-28 -148h150
l-13 -64h-150zM201 147q-14 0 -27.5 -1.5t-25.5 -3.5q-2 -17 -2 -34.5t5 -32t16.5 -24t32.5 -9.5q41 0 58.5 20.5t17.5 43.5q0 41 -75 41z" />
    <glyph glyph-name="uni0237" unicode="&#x237;" horiz-adv-x="247" 
d="M77 -90q-7 -34 -17.5 -58.5t-28 -40.5t-42.5 -24t-60 -8q-20 0 -44.5 2.5t-44.5 8.5l12 62q18 -4 36 -6t41 -2q36 0 52.5 17t24.5 59l123 628h73z" />
    <glyph glyph-name="uni0238" unicode="&#x238;" horiz-adv-x="948" 
d="M748 562q48 0 79.5 -17t48 -46t19.5 -66.5t-5 -77.5l-29 -149q-12 -63 -35.5 -104.5t-55.5 -66.5t-72.5 -35.5t-86.5 -10.5q-56 0 -97 18.5t-70 41.5l-15 -49h-53l4 54q-38 -24 -93.5 -44t-121.5 -20q-46 0 -77.5 15t-49 41t-22 62t3.5 78l34 170q11 58 35 97.5t57 63.5
t73.5 34.5t85.5 10.5q53 0 95 -12t68 -27l44 227l77 24l-54 -276q18 10 42 21.5t52 21t58.5 15.5t60.5 6zM456 459q-26 14 -64.5 25t-89.5 11q-32 0 -60 -7t-51.5 -25t-41 -48.5t-26.5 -77.5l-29 -145q-14 -75 11.5 -105t85.5 -30q48 0 100.5 17t96.5 44zM720 494
q-24 0 -50.5 -5.5t-52.5 -14.5t-50 -20t-45 -23l-61 -319q19 -18 41 -29t43 -17t39.5 -8t32.5 -2q74 0 116 39.5t59 128.5l23 122q16 82 -8 115t-87 33z" />
    <glyph glyph-name="uni0239" unicode="&#x239;" horiz-adv-x="948" 
d="M748 562q49 0 80 -17.5t47.5 -46.5t19.5 -66t-5 -77l-30 -155q-12 -63 -37 -103.5t-60 -64t-80 -33t-96 -9.5q-15 0 -35 2t-40.5 5t-39 8t-31.5 11l-45 -232h-71l49 254q-38 -20 -91.5 -34t-115.5 -14q-47 0 -78.5 14.5t-49.5 40.5t-22.5 61.5t3.5 77.5l34 170
q12 60 36 100t57.5 64t74.5 34t87 10q55 0 95 -16.5t64 -38.5l14 41h55l-2 -50q18 9 41.5 20.5t51.5 21t58 16t62 6.5zM453 79q27 -11 64 -17t69 -6q46 0 80.5 8.5t59.5 28t41 52t25 80.5l23 122q16 82 -8.5 114.5t-87.5 32.5q-23 0 -49 -5.5t-52 -14t-50.5 -19.5t-45.5 -23
zM453 443q-27 22 -63.5 37t-87.5 15q-32 0 -60 -7t-51.5 -25t-41 -48.5t-26.5 -77.5l-29 -145q-14 -75 12 -105t86 -30q48 0 100.5 12t92.5 35z" />
    <glyph glyph-name="uni023A" unicode="&#x23a;" horiz-adv-x="635" 
d="M457 592l130 200h64l-179 -276l99 -516h-78l-40 221h-173l-171 -264h-64l171 264h-80l-121 -221h-81l419 750h74zM261 290l143 220l-6 39q-6 32 -10 58t-9 63q-15 -33 -32 -64l-34 -62l-140 -254h88zM417 433l-92 -143h117z" />
    <glyph glyph-name="uni023B" unicode="&#x23b;" horiz-adv-x="599" 
d="M11 -43l65 100q-38 42 -44.5 109t12.5 159l25 125q18 92 50.5 152t79 95t106 49t130.5 14q23 0 46.5 -1.5t46.5 -4.5l25 38h64l-31 -48l29 -9l-13 -66q-11 4 -25.5 7t-30.5 6l-386 -594q47 -28 143 -28q43 0 94 5.5t102 21.5l-13 -68q-20 -8 -45 -13t-51.5 -9t-53 -5.5
t-50.5 -1.5q-109 0 -168 34l-43 -67h-64zM114 301q-11 -57 -10 -100t18 -73l364 561q-15 1 -30.5 1.5t-30.5 0.5q-67 0 -115 -15.5t-81 -46.5t-54 -78t-33 -110z" />
    <glyph glyph-name="uni023C" unicode="&#x23c;" horiz-adv-x="478" 
d="M-9 -43l60 90q-53 63 -26 199l15 75q14 69 40 115.5t63 74.5t83 39.5t99 11.5q15 0 31 -1t32 -3l37 56h60l-44 -66l20 -7l-11 -60q-11 4 -22.5 6.5t-23.5 4.5l-274 -415q34 -24 104 -24q32 0 68.5 5t78.5 19l-12 -63q-36 -15 -78 -19.5t-77 -4.5q-39 0 -70 6.5t-55 18.5
l-38 -58h-60zM96 234q-7 -35 -7 -64t8 -52l251 379q-8 1 -15 1h-15q-48 0 -83 -13t-59 -36.5t-39 -56t-23 -72.5z" />
    <glyph glyph-name="uni023D" unicode="&#x23d;" horiz-adv-x="559" 
d="M231 750l-61 -313h174l-13 -66h-174l-58 -299h374l-13 -72h-449l71 371h-92l13 66h92l61 313h75z" />
    <glyph glyph-name="uni023E" unicode="&#x23e;" horiz-adv-x="589" 
d="M90 750h444l27 42h64l-28 -42h47l-13 -71h-80l-227 -351l-64 -328h-76l31 160l-132 -203h-64l223 344l74 378h-239zM351 468l137 211h-96z" />
    <glyph glyph-name="uni023F" unicode="&#x23f;" horiz-adv-x="460" 
d="M384 187q0 -99 -59.5 -148t-166.5 -49h-16.5t-17.5 1q7 -6 13.5 -13.5t14.5 -15.5q20 -21 39.5 -35.5t42 -23.5t49.5 -12t61 -2l-11 -58q-31 0 -62 2.5t-61 13t-59.5 30.5t-57.5 54q-34 41 -56 58t-37 25q-9 3 -20 8l13 66q47 -20 90.5 -27t81.5 -7q42 0 70 9.5t45 26
t24 39.5t7 50q0 12 -4 21t-14 16.5t-28 14t-45 14.5l-43 12q-68 19 -95.5 49.5t-27.5 76.5q0 48 15.5 82t45 55.5t71 31.5t93.5 10q42 0 78.5 -5t62.5 -15l-12 -61q-30 9 -62.5 14t-69.5 5q-81 0 -116 -27.5t-35 -85.5q0 -25 18.5 -40.5t68.5 -28.5l43 -11q73 -19 101 -47.5
t28 -72.5z" />
    <glyph glyph-name="uni0240" unicode="&#x240;" horiz-adv-x="473" 
d="M39 46q10 -3 20.5 -7.5t24 -12t31.5 -19.5t42 -31q19 -15 41.5 -29t48.5 -25t56 -17t65 -4l-12 -65q-35 -2 -67 3t-65 17.5t-67 34.5t-73 55q-18 15 -36 25t-34.5 16.5t-30.5 9.5t-22 3l10 55l324 353q20 21 38 40t37 37h-304l12 63h388l-11 -56l-314 -341
q-11 -11 -23.5 -24.5t-26 -27.5t-27 -27.5z" />
    <glyph glyph-name="uni0241" unicode="&#x241;" horiz-adv-x="493" 
d="M153 206q7 35 18 64t29 54.5t44 50t63 50.5q31 22 52 39.5t34 37t18.5 43.5t5.5 60q0 21 -6.5 36t-21.5 24.5t-40 14.5t-63 5q-48 0 -96 -11.5t-92 -28.5l14 73q37 15 86 27t105 12q52 0 88.5 -11t59.5 -30.5t33.5 -47t10.5 -60.5q0 -56 -13.5 -93.5t-35.5 -64.5
t-50 -46.5t-56 -39.5q-30 -22 -50 -41t-33 -38.5t-20 -40.5t-12 -47l-37 -197h-74z" />
    <glyph glyph-name="uni0242" unicode="&#x242;" horiz-adv-x="436" 
d="M122 101q5 26 10.5 46.5t16.5 39t29 37t48 39.5q25 18 44.5 32.5t33 31.5t20 40t6.5 58q0 38 -23 52.5t-74 14.5q-46 0 -86.5 -10t-85.5 -29l12 70q37 17 81 27t92 10q78 0 118 -34t40 -98q0 -51 -12.5 -84.5t-32 -57.5t-43.5 -41l-48 -34q-19 -14 -32 -25.5t-21 -24
t-13.5 -28.5t-9.5 -40l-17 -93h-72z" />
    <glyph glyph-name="uni0243" unicode="&#x243;" horiz-adv-x="635" 
d="M-20 246h81l98 504h236q54 0 95.5 -7.5t67.5 -26.5t36 -52t1 -85l-8 -46q-5 -24 -14 -46.5t-25 -41.5t-40.5 -33.5t-58.5 -22.5q69 -10 94 -50t14 -91l-15 -74q-10 -54 -30 -88t-54 -53t-84 -26t-119 -7h-241l35 182h-82zM158 358l-22 -112h171l-13 -64h-171l-22 -115
h165q52 0 88 5t59.5 18.5t37 37t20.5 60.5l11 55q6 29 2.5 50.5t-20 36t-48 21.5t-81.5 7h-177zM222 683l-52 -262h172q33 0 61 5t50 17t37 33.5t21 54.5l10 51q6 31 2.5 50.5t-20 30.5t-47 15.5t-77.5 4.5h-157z" />
    <glyph glyph-name="uni0244" unicode="&#x244;" horiz-adv-x="775" 
d="M270 750l-61 -313h413l61 313h75l-61 -313h81l-14 -68h-81l-19 -101q-27 -139 -103 -210t-219 -71q-146 0 -207 70.5t-32 219.5l18 92h-80l14 68h79l61 313h75zM340 59q55 0 97 12t72.5 38.5t50.5 69t32 103.5l17 87h-413l-17 -87q-12 -61 -8.5 -103.5t23.5 -69
t56.5 -38.5t89.5 -12z" />
    <glyph glyph-name="uni0245" unicode="&#x245;" horiz-adv-x="644" 
d="M489 0l-86 506q-6 39 -12.5 74.5t-10.5 82.5q-22 -47 -40.5 -82.5t-40.5 -74.5l-284 -506h-81l422 750h74l136 -750h-77z" />
    <glyph glyph-name="uni0246" unicode="&#x246;" horiz-adv-x="590" 
d="M523 750l27 42h64l-28 -42h23l-13 -70h-55l-166 -256h139l-14 -69h-170l-185 -285h344l-12 -70h-377l-28 -43h-64l28 43h-21l145 750h363zM172 424h139l166 256h-255zM111 115l155 240h-108z" />
    <glyph glyph-name="uni0247" unicode="&#x247;" horiz-adv-x="535" 
d="M14 -43l52 78q-71 64 -41 213l11 60q13 69 39.5 117t62.5 78.5t80 44.5t92 14q55 0 93 -17l45 69h60l-64 -96q32 -31 42 -86t-7 -142l-7 -35h-202l-123 -188q20 -8 46 -11t61 -3q14 0 32.5 2t37 5t36.5 7.5t30 9.5l-12 -63q-35 -14 -77.5 -19t-76.5 -5q-35 0 -64 5
t-52 14l-34 -52h-60zM109 313h140l116 176q-27 11 -64 11q-78 0 -126 -48.5t-65 -133.5zM94 236q-11 -50 -8.5 -84t20.5 -56l105 159h-113zM414 318q9 45 7 80t-17 58l-95 -143h104z" />
    <glyph glyph-name="uni0248" unicode="&#x248;" horiz-adv-x="404" 
d="M378 750l-61 -314h95l-13 -64h-95l-39 -203q-9 -48 -24.5 -82t-40 -55.5t-60.5 -31.5t-87 -10q-28 0 -60.5 4.5t-51.5 10.5l14 73q26 -8 54 -11t55 -3q61 0 88.5 29t39.5 94l36 185h-163l13 64h162l62 314h76z" />
    <glyph glyph-name="uni0249" unicode="&#x249;" horiz-adv-x="285" 
d="M162 345h112l-12 -64h-113l-72 -371q-7 -34 -17.5 -58.5t-28 -40.5t-42.5 -24t-60 -8q-20 0 -44.5 2.5t-44.5 8.5l12 62q18 -4 36 -6t41 -2q36 0 52.5 17t24.5 59l70 361h-117l12 64h118l40 203h73zM228 669h-77l15 82h77z" />
    <glyph glyph-name="uni024A" unicode="&#x24a;" horiz-adv-x="689" 
d="M528 -38q-11 -60 1.5 -88t59.5 -28q24 0 39 3t30 7l-13 -65q-33 -12 -80 -12q-71 0 -101 44.5t-11 140.5l17 86q-47 -23 -112 -41.5t-146 -18.5q-60 0 -98.5 19.5t-58.5 53t-23 79.5t7 99l52 264q15 74 44 123.5t69 79t89.5 42t103.5 12.5q69 0 121 -21t82 -48l17 54h64z
M581 618q-33 28 -80 50t-110 22q-42 0 -79 -10.5t-66.5 -34.5t-50.5 -64t-33 -99l-49 -248q-9 -47 -4.5 -80t20.5 -53.5t43.5 -29.5t65.5 -9q30 0 63 4.5t65 12.5t62.5 19.5t54.5 25.5z" />
    <glyph glyph-name="uni024B" unicode="&#x24b;" horiz-adv-x="587" 
d="M424 -74q-9 -48 -1.5 -68t44.5 -20q19 0 33 2.5t26 5.5l-12 -60q-14 -5 -32 -7t-38 -2q-61 0 -84 36t-8 112l22 113q-38 -20 -91.5 -34t-115.5 -14q-47 0 -78.5 14.5t-49.5 40.5t-22.5 61.5t3.5 77.5l34 170q12 60 36 100t57.5 64t74.5 34t87 10q55 0 95 -16.5t64 -38.5
l14 41h63zM453 443q-27 22 -63.5 37t-87.5 15q-32 0 -60 -7t-51.5 -25t-41 -48.5t-26.5 -77.5l-29 -145q-14 -75 12 -105t86 -30q48 0 100.5 12t92.5 35z" />
    <glyph glyph-name="uni024C" unicode="&#x24c;" horiz-adv-x="660" 
d="M92 316h-98l14 65h96l72 369h264q54 0 96.5 -8.5t69 -31.5t35.5 -63t-3 -104l-9 -45q-8 -44 -23 -74t-36.5 -50.5t-49.5 -32t-62 -17.5l104 -324h-80l-99 315h-217l-60 -315h-75zM238 681l-58 -299h165q52 0 89 5t61.5 18.5t38.5 37t21 60.5l12 58q13 69 -18.5 94.5
t-119.5 25.5h-191z" />
    <glyph glyph-name="uni024D" unicode="&#x24d;" horiz-adv-x="366" 
d="M361 487q-53 -5 -107 -25.5t-101 -59.5l-16 -81h141l-12 -61h-140l-50 -260h-72l50 260h-84l12 61h84l44 227h64l-8 -76q15 13 37 28t49 28t58.5 22.5t65.5 11.5z" />
    <glyph glyph-name="uni024E" unicode="&#x24e;" horiz-adv-x="604" 
d="M562 640h79l-12 -60h-111l-198 -267l-60 -313h-75l60 311l-100 269h-111l12 60h77l-40 110h76l38 -110h283l79 110h85zM289 367q21 35 44 67t45 63l59 83h-219l30 -83l22 -64t19 -66z" />
    <glyph glyph-name="uni024F" unicode="&#x24f;" horiz-adv-x="533" 
d="M453 388h79l-12 -61h-102l-308 -540h-73l123 213l-63 327h-100l12 61h76l-30 160h74l28 -160h221l90 160h76zM205 65q21 45 38 77.5t34 63.5l67 121h-177l22 -124q6 -33 9 -64t7 -74z" />
    <glyph glyph-name="gravecomb" unicode="&#x300;" horiz-adv-x="582" 
d="M377 606h-69l-78 134h89z" />
    <glyph glyph-name="acutecomb" unicode="&#x301;" horiz-adv-x="582" 
d="M369 740h98l-135 -134h-79z" />
    <glyph glyph-name="uni0302" unicode="&#x302;" horiz-adv-x="582" 
d="M331 754h67l68 -148h-58l-50 95l-89 -95h-64z" />
    <glyph glyph-name="tildecomb" unicode="&#x303;" horiz-adv-x="582" 
d="M396 613q-24 0 -38 10t-24 22.5t-19.5 22.5t-23.5 10q-17 0 -31 -17t-22 -47h-59q7 24 17 46t24 39.5t32 27.5t41 10q24 0 38.5 -10t25 -22.5t19.5 -22.5t23 -10q21 0 32.5 17t20.5 48h58q-6 -22 -14.5 -44t-21.5 -40t-32 -29t-46 -11z" />
    <glyph glyph-name="uni0304" unicode="&#x304;" horiz-adv-x="582" 
d="M204 715h279l-11 -60h-279z" />
    <glyph glyph-name="uni0306" unicode="&#x306;" horiz-adv-x="587" 
d="M334 606q-30 0 -52 10.5t-36 29.5t-19 44t-2 54h53q-2 -40 11.5 -61t47.5 -21q38 0 60.5 22.5t33.5 59.5h56q-14 -61 -51.5 -99.5t-101.5 -38.5z" />
    <glyph glyph-name="uni0307" unicode="&#x307;" horiz-adv-x="582" 
d="M317 713h79l-17 -89h-79z" />
    <glyph glyph-name="uni0308" unicode="&#x308;" horiz-adv-x="582" 
d="M232 712h78l-17 -89h-78zM403 712h78l-17 -89h-78z" />
    <glyph glyph-name="hookabovecomb" unicode="&#x309;" horiz-adv-x="582" 
d="M306 594l5 25q3 13 6 21t9.5 14.5t17 12.5t27.5 15q23 12 33 21t10 27q0 11 -12 16t-39 5q-16 0 -38 -4t-41 -11l9 46q17 7 38 11.5t44 4.5q53 0 73.5 -19t20.5 -47q0 -18 -6 -30.5t-15 -21.5t-20 -15.5t-21 -11.5q-28 -14 -35 -21t-9 -18l-4 -20h-53z" />
    <glyph glyph-name="uni030A" unicode="&#x30a;" horiz-adv-x="582" 
d="M341 639q26 0 45.5 19t19.5 50q0 41 -42 41q-26 0 -45.5 -19t-19.5 -50q0 -41 42 -41zM371 793q38 0 60.5 -24t22.5 -57q0 -24 -9.5 -45.5t-25.5 -37.5t-38 -25t-47 -9q-38 0 -60.5 24t-22.5 57q0 24 9.5 45.5t25.5 37.5t38 25t47 9z" />
    <glyph glyph-name="uni030B" unicode="&#x30b;" horiz-adv-x="582" 
d="M422 740h79l-95 -134h-58zM272 740h79l-95 -134h-60z" />
    <glyph glyph-name="uni030C" unicode="&#x30c;" horiz-adv-x="592" 
d="M233 744h58l49 -95l89 95h65l-127 -148h-67z" />
    <glyph glyph-name="uni030F" unicode="&#x30f;" horiz-adv-x="582" 
d="M312 606h-58l-44 134h76zM450 606h-57l-41 134h76z" />
    <glyph glyph-name="uni0310" unicode="&#x310;" horiz-adv-x="582" 
d="M334 606q-30 0 -52 10.5t-36 29.5t-19 44t-2 54h53q-2 -40 11.5 -61t47.5 -21q38 0 60.5 22.5t33.5 59.5h56q-14 -61 -51.5 -99.5t-101.5 -38.5zM333 831h78l-17 -86h-78z" />
    <glyph glyph-name="uni0311" unicode="&#x311;" horiz-adv-x="582" 
d="M363 744q30 0 51.5 -10.5t34 -29.5t17 -44t1.5 -54h-53q3 38 -9.5 60t-49.5 22q-38 0 -60 -22.5t-33 -59.5h-57q14 61 54.5 99.5t103.5 38.5z" />
    <glyph glyph-name="uni0316" unicode="&#x316;" horiz-adv-x="582" 
d="M265 -208h-69l-79 134h89z" />
    <glyph glyph-name="uni0317" unicode="&#x317;" horiz-adv-x="582" 
d="M197 -74h98l-135 -134h-79z" />
    <glyph glyph-name="dotbelowcomb" unicode="&#x323;" horiz-adv-x="582" 
d="M174 -90h79l-17 -89h-79z" />
    <glyph glyph-name="uni0324" unicode="&#x324;" horiz-adv-x="582" 
d="M84 -90h79l-17 -91h-79zM256 -90h79l-17 -91h-79z" />
    <glyph glyph-name="uni0325" unicode="&#x325;" horiz-adv-x="582" 
d="M196 -196q26 0 45.5 19t19.5 50q0 41 -42 41q-26 0 -45.5 -19t-19.5 -50q0 -41 42 -41zM226 -42q38 0 60.5 -24t22.5 -57q0 -24 -9.5 -45.5t-25.5 -37.5t-38 -25t-47 -9q-38 0 -60.5 24t-22.5 57q0 24 9.5 45.5t25.5 37.5t38 25t47 9z" />
    <glyph glyph-name="uni0326" unicode="&#x326;" horiz-adv-x="582" 
d="M230 -56h88l-95 -177h-68z" />
    <glyph glyph-name="uni0327" unicode="&#x327;" horiz-adv-x="582" 
d="M171 -263q-20 0 -38.5 1.5t-39.5 5.5l11 56q14 -2 32 -3.5t36 -1.5q26 0 43 3.5t27 10t14 14.5t6 17l2 11q2 11 0 20t-11 15t-26.5 9t-46.5 3h-16l25 128h66l-17 -83q63 -5 85 -30.5t14 -65.5l-2 -11q-6 -31 -20 -50t-35.5 -30t-49 -15t-59.5 -4z" />
    <glyph glyph-name="uni0328" unicode="&#x328;" horiz-adv-x="582" 
d="M203 -223q-61 0 -89 30t-20 72l2 11q4 20 16.5 37.5t30.5 32t38.5 25t39.5 15.5h70q-48 -22 -80.5 -51t-37.5 -59l-1 -6q-4 -24 8.5 -35t50.5 -11q14 0 32.5 2t29.5 5l-12 -58q-14 -4 -34 -7t-44 -3z" />
    <glyph glyph-name="uni032C" unicode="&#x32c;" horiz-adv-x="582" 
d="M75 -67h58l49 -95l89 95h65l-127 -148h-67z" />
    <glyph glyph-name="uni032D" unicode="&#x32d;" horiz-adv-x="582" 
d="M180 -70h67l68 -148h-58l-50 95l-89 -95h-64z" />
    <glyph glyph-name="uni032E" unicode="&#x32e;" horiz-adv-x="582" 
d="M183 -210q-30 0 -52 10.5t-36 29.5t-19 44t-2 54h53q-1 -38 10.5 -60.5t48.5 -22.5q39 0 61 23t33 60h56q-14 -61 -51.5 -99.5t-101.5 -38.5z" />
    <glyph glyph-name="uni032F" unicode="&#x32f;" horiz-adv-x="582" 
d="M203 -75q30 0 51.5 -10.5t34 -29.5t17 -44t1.5 -54h-53q3 38 -9.5 60t-49.5 22q-38 0 -60 -22.5t-33 -59.5h-57q14 61 54.5 99.5t103.5 38.5z" />
    <glyph glyph-name="uni0330" unicode="&#x330;" horiz-adv-x="582" 
d="M252 -204q-24 0 -38 10t-24 22.5t-19.5 22.5t-23.5 10q-17 0 -31 -17t-22 -47h-59q7 24 17 46t24 39.5t32 27.5t41 10q24 0 38.5 -10t25 -22.5t19.5 -22.5t23 -10q21 0 32.5 17t20.5 48h58q-6 -22 -14.5 -44t-21.5 -40t-32 -29t-46 -11z" />
    <glyph glyph-name="uni0331" unicode="&#x331;" horiz-adv-x="582" 
d="M51 -107h291l-12 -60h-291z" />
    <glyph glyph-name="uni0340" unicode="&#x340;" horiz-adv-x="582" 
d="M377 606h-69l-78 134h89z" />
    <glyph glyph-name="uni0341" unicode="&#x341;" horiz-adv-x="582" 
d="M369 740h98l-135 -134h-79z" />
    <glyph glyph-name="uni0342" unicode="&#x342;" horiz-adv-x="582" 
d="M396 613q-24 0 -38 10t-24 22.5t-19.5 22.5t-23.5 10q-17 0 -31 -17t-22 -47h-59q7 24 17 46t24 39.5t32 27.5t41 10q24 0 38.5 -10t25 -22.5t19.5 -22.5t23 -10q21 0 32.5 17t20.5 48h58q-6 -22 -14.5 -44t-21.5 -40t-32 -29t-46 -11z" />
    <glyph glyph-name="uni0400" unicode="&#x400;" horiz-adv-x="580" 
d="M598 750l-13 -67h-371l-49 -261h339l-13 -65h-339l-55 -290h388l-11 -67h-465l142 750h447zM454 805h-67l-83 137h84z" />
    <glyph glyph-name="uni0401" unicode="&#x401;" 
d="M602 750l-13 -70h-374l-50 -256h342l-14 -69h-342l-56 -285h387l-12 -70h-462l145 750h449zM291 912h78l-17 -89h-78zM462 912h78l-17 -89h-78z" />
    <glyph glyph-name="uni0402" unicode="&#x402;" horiz-adv-x="718" 
d="M588 -48q-9 -44 -18.5 -76t-24.5 -53t-39 -31.5t-63 -10.5q-26 0 -53.5 2.5t-49.5 8.5l13 62q19 -5 35 -7t42 -2q36 0 54 17.5t26 60.5l65 347q11 60 -3.5 86.5t-68.5 26.5q-44 0 -96.5 -17.5t-101.5 -46.5l-61 -319h-75l129 681h-224l14 69h561l-13 -69h-262l-57 -296
q45 26 100.5 46t105.5 20q42 0 70 -13t42.5 -36.5t17.5 -55.5t-4 -71z" />
    <glyph glyph-name="uni0403" unicode="&#x403;" horiz-adv-x="557" 
d="M85 0h-76l142 750h451l-13 -70h-375zM447 942h89l-129 -137h-73z" />
    <glyph glyph-name="uni0404" unicode="&#x404;" horiz-adv-x="598" 
d="M597 671q-33 11 -74 16t-95 5q-68 0 -118 -17t-85 -51.5t-56.5 -87t-33.5 -123.5h338l-13 -66h-337q-11 -57 -14.5 -109t13 -92t60.5 -64t128 -24q42 0 89.5 5.5t97.5 21.5l-13 -66q-23 -9 -50 -14.5t-53.5 -8.5t-50 -4.5t-40.5 -1.5q-91 0 -145.5 26.5t-81 72.5
t-29.5 107.5t10 130.5l24 131q16 86 47.5 144t78 93t107 50t134.5 15q51 0 97 -6t78 -19z" />
    <glyph glyph-name="uni0405" unicode="&#x405;" horiz-adv-x="574" 
d="M507 252q0 -128 -74.5 -195t-225.5 -67q-55 0 -112.5 8.5t-111.5 31.5l15 74q69 -28 122.5 -36.5t98.5 -8.5q103 0 156.5 43.5t53.5 134.5q0 18 -4.5 31.5t-17 25t-34.5 21t-56 19.5l-100 28q-68 19 -100.5 60t-32.5 99q0 121 75 180t210 59q55 0 103 -6t82 -19l-12 -66
q-39 12 -80.5 17.5t-87.5 5.5q-42 0 -81 -6.5t-68.5 -24.5t-47 -50t-17.5 -83q0 -37 21.5 -60.5t72.5 -37.5l97 -28q45 -13 75 -28t48 -33.5t25.5 -40.5t7.5 -48z" />
    <glyph glyph-name="uni0406" unicode="&#x406;" horiz-adv-x="237" 
d="M85 0h-76l142 750h76z" />
    <glyph glyph-name="uni0407" unicode="&#x407;" horiz-adv-x="235" 
d="M85 0h-76l142 750h76zM101 922h73l-18 -93h-73zM266 922h73l-18 -93h-73z" />
    <glyph glyph-name="uni0408" unicode="&#x408;" horiz-adv-x="397" 
d="M391 750l-110 -579q-10 -51 -25.5 -86t-39.5 -56t-58.5 -30t-80.5 -9q-15 0 -33 1.5t-35.5 3.5t-33 5.5t-25.5 6.5l14 69q30 -9 56 -13t56 -4q31 0 53 7t37.5 22t25.5 38.5t16 57.5l108 566h75z" />
    <glyph glyph-name="uni0409" unicode="&#x409;" horiz-adv-x="1040" 
d="M595 682h-276l-62 -325q-17 -91 -38.5 -158t-53.5 -111.5t-79 -66t-115 -21.5h-15l12 67h14q80 0 123.5 55.5t65.5 169.5l87 458h423l-49 -259h123q62 0 108.5 -7.5t75.5 -28.5t39 -57.5t-1 -94.5l-22 -117q-12 -62 -35 -98.5t-57 -56t-79 -25.5t-99 -6h-220zM621 430
l-70 -368h150q42 0 73 6t52.5 21t35 40t20.5 62l19 105q7 40 4.5 66t-20 41t-52.5 21t-92 6h-120z" />
    <glyph glyph-name="uni040A" unicode="&#x40a;" horiz-adv-x="1027" 
d="M742 443q62 0 108.5 -7.5t76 -28.5t39.5 -57.5t-2 -94.5l-14 -69q-12 -62 -35 -98.5t-57 -56t-79 -25.5t-99 -6h-217l71 374h-379l-71 -374h-75l142 750h75q-15 -78 -29.5 -154t-28.5 -153h379q14 77 28.5 153t29.5 154h73q-15 -78 -29.5 -154t-28.5 -153h122zM548 62
h148q42 0 73 6t52.5 21t35 40t20.5 62l11 56q8 40 5.5 66t-20.5 41t-53 21t-92 6h-120z" />
    <glyph glyph-name="uni040B" unicode="&#x40b;" horiz-adv-x="718" 
d="M524 0l51 270q11 60 -3.5 86.5t-68.5 26.5q-44 0 -96.5 -17.5t-101.5 -46.5l-61 -319h-75q32 171 64.5 340.5t64.5 340.5h-224l14 69h561l-13 -69h-262l-57 -296q45 26 100.5 46t105.5 20q42 0 70 -13t42.5 -36.5t17.5 -55.5t-4 -71l-52 -275h-73z" />
    <glyph glyph-name="uni040C" unicode="&#x40c;" horiz-adv-x="635" 
d="M337 376l213 -376h-87l-193 346h-119l-66 -346h-76l142 750h76l-64 -338h115l291 338h95zM459 942h89l-129 -137h-73z" />
    <glyph glyph-name="uni040D" unicode="&#x40d;" horiz-adv-x="701" 
d="M151 750h73l-122 -642q22 35 48 69t59 75l402 498h80l-142 -750h-71l121 643q-26 -41 -53.5 -75.5t-56.5 -71.5l-398 -496h-82zM483 805h-67l-83 137h84z" />
    <glyph glyph-name="uni040E" unicode="&#x40e;" horiz-adv-x="532" 
d="M80 0l114 196l-108 553h82l57 -322q3 -20 6 -37l6 -34t6.5 -37t6.5 -46q35 67 68 127t65 117.5t63.5 114.5t64.5 117h82l-431 -749h-82zM339 805q-52 0 -77.5 31.5t-25.5 79.5v15t2 15h47q-1 -7 -1.5 -13t-0.5 -11q0 -67 61 -67q35 0 60.5 24.5t35.5 66.5h52
q-14 -60 -52 -100.5t-101 -40.5z" />
    <glyph glyph-name="uni040F" unicode="&#x40f;" horiz-adv-x="688" 
d="M534 0h-226l-29 -154h-73l29 154h-226l142 750h75l-128 -681h374l129 681h75z" />
    <glyph glyph-name="uni0410" unicode="&#x410;" horiz-adv-x="649" 
d="M571 0h-78l-40 221h-317l-121 -221h-81l419 750h74zM442 290l-44 259q-6 32 -10 58t-9 63q-15 -33 -32 -64l-34 -62l-140 -254h269z" />
    <glyph glyph-name="uni0411" unicode="&#x411;" horiz-adv-x="626" 
d="M536 189q-12 -59 -34.5 -96t-55.5 -57.5t-76.5 -28t-98.5 -7.5h-263l145 750h448l-13 -70h-374l-43 -223h173q63 0 107.5 -10t70 -33.5t32.5 -61.5t-4 -94zM278 68q85 0 127 26t56 94l17 82q7 36 2.5 59t-23 36.5t-53 19t-86.5 5.5h-161l-63 -322h184z" />
    <glyph glyph-name="uni0412" unicode="&#x412;" horiz-adv-x="629" 
d="M153 750h236q54 0 95.5 -7.5t67.5 -26.5t36 -52t1 -85l-8 -46q-5 -24 -14 -46.5t-25 -41.5t-40.5 -33.5t-58.5 -22.5q69 -10 94 -50t14 -91l-15 -74q-10 -54 -30 -88t-54 -53t-84 -26t-119 -7h-241zM152 358l-57 -291h165q52 0 88 5t59.5 18.5t37 37t20.5 60.5l11 55
q6 29 2.5 50.5t-20 36t-48 21.5t-81.5 7h-177zM216 683l-52 -262h172q33 0 61 5t50 17t37 33.5t21 54.5l10 51q6 31 2.5 50.5t-20 30.5t-47 15.5t-77.5 4.5h-157z" />
    <glyph glyph-name="uni0413" unicode="&#x413;" horiz-adv-x="553" 
d="M81 0h-73l145 750h448l-13 -70h-375z" />
    <glyph glyph-name="uni0414" unicode="&#x414;" horiz-adv-x="717" 
d="M604 -154h-74l29 154h-534l-29 -154h-76l42 224h22q70 0 116 60t68 172l87 448h427l-130 -680h93zM246 334q-12 -62 -25 -106.5t-28.5 -75t-34.5 -50t-42 -32.5h361l117 610h-280z" />
    <glyph glyph-name="uni0415" unicode="&#x415;" 
d="M602 750l-13 -70h-374l-50 -256h342l-14 -69h-342l-56 -285h387l-12 -70h-462l145 750h449z" />
    <glyph glyph-name="uni0416" unicode="&#x416;" horiz-adv-x="889" 
d="M416 0h-75l66 343h-52l-307 -343h-98l344 379l-166 371h80l145 -336h67l66 336h75l-66 -336h58l276 336h90l-310 -371l198 -379h-88l-175 343h-62z" />
    <glyph glyph-name="uni0417" unicode="&#x417;" horiz-adv-x="569" 
d="M179 419h98q85 0 133 47t48 133q0 23 -6.5 40.5t-23 29.5t-43.5 18t-69 6q-49 0 -102 -10.5t-98 -26.5l14 70q19 7 43 13.5t50.5 11.5t54 8t54.5 3q57 0 95.5 -11.5t62.5 -32.5t34 -50t10 -63q0 -29 -6.5 -62.5t-24.5 -64.5t-49.5 -56t-82.5 -38q59 -13 87 -46.5
t28 -83.5q0 -128 -72 -197t-223 -69q-32 0 -63.5 3t-60 8.5t-52.5 12t-40 13.5l15 71q19 -8 43 -15t51 -12t54.5 -8t53.5 -3q115 0 167 50.5t52 140.5q0 59 -41.5 81t-108.5 22h-96z" />
    <glyph glyph-name="uni0418" unicode="&#x418;" horiz-adv-x="702" 
d="M549 0h-74l124 644q-11 -18 -20.5 -33t-20 -30t-22.5 -30.5t-28 -34.5l-417 -516h-83l145 750h73l-125 -646q23 37 45 68t46 62l418 516h84z" />
    <glyph glyph-name="uni0419" unicode="&#x419;" horiz-adv-x="702" 
d="M549 0h-74l124 644q-11 -18 -21 -33t-20.5 -30t-22.5 -30.5t-27 -34.5l-417 -516h-83l145 750h73l-125 -646q23 37 44.5 68.5t46.5 61.5l418 516h84zM433 806q-30 0 -52 10.5t-36 29.5t-19 44t-2 54h53q-2 -40 11.5 -61t47.5 -21q38 0 60.5 22.5t33.5 59.5h56
q-14 -61 -51.5 -99.5t-101.5 -38.5z" />
    <glyph glyph-name="uni041A" unicode="&#x41a;" horiz-adv-x="630" 
d="M329 379l214 -379h-83l-192 344h-119l-66 -344h-75l145 750h75l-66 -337h109l297 337h92z" />
    <glyph glyph-name="uni041B" unicode="&#x41b;" horiz-adv-x="705" 
d="M266 353q-18 -93 -42 -160t-57.5 -109.5t-80 -63t-110.5 -20.5h-11l14 71h11q37 0 67 12t54 40.5t42.5 76t32.5 117.5l84 433h427l-145 -750h-75l132 680h-278z" />
    <glyph glyph-name="uni041C" unicode="&#x41c;" horiz-adv-x="831" 
d="M678 0h-73l97 500q7 36 16.5 81t20.5 85q-23 -49 -41.5 -89.5t-38.5 -76.5l-271 -500h-82l-85 501q-3 17 -5.5 34t-5 35t-4.5 39.5t-4 47.5q-3 -24 -5.5 -43.5t-5.5 -37.5t-6 -36.5t-7 -40.5l-97 -499h-73l145 750h93l90 -527q7 -39 11.5 -77.5t8.5 -83.5q20 45 39 83
t41 78l283 527h104z" />
    <glyph glyph-name="uni041D" unicode="&#x41d;" horiz-adv-x="700" 
d="M547 0h-76l68 357h-388l-68 -357h-75l145 750h75l-63 -323h388l63 323h76z" />
    <glyph glyph-name="uni041E" unicode="&#x41e;" horiz-adv-x="719" 
d="M656 309q-32 -163 -125.5 -242t-242.5 -79q-74 0 -127.5 23t-85 67.5t-40 108t7.5 144.5l21 108q31 162 125 242.5t243 80.5q74 0 127.5 -23.5t84.5 -68t39.5 -108.5t-6.5 -145zM601 422q28 139 -21 204t-159 65q-111 0 -183.5 -65t-100.5 -204l-18 -94
q-27 -140 20.5 -204.5t158.5 -64.5q110 0 184 64.5t101 204.5z" />
    <glyph glyph-name="uni041F" unicode="&#x41f;" horiz-adv-x="692" 
d="M539 0h-76l132 680h-380l-132 -680h-75l145 750h531z" />
    <glyph glyph-name="uni0420" unicode="&#x420;" horiz-adv-x="616" 
d="M153 750h262q54 0 97 -8.5t70 -31t36.5 -63.5t-3.5 -105l-10 -51q-12 -60 -34.5 -96.5t-58.5 -56.5t-86 -26.5t-115 -6.5h-170l-58 -305h-75zM215 681l-60 -308h165q52 0 89 5t61.5 18.5t38.5 37t22 61.5l13 67q7 34 2.5 57t-21 37t-46.5 19.5t-73 5.5h-191z" />
    <glyph glyph-name="uni0421" unicode="&#x421;" horiz-adv-x="601" 
d="M602 669q-30 11 -78.5 16.5t-98.5 5.5q-67 0 -115 -15.5t-81 -46.5t-54 -78t-33 -110l-28 -140q-12 -61 -10 -106t23 -75t64 -45t112 -15q43 0 94 5.5t102 21.5l-13 -68q-20 -8 -45 -13t-51.5 -9t-53 -5.5t-50.5 -1.5q-86 0 -141 21.5t-83 63.5t-31.5 104.5t13.5 145.5
l25 125q18 92 50.5 152t79 95t106 49t130.5 14q24 0 49 -1.5t49 -4.5t45 -8t37 -11z" />
    <glyph glyph-name="uni0422" unicode="&#x422;" horiz-adv-x="589" 
d="M90 750h554l-13 -71h-239l-132 -679h-76l132 679h-239z" />
    <glyph glyph-name="uni0423" unicode="&#x423;" horiz-adv-x="542" 
d="M171 0h-84l119 206l-103 544h80l59 -345q5 -32 9 -59.5t9 -67.5q10 20 18 36.5t15.5 31.5t15 29.5t15.5 29.5l190 345h85z" />
    <glyph glyph-name="uni0424" unicode="&#x424;" horiz-adv-x="743" 
d="M468 696q64 -5 115.5 -21t83.5 -49.5t43 -86.5t-4 -131l-10 -53q-26 -134 -110 -200t-237 -73l-17 -88h-74l17 88q-74 5 -125.5 23.5t-80.5 53.5t-37 87t5 124l10 54q14 78 45 129.5t76 82.5t102 44.5t125 16.5l12 65h74zM108 372q-13 -64 -6.5 -106.5t30 -68t63 -37
t93.5 -13.5l94 484q-55 -2 -99 -13.5t-77.5 -37t-56.5 -67.5t-35 -106zM635 407q12 63 5.5 105.5t-30 68t-62.5 37t-92 13.5l-94 -484q53 2 96.5 13.5t77.5 37.5t57 68t36 106z" />
    <glyph glyph-name="uni0425" unicode="&#x425;" horiz-adv-x="632" 
d="M363 219q-11 29 -24 60t-24 65q-30 -41 -52.5 -70t-43.5 -55l-172 -219h-92l314 385l-161 365h85l79 -200q10 -26 21 -55.5t26 -71.5q29 38 51.5 65.5t48.5 60.5l158 201h91l-300 -365l165 -385h-83z" />
    <glyph glyph-name="uni0426" unicode="&#x426;" horiz-adv-x="699" 
d="M584 -154h-74l31 154h-533l145 750h75l-133 -680h363l130 680h76l-130 -680h93z" />
    <glyph glyph-name="uni0427" unicode="&#x427;" horiz-adv-x="664" 
d="M511 0h-75l71 367q-57 -42 -134.5 -70.5t-163.5 -28.5q-83 0 -122.5 46t-24.5 125l61 311h74l-58 -300q-12 -61 12.5 -87t83.5 -26q61 0 135 26t151 76l60 311h75z" />
    <glyph glyph-name="uni0428" unicode="&#x428;" horiz-adv-x="881" 
d="M728 0h-720l145 750h74l-133 -680h249l133 680h74l-133 -680h249l133 680h74z" />
    <glyph glyph-name="uni0429" unicode="&#x429;" horiz-adv-x="902" 
d="M788 -154h-74l30 154h-736l143 750h74l-131 -680h249l129 680h74l-129 -680h247l129 680h74l-129 -680h92z" />
    <glyph glyph-name="uni042A" unicode="&#x42a;" horiz-adv-x="719" 
d="M92 750h269l-49 -256h149q63 0 107 -10.5t69 -34.5t32 -62.5t-4 -95.5l-20 -104q-11 -59 -33 -96t-55 -57t-76.5 -27t-98.5 -7h-240l132 680h-195zM388 68q43 0 75 6t53.5 20t35 37t19.5 57l24 119q7 36 2.5 59t-23 36.5t-52.5 19t-86 5.5h-138l-70 -359h160z" />
    <glyph glyph-name="uni042B" unicode="&#x42b;" horiz-adv-x="795" 
d="M477 188q-11 -59 -33.5 -96t-55.5 -57.5t-76.5 -27.5t-98.5 -7h-205l145 750h73l-51 -261h116q63 0 107 -10t69.5 -33.5t32.5 -62t-4 -95.5zM220 68q43 0 74.5 6t53.5 20t35.5 37t19.5 57l23 114q7 36 2.5 59t-23 36.5t-52.5 19t-86 5.5h-105l-69 -354h127zM642 0h-75
l145 750h75z" />
    <glyph glyph-name="uni042C" unicode="&#x42c;" horiz-adv-x="587" 
d="M513 187q-12 -59 -34 -96t-54.5 -57t-76 -27t-98.5 -7h-242l145 750h73l-50 -259h152q62 0 106 -10.5t69.5 -34t33 -62t-3.5 -94.5zM256 68q43 0 74.5 6t53.5 20t35.5 37t19.5 57l23 116q7 36 3 59t-22.5 36.5t-52.5 19t-86 5.5h-141l-70 -356h163z" />
    <glyph glyph-name="uni042D" unicode="&#x42d;" horiz-adv-x="599" 
d="M480 412l7 33q13 61 10 107.5t-25.5 77t-66 46t-110.5 15.5q-54 0 -97.5 -5.5t-80.5 -14.5l13 65q41 14 89 19t93 5q78 0 133 -18.5t86 -58.5t38 -102.5t-10 -150.5l-25 -128q-15 -77 -40 -135.5t-67.5 -97.5t-106 -59t-154.5 -20q-51 0 -101 7.5t-85 22.5l13 66
q72 -27 176 -27q66 0 115 14.5t83.5 44t56 74t33.5 104.5l10 48h-338l13 68h338z" />
    <glyph glyph-name="uni042E" unicode="&#x42e;" horiz-adv-x="927" 
d="M226 750l-67 -342h143l6 29q33 160 117 242.5t229 82.5t205 -87t25 -255l-24 -114q-17 -80 -45 -140.5t-70 -101t-98.5 -61t-131.5 -20.5q-72 0 -123 23.5t-80 67.5t-35.5 106t8.5 139l4 20h-142l-66 -339h-73l145 750h73zM809 423q28 141 -12 205t-149 64
q-110 0 -174.5 -64t-92.5 -205l-20 -102q-28 -140 13.5 -204t148.5 -64q108 0 173 63.5t93 204.5z" />
    <glyph glyph-name="uni042F" unicode="&#x42f;" horiz-adv-x="643" 
d="M490 0h-75l60 315h-202l-229 -315h-88l236 322q-69 13 -95.5 59.5t-9.5 134.5l9 46q12 60 34.5 96.5t55.5 57t77 27.5t98 7h274zM351 681q-43 0 -74 -6t-52.5 -20t-34 -36.5t-19.5 -56.5l-12 -61q-7 -36 -2 -59t24 -36.5t52.5 -18.5t84.5 -5h171l58 299h-196z" />
    <glyph glyph-name="uni0430" unicode="&#x430;" horiz-adv-x="512" 
d="M318 0l4 56q-17 -10 -40 -21.5t-49.5 -21.5t-56.5 -16.5t-61 -6.5q-76 0 -105.5 42.5t-12.5 124.5l4 20q9 44 28.5 73t51.5 46t77 24t105 7h108l8 40q6 31 7 55.5t-8.5 41.5t-32 26t-63.5 9q-35 0 -79 -8t-86 -23l12 65q45 15 89 22t85 7q61 0 94 -18t46.5 -47.5t12 -67
t-8.5 -77.5l-68 -352h-61zM360 269h-107q-47 0 -79.5 -5t-53.5 -17t-32.5 -33t-17.5 -53l-2 -11q-10 -54 6 -76t59 -22q22 0 47.5 4.5t52 13t51.5 19t45 22.5z" />
    <glyph glyph-name="uni0431" unicode="&#x431;" horiz-adv-x="588" 
d="M532 238q-12 -61 -33 -107.5t-55.5 -78t-84 -47.5t-119.5 -16q-73 0 -120 18.5t-71.5 57.5t-27.5 99t13 142l28 141q19 96 57 157.5t100 97t150.5 48.5t208.5 13l-13 -65q-104 0 -178.5 -11t-125.5 -39.5t-81 -76.5t-44 -122l-6 -27q62 37 118 53.5t116 16.5
q48 0 85.5 -13.5t60.5 -41.5t31 -71.5t-4 -103.5zM244 53q51 0 87.5 11.5t62 35.5t41.5 60t26 84l3 15q18 91 -10 131t-108 40q-105 0 -227 -67l-15 -75q-12 -62 -11.5 -106t16.5 -73t49 -42.5t86 -13.5z" />
    <glyph glyph-name="uni0432" unicode="&#x432;" horiz-adv-x="533" 
d="M111 548h210q42 0 73.5 -6t51 -20.5t26.5 -39.5t0 -63l-6 -32q-6 -35 -28 -65t-64 -40q41 -5 59.5 -31t8.5 -76l-8 -41q-8 -40 -22.5 -66t-38.5 -41t-58 -21t-81 -6h-230zM123 253l-37 -190h142q34 0 58 3t40 12t25 25t14 41l6 31q4 19 2 34t-12 24.5t-29.5 14.5t-52.5 5
h-156zM169 486l-35 -177h134q57 0 87.5 17t38.5 60l4 21q5 26 3.5 41.5t-13 24t-34.5 11t-62 2.5h-123z" />
    <glyph glyph-name="uni0433" unicode="&#x433;" horiz-adv-x="451" 
d="M466 548l-13 -68h-286l-93 -480h-70l106 548h356z" />
    <glyph glyph-name="uni0434" unicode="&#x434;" horiz-adv-x="573" 
d="M-39 -154h-71l41 218h37q28 0 49.5 14.5t37.5 38t27 54t17 62.5l62 315h362l-95 -484h87l-41 -218h-70l30 154h-444zM357 64l83 421h-221l-44 -223q-8 -43 -16.5 -74t-18.5 -54t-22.5 -40t-30.5 -30h270z" />
    <glyph glyph-name="uni0435" unicode="&#x435;" horiz-adv-x="535" 
d="M98 255l-4 -19q-11 -51 -8 -85.5t21.5 -56.5t54.5 -31.5t92 -9.5q14 0 32.5 2t37 5t36.5 7.5t30 9.5l-12 -63q-35 -14 -77.5 -19t-76.5 -5q-130 0 -177 65.5t-22 192.5l11 60q13 69 39.5 117t62.5 78.5t80 44.5t92 14q49 0 87 -14t61.5 -46t29.5 -84t-9 -128l-7 -35h-374
zM414 318q9 42 7.5 76t-14.5 57.5t-39 36t-67 12.5q-78 0 -126 -48.5t-65 -133.5l-1 -5h304z" />
    </font>
</defs>
</svg>
