<?xml version="1.0" standalone="no"?>
<!DOCTYPE svg PUBLIC "-//W3C//DTD SVG 1.1//EN" "http://www.w3.org/Graphics/SVG/1.1/DTD/svg11.dtd" >
<svg xmlns="http://www.w3.org/2000/svg" xmlns:xlink="http://www.w3.org/1999/xlink" version="1.1">
<metadata>
Created by FontForge 20170731 at Thu Jul 27 12:31:25 2017
 By Aleksey,,,
Copyright c 2017 Hankook Tire Co.,Ltd. all rights reserved. Font designed by Sandoll Communications Inc.
</metadata>
<defs>
<font id="HankookTTFLight" horiz-adv-x="574" >
  <font-face 
    font-family="Hankook TTF Light"
    font-weight="300"
    font-stretch="normal"
    units-per-em="1000"
    panose-1="2 11 6 0 0 1 1 1 1 1"
    ascent="800"
    descent="-200"
    x-height="546"
    cap-height="750"
    bbox="-121 -284 1524 1140"
    underline-thickness="50"
    underline-position="-150"
    unicode-range="U+000D-206F"
  />
<missing-glyph horiz-adv-x="280" 
 />
    <glyph glyph-name=".notdef" horiz-adv-x="280" 
 />
    <glyph glyph-name=".null" horiz-adv-x="0" 
 />
    <glyph glyph-name="nonmarkingreturn" unicode="&#xd;" horiz-adv-x="280" 
 />
    <glyph glyph-name="NULL" horiz-adv-x="0" 
 />
    <glyph glyph-name="NULL" horiz-adv-x="0" 
 />
    <glyph glyph-name="space" unicode=" " horiz-adv-x="270" 
 />
    <glyph glyph-name="exclam" unicode="!" horiz-adv-x="267" 
d="M152 185h-38l-10 565h58zM101 77h65v-77h-65v77z" />
    <glyph glyph-name="quotedbl" unicode="&#x22;" horiz-adv-x="369" 
d="M127 503h-39l-8 247h55zM281 503h-40l-8 247h56z" />
    <glyph glyph-name="numbersign" unicode="#" horiz-adv-x="703" 
d="M78 537h163l46 213h44l-45 -213h193l46 213h44l-45 -213h157v-41h-166l-48 -224h158v-41h-166l-49 -231h-44l49 231h-194l-49 -231h-44l49 231h-155v41h163l48 224h-155v41zM229 272h194l48 224h-194z" />
    <glyph glyph-name="dollar" unicode="$" horiz-adv-x="618" 
d="M507 674q-41 11 -86.5 15t-86.5 5v-297l34 -9q52 -14 87.5 -28.5t57.5 -34t31.5 -46.5t9.5 -66q0 -43 -10.5 -78t-36 -60.5t-68 -41t-105.5 -18.5v-86h-38v85q-49 0 -111 5.5t-121 22.5v45q73 -20 128.5 -25.5t103.5 -5.5v304l-65 18q-41 11 -71.5 25.5t-51 35.5
t-30.5 49.5t-10 66.5q0 98 59.5 138.5t168.5 42.5v74h38v-74q48 -2 93.5 -7.5t79.5 -15.5v-39zM114 555q0 -30 7.5 -51t24 -36.5t41.5 -27t61 -20.5l48 -13v286q-42 -1 -75.5 -7.5t-57 -22t-36.5 -41.5t-13 -67zM334 350v-293q40 2 72 11t54.5 26.5t35 46t12.5 69.5
q0 33 -8.5 54t-27 35t-47.5 24.5t-70 21.5z" />
    <glyph glyph-name="percent" unicode="%" horiz-adv-x="866" 
d="M635 736h50l-490 -736h-50zM365 513q0 -72 -43.5 -110t-115.5 -38q-73 0 -115 38t-42 110v74q0 72 43 111t114 39t115 -39t44 -111v-74zM322 581q0 56 -29 86t-86 30q-59 0 -87 -30t-28 -86v-62q0 -55 28 -84.5t87 -29.5q57 0 86 29.5t29 84.5v62zM778 136
q0 -72 -43.5 -110t-115.5 -38q-73 0 -115 38t-42 110v74q0 72 43 111t114 39t115 -39t44 -111v-74zM735 204q0 56 -29 86t-86 30q-59 0 -87 -30t-28 -86v-62q0 -55 28 -84.5t87 -29.5q57 0 86 29.5t29 84.5v62z" />
    <glyph glyph-name="ampersand" unicode="&#x26;" horiz-adv-x="690" 
d="M126 545q0 -59 33 -96.5t104 -37.5h386v-43h-92v-343q-21 -9 -48 -15.5t-56 -11t-58 -6.5t-54 -2q-144 0 -208.5 55.5t-64.5 160.5q0 27 6 54.5t19.5 52t35 44t52.5 29.5q-30 11 -50 29t-32 40t-16.5 46t-4.5 47q0 102 62 150t184 48q52 0 95 -7t78 -18v-38
q-45 11 -81 15.5t-81 4.5q-56 0 -96 -9t-65 -28.5t-36.5 -49t-11.5 -71.5zM266 368q-30 0 -57.5 -10t-48.5 -30t-33 -50.5t-12 -71.5q0 -49 15 -82t44 -53.5t71.5 -29t96.5 -8.5q53 0 96 6t73 17v312h-245z" />
    <glyph glyph-name="quotesingle" unicode="'" horiz-adv-x="215" 
d="M127 503h-39l-8 247h55z" />
    <glyph glyph-name="parenleft" unicode="(" horiz-adv-x="301" 
d="M74 401q0 56 10.5 117t30 118.5t48.5 108t67 86.5h49q-44 -44 -74 -97.5t-48.5 -110.5t-27 -113.5t-8.5 -106.5v-131q0 -51 8.5 -109t27 -116t48.5 -113t74 -98h-49q-38 36 -67 87.5t-48.5 111t-30 121.5t-10.5 119v126z" />
    <glyph glyph-name="parenright" unicode=")" horiz-adv-x="301" 
d="M227 275q0 -57 -10.5 -119t-30 -121.5t-49 -111t-66.5 -87.5h-49q43 43 73.5 98t49 113t27 116t8.5 109v131q0 50 -8.5 106.5t-27 113.5t-49 110.5t-73.5 97.5h49q37 -36 66.5 -86.5t49 -108t30 -118.5t10.5 -117v-126z" />
    <glyph glyph-name="asterisk" unicode="*" horiz-adv-x="461" 
d="M69 433l-21 39l154 79l-154 78l21 39l143 -87l-4 168h45l-5 -168l144 87l21 -39l-154 -78l154 -79l-21 -39l-144 87l5 -167h-45l4 167z" />
    <glyph glyph-name="plus" unicode="+" horiz-adv-x="612" 
d="M329 596v-222h221v-46h-221v-240h-47v240h-220v46h220v222h47z" />
    <glyph glyph-name="comma" unicode="," horiz-adv-x="255" 
d="M97 77h68l-57 -214h-47z" />
    <glyph glyph-name="hyphen" unicode="-" horiz-adv-x="310" 
d="M38 317h234v-47h-234v47z" />
    <glyph glyph-name="period" unicode="." horiz-adv-x="255" 
d="M95 77h65v-77h-65v77z" />
    <glyph glyph-name="slash" unicode="/" horiz-adv-x="480" 
d="M402 831h50l-374 -995h-50z" />
    <glyph glyph-name="zero" unicode="0" horiz-adv-x="630" 
d="M574 317q0 -161 -63 -244t-197 -83q-132 0 -195 83t-63 244v110q0 161 63 244.5t195 83.5q134 0 197 -83.5t63 -244.5v-110zM527 431q0 75 -13.5 128.5t-40.5 87t-67 49t-92 15.5q-51 0 -90 -15.5t-65.5 -49t-40.5 -87t-14 -128.5v-117q0 -76 14 -129.5t40.5 -87
t65.5 -49t90 -15.5q52 0 92 15.5t67 49t40.5 87t13.5 129.5v117z" />
    <glyph glyph-name="one" unicode="1" horiz-adv-x="630" 
d="M135 45h199v637l-204 -116v50l218 129h33v-700h183v-45h-429v45z" />
    <glyph glyph-name="two" unicode="2" horiz-adv-x="630" 
d="M78 41l338 354q25 27 41.5 47.5t26 37.5t13 33t3.5 34v25q0 31 -10 56.5t-33 43.5t-61 28t-94 10q-53 0 -106 -12t-95 -30v45q19 8 43.5 15.5t51 13.5t53.5 9.5t52 3.5q124 0 185.5 -46.5t61.5 -134.5v-29q0 -17 -2.5 -34t-12.5 -38t-29 -47t-52 -61l-306 -319h430v-46
h-498v41z" />
    <glyph glyph-name="three" unicode="3" horiz-adv-x="630" 
d="M215 406h90q87 0 134.5 35.5t47.5 109.5q0 33 -7 61.5t-27 50.5t-57 34.5t-97 12.5q-51 0 -100 -10.5t-93 -27.5v45q37 14 89.5 26t103.5 12q66 0 111 -13.5t72.5 -40t39.5 -64t12 -85.5q0 -29 -7.5 -56t-24 -49.5t-44 -38.5t-66.5 -24q83 -11 123 -54t40 -122
q0 -53 -14 -93.5t-44 -68.5t-78.5 -42t-117.5 -14q-66 0 -122.5 11.5t-93.5 25.5v44q44 -16 101 -27t111 -11q58 0 98.5 11.5t65 34t35.5 55t11 74.5q0 46 -15 75.5t-42 46.5t-64.5 24t-82.5 7h-88v45z" />
    <glyph glyph-name="four" unicode="4" horiz-adv-x="630" 
d="M35 225l369 520h63v-522h127v-43h-127v-180h-47v180h-385v45zM420 695l-333 -472h333v472z" />
    <glyph glyph-name="five" unicode="5" horiz-adv-x="630" 
d="M125 745h391v-44h-345l-9 -278q38 9 73 13t70 4q66 0 113.5 -12.5t78 -36.5t45 -58t14.5 -77v-57q0 -102 -67.5 -155.5t-193.5 -53.5q-72 0 -126 11.5t-91 25.5v45q44 -16 97 -27t119 -11q57 0 97.5 12.5t66.5 35t38 53.5t12 67v43q0 35 -10 63.5t-34.5 48t-65 30
t-101.5 10.5q-43 0 -93 -7.5t-91 -18.5z" />
    <glyph glyph-name="six" unicode="6" horiz-adv-x="630" 
d="M67 433q0 97 24 159.5t64 98.5t92 50t109 14q55 0 100 -8.5t76 -19.5v-44q-41 15 -87 21.5t-86 6.5q-51 0 -95.5 -12.5t-77.5 -45t-52 -87.5t-19 -139v-58q16 15 40 31t54 29t65.5 21t74.5 8q49 0 92 -11.5t74.5 -36t49.5 -62t18 -89.5v-41q0 -47 -14 -88.5t-45 -72.5
t-79.5 -49t-118.5 -18q-73 0 -122.5 23.5t-80 67t-43.5 104.5t-13 135v113zM340 415q-30 0 -61.5 -7.5t-61 -20t-56 -30t-46.5 -36.5q0 -78 13.5 -132t40 -88.5t65.5 -50t92 -15.5q57 0 97 13.5t65 38.5t36 59t11 76v34q0 84 -50 121.5t-145 37.5z" />
    <glyph glyph-name="seven" unicode="7" horiz-adv-x="630" 
d="M240 0h-54l341 699h-453v46h507v-39z" />
    <glyph glyph-name="eight" unicode="8" horiz-adv-x="630" 
d="M66 186q0 72 39.5 117t134.5 71q-81 23 -119.5 67t-38.5 117q0 97 62.5 147t175.5 50q118 0 178.5 -48.5t60.5 -152.5q0 -35 -11 -62t-31.5 -48.5t-48.5 -38.5t-62 -31q51 -14 84 -32t52.5 -40.5t27 -49t7.5 -56.5q0 -45 -14 -83t-44 -65.5t-77.5 -42.5t-115.5 -15
q-69 0 -118.5 14t-81 39.5t-46 61.5t-14.5 81zM301 357l-40 -13q-33 -11 -60 -24t-45.5 -31.5t-29 -44t-10.5 -60.5q0 -43 18 -72t47 -46.5t66.5 -25t76.5 -7.5q42 0 79 8t64.5 27t43.5 48.5t16 73.5q0 27 -7 50.5t-27 43t-55.5 35.5t-92.5 28zM130 558q0 -67 40.5 -103
t109.5 -50l67 -15l53 25q25 12 46 24t35 27.5t22 36.5t8 51q0 87 -49 122.5t-142 35.5q-90 0 -140 -37t-50 -117z" />
    <glyph glyph-name="nine" unicode="9" horiz-adv-x="630" 
d="M573 312q0 -97 -24 -159.5t-64 -98.5t-92 -50t-109 -14q-55 0 -100 8.5t-76 19.5v44q41 -15 87 -21.5t86 -6.5q51 0 95.5 12.5t77.5 45t52 87.5t19 139v57q-17 -15 -41 -30.5t-54 -28.5t-65 -21t-74 -8q-49 0 -92 11.5t-74.5 36t-49.5 62t-18 89.5v41q0 47 14 88.5
t44.5 72.5t79.5 49t119 18q73 0 122.5 -23.5t80 -67t43.5 -104.5t13 -135v-113zM300 330q30 0 61.5 7.5t61 20t56 29.5t46.5 36q0 78 -13.5 132.5t-40 89t-66 50t-91.5 15.5q-57 0 -97 -13.5t-65 -38.5t-36 -59t-11 -76v-34q0 -84 50 -121.5t145 -37.5z" />
    <glyph glyph-name="colon" unicode=":" horiz-adv-x="256" 
d="M95 455h65v-77h-65v77zM95 77h65v-77h-65v77z" />
    <glyph glyph-name="semicolon" unicode=";" horiz-adv-x="256" 
d="M93 77h68l-57 -214h-47zM95 455h65v-77h-65v77z" />
    <glyph glyph-name="less" unicode="&#x3c;" horiz-adv-x="631" 
d="M142 364l409 -210v-51l-471 247v34l471 246v-50l-409 -212v-4z" />
    <glyph glyph-name="equal" unicode="=" horiz-adv-x="619" 
d="M65 492h488v-46h-488v46zM65 257h488v-46h-488v46z" />
    <glyph glyph-name="greater" unicode="&#x3e;" horiz-adv-x="631" 
d="M489 368l-409 212v50l471 -246v-34l-471 -247v51l409 210v4z" />
    <glyph glyph-name="question" unicode="?" horiz-adv-x="501" 
d="M200 254q0 27 4.5 47.5t17 39t34 37t56.5 41.5q23 15 41.5 30.5t31 33t19 39t6.5 48.5q0 31 -6.5 57t-26 45t-54.5 29.5t-93 10.5q-48 0 -94 -11t-88 -28v44q35 16 82 28t104 12q62 0 104.5 -12.5t69 -36.5t38 -58.5t11.5 -79.5q0 -38 -9.5 -66t-26 -49.5t-38.5 -39
t-47 -34.5q-29 -20 -46.5 -35t-27 -29t-12.5 -29.5t-3 -35.5v-69h-47v71zM192 77h65v-77h-65v77z" />
    <glyph glyph-name="at" unicode="@" horiz-adv-x="1047" 
d="M860 -134q-65 -20 -140.5 -31.5t-169.5 -11.5q-222 0 -343.5 94.5t-121.5 286.5v152q0 96 32 167.5t90 119t137 71t174 23.5q103 0 185.5 -24t140 -71.5t88 -119t30.5 -167.5v-89q0 -104 -42.5 -161t-125.5 -57q-43 0 -73 21t-41 59q-12 -13 -31 -27t-44 -26t-56 -19.5
t-67 -7.5q-84 0 -118 45.5t-34 124.5v115q0 52 12 87t33.5 56t50.5 29.5t62 8.5q54 0 101 -15.5t75 -34.5v39l45 10v-319q0 -106 86 -106q25 0 47.5 8.5t39.5 29t26.5 55t9.5 87.5v96q0 166 -104 249.5t-296 83.5q-87 0 -158.5 -22t-122.5 -63.5t-79.5 -102.5t-28.5 -139
v-166q0 -162 103.5 -251t314.5 -89q97 0 171 10t142 32v-40zM664 424q-21 15 -66 32t-102 17q-65 0 -93 -31t-28 -106v-108q0 -32 5 -58t17.5 -44t34 -28t54.5 -10q54 0 100 20.5t78 50.5v265z" />
    <glyph glyph-name="A" unicode="A" horiz-adv-x="670" 
d="M657 0h-52l-92 231h-361l-89 -231h-50l291 750h47zM495 275l-108 270q-9 21 -15.5 39t-13 35.5t-14 37t-16.5 44.5q-9 -25 -15.5 -44.5t-13 -37.5t-13.5 -36t-15 -40l-101 -268h325z" />
    <glyph glyph-name="B" unicode="B" horiz-adv-x="648" 
d="M88 750h225q54 0 98.5 -6t76 -23t49 -48.5t17.5 -82.5v-54q0 -25 -5.5 -48.5t-20.5 -42.5t-40.5 -33t-64.5 -20q83 -8 120.5 -46.5t37.5 -96.5v-70q0 -54 -14 -88.5t-45.5 -55t-81.5 -28t-121 -7.5h-231v750zM136 369v-325h185q57 0 97 5.5t65.5 20.5t37 42t11.5 71v59
q0 30 -9 53.5t-31.5 40t-62 25t-100.5 8.5h-193zM136 706v-296h192q40 0 72.5 6.5t56 20.5t36.5 37t13 56v61q0 33 -9.5 55.5t-32 35.5t-60 18.5t-93.5 5.5h-175z" />
    <glyph glyph-name="C" unicode="C" horiz-adv-x="617" 
d="M553 695q-37 11 -81 16.5t-102 5.5q-139 0 -200 -65.5t-61 -203.5v-142q0 -60 11 -110t41 -86.5t82 -56.5t133 -20q46 0 93 6t95 23v-43q-23 -9 -50.5 -14.5t-53.5 -9t-49.5 -4.5t-38.5 -1q-87 0 -146.5 20.5t-96 60t-52.5 98t-16 135.5v134q0 86 19 147t57.5 100t97 57
t136.5 18q55 0 101 -6t81 -19v-40z" />
    <glyph glyph-name="D" unicode="D" horiz-adv-x="702" 
d="M88 0v750h235q79 0 138.5 -13.5t99.5 -48t60 -94.5t20 -154v-137q0 -81 -13.5 -138.5t-49 -94t-96 -53.5t-154.5 -17h-240zM136 705v-660h187q84 0 136.5 15t82.5 46t40.5 78.5t10.5 111.5v154q0 73 -15 122t-47.5 78.5t-82.5 42t-120 12.5h-192z" />
    <glyph glyph-name="E" unicode="E" horiz-adv-x="602" 
d="M537 750v-45h-401v-292h368v-43h-368v-325h415v-45h-463v750h449z" />
    <glyph glyph-name="F" unicode="F" horiz-adv-x="571" 
d="M528 750v-45h-392v-315h361v-44h-361v-346h-48v750h440z" />
    <glyph glyph-name="G" unicode="G" horiz-adv-x="671" 
d="M560 696q-37 11 -81.5 16t-103.5 5q-81 0 -132.5 -19.5t-81 -55t-41 -85.5t-11.5 -110v-140q0 -53 10.5 -102t40 -87.5t83.5 -61.5t141 -23q48 0 92.5 4.5t83.5 15.5v297h-201v43h249v-370q-47 -18 -109 -25.5t-119 -7.5q-90 0 -151.5 22.5t-98.5 63.5t-53 99t-16 130
v130q0 81 16.5 142t54 101.5t97.5 61t147 20.5q58 0 104.5 -6.5t79.5 -17.5v-40z" />
    <glyph glyph-name="H" unicode="H" horiz-adv-x="707" 
d="M619 0h-48v373h-435v-373h-48v750h48v-333h435v333h48v-750z" />
    <glyph glyph-name="I" unicode="I" horiz-adv-x="224" 
d="M136 0h-48v750h48v-750z" />
    <glyph glyph-name="J" unicode="J" horiz-adv-x="398" 
d="M315 750v-584q0 -99 -43.5 -137.5t-130.5 -38.5q-33 0 -66 5t-52 10v45q31 -8 58 -11.5t59 -3.5q72 0 99.5 31.5t27.5 104.5v579h48z" />
    <glyph glyph-name="K" unicode="K" horiz-adv-x="630" 
d="M311 376l301 -376h-62l-283 357h-131v-357h-48v750h48v-349h139l253 349h55z" />
    <glyph glyph-name="L" unicode="L" horiz-adv-x="573" 
d="M136 750v-705h397v-45h-445v750h48z" />
    <glyph glyph-name="M" unicode="M" horiz-adv-x="839" 
d="M751 0h-48v488q0 20 0.5 46t1.5 53.5t2 54.5t2 49q-19 -58 -35.5 -104t-35.5 -96l-192 -491h-47l-196 492q-10 25 -18.5 47t-16.5 45t-17 49.5t-20 61.5q1 -31 2 -56.5t1.5 -49.5t1 -48.5t0.5 -53.5v-487h-48v750h62l201 -506q10 -27 18.5 -49t17 -43.5t17 -45.5
t19.5 -54q11 30 19.5 54t16.5 45.5t16.5 43.5t18.5 49l196 506h61v-750z" />
    <glyph glyph-name="N" unicode="N" horiz-adv-x="714" 
d="M626 0h-54l-343 529q-25 39 -47.5 75.5t-45.5 81.5v-686h-48v750h54l344 -529q15 -23 26.5 -41t22 -36t21 -37t22.5 -42v685h48v-750z" />
    <glyph glyph-name="O" unicode="O" horiz-adv-x="738" 
d="M680 318q0 -162 -80.5 -246t-230.5 -84t-230.5 84t-80.5 246v114q0 161 80.5 245.5t230.5 84.5t230.5 -84.5t80.5 -245.5v-114zM632 426q0 147 -66 219.5t-197 72.5t-197 -72.5t-66 -219.5v-102q0 -148 67.5 -220t195.5 -72t195.5 72t67.5 220v102z" />
    <glyph glyph-name="P" unicode="P" horiz-adv-x="634" 
d="M88 750h267q52 0 95 -6.5t74.5 -27t49 -59.5t17.5 -103v-53q0 -60 -16.5 -96.5t-48.5 -57t-80 -27t-112 -6.5h-198v-314h-48v750zM136 706v-348h193q57 0 98 5t66.5 20t37.5 42t12 71v69q0 43 -11 70t-33.5 43t-58 22t-83.5 6h-221z" />
    <glyph glyph-name="Q" unicode="Q" horiz-adv-x="738" 
d="M680 317q0 -98 -29.5 -167t-86.5 -110l102 -143h-52l-87 122q-67 -32 -158 -32q-150 0 -230.5 84t-80.5 246v116q0 161 80.5 245.5t230.5 84.5t230.5 -84.5t80.5 -245.5v-116zM448 205l89 -126q95 70 95 244v104q0 147 -66 219.5t-197 72.5t-197 -72.5t-66 -219.5v-104
q0 -148 67.5 -220t195.5 -72q79 0 132 26l-105 148h52z" />
    <glyph glyph-name="R" unicode="R" horiz-adv-x="660" 
d="M88 750h268q51 0 94.5 -6.5t75 -26.5t49 -58t17.5 -101v-51q0 -46 -10 -77.5t-30 -52.5t-49 -32t-68 -16l184 -329h-54l-179 324h-250v-324h-48v750zM136 706v-339h193q57 0 98 5.5t67 20t38 41t12 68.5v62q0 42 -10.5 69.5t-33 43.5t-58 22.5t-85.5 6.5h-221z" />
    <glyph glyph-name="S" unicode="S" horiz-adv-x="593" 
d="M540 208q0 -46 -10 -85.5t-37.5 -69t-76 -46.5t-125.5 -17q-54 0 -112 8t-116 29v47q68 -25 125 -32.5t105 -7.5q98 0 148.5 38t50.5 129q0 34 -7 56.5t-23.5 38t-44 26.5t-69.5 22l-124 33q-86 23 -121.5 66.5t-35.5 120.5q0 103 57.5 149.5t181.5 46.5q103 0 183 -23
v-40q-42 11 -88.5 15.5t-87.5 4.5q-51 0 -88.5 -6.5t-62 -24t-36.5 -47t-12 -75.5q0 -59 28.5 -92t99.5 -52l120 -32q52 -14 86 -29t54.5 -35.5t29 -48.5t8.5 -67z" />
    <glyph glyph-name="T" unicode="T" horiz-adv-x="645" 
d="M41 750h563v-45h-258v-705h-48v705h-257v45z" />
    <glyph glyph-name="U" unicode="U" horiz-adv-x="728" 
d="M131 750v-469q0 -131 55.5 -190t176.5 -59q124 0 179 59t55 190v469h48v-473q0 -147 -67.5 -218.5t-214.5 -71.5t-213.5 71.5t-66.5 218.5v473h48z" />
    <glyph glyph-name="V" unicode="V" horiz-adv-x="664" 
d="M67 750l209 -538q8 -21 14.5 -39t13.5 -36.5t14 -39.5t16 -46q9 25 16 46t14 39.5t14 36.5t15 39l206 538h52l-293 -750h-48l-297 750h54z" />
    <glyph glyph-name="W" unicode="W" horiz-adv-x="943" 
d="M522 488q-14 47 -25.5 92.5t-23.5 107.5q-14 -62 -26 -107.5t-25 -92.5l-136 -488h-59l-212 750h52l141 -513q9 -34 22 -82t26 -102q14 55 26 102.5t22 81.5l144 513h48l146 -513q10 -34 22 -82t21 -100q11 51 23.5 97.5t23.5 84.5l146 513h50l-219 -750h-48z" />
    <glyph glyph-name="X" unicode="X" horiz-adv-x="622" 
d="M394 228q-18 29 -40.5 63.5t-42.5 68.5q-20 -34 -43 -70t-40 -62l-146 -228h-57l252 385l-241 365h57l130 -203l89 -136q23 35 44.5 66.5t43.5 65.5l131 207h55l-240 -365l251 -385h-58z" />
    <glyph glyph-name="Y" unicode="Y" horiz-adv-x="589" 
d="M324 310v-310h-48v308l-263 442h54l165 -284l69 -121l16.5 33t15 28.5t15 27.5t17.5 32l158 284h53z" />
    <glyph glyph-name="Z" unicode="Z" horiz-adv-x="616" 
d="M174 158q-10 -14 -19 -26.5t-19 -26t-21 -28.5t-24 -33h482v-44h-538v37l387 555l82 114h-454v44h511v-37z" />
    <glyph glyph-name="bracketleft" unicode="[" horiz-adv-x="367" 
d="M95 831h254v-42h-207v-911h207v-42h-254v995z" />
    <glyph glyph-name="backslash" unicode="\" horiz-adv-x="480" 
d="M452 -164h-50l-374 995h50z" />
    <glyph glyph-name="bracketright" unicode="]" horiz-adv-x="367" 
d="M272 -164h-254v42h207v911h-207v42h254v-995z" />
    <glyph glyph-name="asciicircum" unicode="^" horiz-adv-x="552" 
d="M263 747h26l181 -302h-51l-142 238h-3l-142 -238h-50z" />
    <glyph glyph-name="underscore" unicode="_" horiz-adv-x="435" 
d="M0 -40h435v-41h-435v41z" />
    <glyph glyph-name="grave" unicode="`" horiz-adv-x="600" 
d="M346 606h-51l-108 134h65z" />
    <glyph glyph-name="a" unicode="a" horiz-adv-x="529" 
d="M418 0l-3 68q-17 -12 -40 -25.5t-51.5 -25t-60.5 -19.5t-67 -8q-74 0 -112.5 37t-38.5 118v22q0 48 17 77.5t47.5 46t73 22t92.5 5.5h136v55q0 32 -3.5 58.5t-17.5 46t-42 30.5t-77 11q-38 0 -81 -7.5t-84 -23.5v42q42 16 84.5 23t82.5 7q60 0 96 -14t55.5 -39t26 -58.5
t6.5 -73.5v-375h-39zM411 279h-136q-45 0 -79.5 -4.5t-57.5 -17t-34.5 -35t-11.5 -57.5v-17q0 -118 104 -118q62 0 118 22.5t97 51.5v175z" />
    <glyph glyph-name="b" unicode="b" horiz-adv-x="586" 
d="M347 560q85 0 132 -48.5t47 -129.5v-176q0 -63 -14.5 -105t-41.5 -66.5t-65.5 -35t-85.5 -10.5q-54 0 -105 18.5t-98 47.5l-5 -55h-32v757l46 17v-289q17 11 40.5 24t52 24.5t61 19t68.5 7.5zM125 95q46 -34 99.5 -50t94.5 -16q86 0 123.5 42.5t37.5 143.5v148
q0 44 -10.5 74t-29.5 48t-46 26t-60 8q-25 0 -52 -6.5t-54.5 -17t-53.5 -25t-49 -30.5v-345z" />
    <glyph glyph-name="c" unicode="c" horiz-adv-x="488" 
d="M438 499q-24 8 -56.5 14t-80.5 6q-102 0 -150.5 -49t-48.5 -152v-84q0 -108 47.5 -155.5t155.5 -47.5q31 0 68 5.5t75 20.5v-41q-34 -15 -73 -20.5t-75 -5.5q-122 0 -183 56.5t-61 188.5v77q0 69 17 116.5t49 77t76.5 42t100.5 12.5q42 0 77.5 -6t61.5 -16v-39z" />
    <glyph glyph-name="d" unicode="d" horiz-adv-x="586" 
d="M237 -10q-91 0 -134 48.5t-43 130.5v169q0 60 15 102t43.5 69t69 39t90.5 12q22 0 48 -3.5t51.5 -9t47.5 -13t36 -16.5v239l46 17v-774h-39l-7 64q-17 -12 -40 -25t-51.5 -24t-61.5 -18t-71 -7zM461 478q-14 8 -34.5 15.5t-44.5 13t-49.5 9t-47.5 3.5q-91 0 -135 -41.5
t-44 -144.5v-145q0 -45 8 -75t25.5 -48.5t44 -26.5t62.5 -8q30 0 59.5 6t57.5 16.5t53 24t45 28.5v373z" />
    <glyph glyph-name="e" unicode="e" horiz-adv-x="548" 
d="M101 265v-27q0 -63 13.5 -103t40.5 -63t68 -32t97 -9q30 0 65 5.5t70 19.5v-40q-32 -14 -72.5 -20t-75.5 -6q-68 0 -116 16t-78 48t-43.5 78.5t-13.5 108.5v58q0 69 17 118.5t47 81t71.5 46.5t90.5 15q52 0 92.5 -14t68.5 -44t42.5 -78t14.5 -117v-42h-399zM456 306
q0 54 -9 94t-29 66.5t-53.5 40t-81.5 13.5q-87 0 -134.5 -53t-47.5 -162v-3h355v4z" />
    <glyph glyph-name="f" unicode="f" horiz-adv-x="355" 
d="M336 546v-41h-167v-505h-46v505h-103v41h103v104q0 68 35 96t92 28q30 0 55 -3.5t40 -7.5v-36q-17 3 -35.5 5t-37.5 2q-24 0 -43 -3t-32.5 -12.5t-20.5 -28.5t-7 -52v-92h167z" />
    <glyph glyph-name="g" unicode="g" horiz-adv-x="586" 
d="M233 -3q-90 0 -131.5 48.5t-41.5 130.5v162q0 60 15 102t43.5 69t69 39t91.5 12q24 0 50 -4t51 -10.5t46.5 -15.5t35.5 -18l5 38h40v-591q0 -88 -51 -135t-167 -47q-27 0 -64 4t-64 14v40q32 -11 66.5 -14.5t56.5 -3.5q40 0 73 6.5t55.5 22.5t35 43.5t12.5 69.5v104
q-18 -12 -43 -23.5t-54 -21t-62.5 -15.5t-67.5 -6zM461 473q-14 9 -34.5 17.5t-44.5 14.5t-49 10t-48 4q-91 0 -135 -41.5t-44 -144.5v-137q0 -89 32 -124t106 -35q29 0 59 5.5t58.5 15t54 21.5t45.5 26v368z" />
    <glyph glyph-name="h" unicode="h" 
d="M454 0v378q0 29 -4 54.5t-16.5 44.5t-36 30t-62.5 11q-46 0 -102.5 -20.5t-107.5 -55.5v-442h-46v757l46 17v-290q19 13 44.5 26.5t53.5 24.5t57.5 18t58.5 7q86 0 123.5 -41.5t37.5 -119.5v-399h-46z" />
    <glyph glyph-name="i" unicode="i" horiz-adv-x="208" 
d="M81 0v546h46v-546h-46zM129 675h-50v70h50v-70z" />
    <glyph glyph-name="j" unicode="j" horiz-adv-x="218" 
d="M137 -101q0 -58 -27 -88t-89 -30q-23 0 -47 3t-44 8v41q19 -4 40.5 -7t47.5 -3q40 0 56.5 18t16.5 60v645h46v-647zM139 675h-50v70h50v-70z" />
    <glyph glyph-name="k" unicode="k" horiz-adv-x="505" 
d="M125 322h96l194 224h57l-217 -246l225 -300h-56l-207 282h-92v-282h-46v757l46 17v-452z" />
    <glyph glyph-name="l" unicode="l" horiz-adv-x="204" 
d="M79 0v757l46 17v-774h-46z" />
    <glyph glyph-name="m" unicode="m" horiz-adv-x="873" 
d="M753 0v392q0 29 -4 52t-15 39.5t-31 25.5t-52 9q-41 0 -89 -18t-103 -60q3 -20 3 -41v-399h-46v392q0 26 -3 49t-13.5 40t-31 27t-54.5 10q-41 0 -88 -18t-101 -58v-442h-46v546h39l6 -61q42 31 90.5 53t99.5 22q56 0 89 -21t47 -62q47 36 98.5 59.5t102.5 23.5
q78 0 113 -41t35 -120v-399h-46z" />
    <glyph glyph-name="n" unicode="n" 
d="M454 0v377q0 29 -4 55t-16.5 45t-36 30t-62.5 11q-45 0 -101.5 -20.5t-108.5 -55.5v-442h-46v546h39l6 -63q20 13 45 27t53 25t57.5 18t58.5 7q87 0 124.5 -41.5t37.5 -119.5v-399h-46z" />
    <glyph glyph-name="o" unicode="o" horiz-adv-x="589" 
d="M534 242q0 -121 -62.5 -186.5t-177.5 -65.5t-177 65.5t-62 186.5v66q0 121 62 186.5t177 65.5t177.5 -65.5t62.5 -186.5v-66zM488 310q0 102 -50 155.5t-144 53.5t-143.5 -53.5t-49.5 -155.5v-70q0 -99 48 -154t145 -55q98 0 146 55t48 154v70z" />
    <glyph glyph-name="p" unicode="p" horiz-adv-x="586" 
d="M79 546h39l6 -62q16 10 39.5 23.5t52.5 25t62 19.5t69 8q85 0 132 -48t47 -130v-175q0 -62 -15.5 -104t-44.5 -67.5t-70.5 -36t-93.5 -10.5q-42 0 -88.5 10t-88.5 27v-242h-46v762zM125 66q42 -19 88 -28t88 -9q94 0 136.5 43t42.5 144v146q0 45 -10 75t-29 48.5t-46 26
t-61 7.5q-24 0 -51.5 -6.5t-55 -17.5t-54 -25t-48.5 -30v-374z" />
    <glyph glyph-name="q" unicode="q" horiz-adv-x="586" 
d="M233 -10q-90 0 -131.5 48.5t-41.5 130.5v169q0 60 15 102t43 69t68 39t89 12q25 0 53 -4.5t53.5 -12t47.5 -17t36 -19.5l5 39h37v-762h-46v267q-18 -12 -43 -23t-54.5 -19.5t-62.5 -13.5t-68 -5zM461 468q-16 10 -37 19.5t-44.5 16.5t-48.5 11t-50 4q-88 0 -131.5 -41.5
t-43.5 -144.5v-144q0 -89 32 -124t106 -35q59 0 118 18t99 45v375z" />
    <glyph glyph-name="r" unicode="r" horiz-adv-x="353" 
d="M337 514q-63 -5 -116.5 -33t-95.5 -78v-403h-46v546h39l6 -98q38 44 91.5 75.5t121.5 36.5v-46z" />
    <glyph glyph-name="s" unicode="s" horiz-adv-x="463" 
d="M423 149q0 -34 -9.5 -63t-32 -50.5t-60 -33.5t-94.5 -12q-15 0 -37 1.5t-46 5t-48.5 9t-45.5 14.5v43q51 -19 95 -25.5t79 -6.5q45 0 75 8.5t47 24t24 36.5t7 45q0 21 -2.5 37.5t-15.5 30t-39 24.5t-72 22l-51 12q-44 10 -72 24t-44 31.5t-22 40t-6 51.5q0 38 14 65
t38.5 44t59 25t76.5 8t80 -5.5t66 -15.5v-38q-35 9 -67.5 14t-74.5 5q-81 0 -114 -25.5t-33 -74.5q0 -21 3 -37t15 -29.5t36 -24t65 -20.5l51 -12q48 -11 78 -24.5t47.5 -31t23.5 -40t6 -52.5z" />
    <glyph glyph-name="t" unicode="t" horiz-adv-x="388" 
d="M167 505v-369q0 -33 4.5 -54t15 -32t27.5 -15t41 -4t50 5.5t47 17.5v-40q-18 -11 -49 -17.5t-62 -6.5q-68 0 -94 32t-26 100v383h-101v41h101v132l46 18v-150h183v-41h-183z" />
    <glyph glyph-name="u" unicode="u" 
d="M120 546v-391q0 -28 5 -50.5t18 -38.5t35 -25t56 -9q50 0 108.5 21t106.5 55v438h46v-546h-39l-6 67q-20 -14 -46 -27.5t-54.5 -24.5t-59 -18t-60.5 -7q-86 0 -121 39.5t-35 117.5v399h46z" />
    <glyph glyph-name="v" unicode="v" horiz-adv-x="509" 
d="M231 0l-211 546h49l137 -363q9 -23 15.5 -41.5t12.5 -35t11.5 -32.5t11.5 -35q6 19 11.5 35t11 32.5t12 35t15.5 41.5l134 363h48l-209 -546h-49z" />
    <glyph glyph-name="w" unicode="w" horiz-adv-x="779" 
d="M71 546l114 -356l11 -33t10 -31t10 -33.5t11 -41.5h1l10.5 42t8.5 33.5t8.5 30.5t9.5 33l108 356h40l110 -356q11 -35 19 -66t19 -73h1q11 42 19.5 72.5t19.5 66.5l110 356h44l-172 -546h-44l-113 366q-6 21 -11 37t-9 30.5t-7 28.5t-6 31h-1q-3 -17 -6.5 -31t-7.5 -28
t-8.5 -30.5t-10.5 -37.5l-110 -366h-43l-182 546h47z" />
    <glyph glyph-name="x" unicode="x" horiz-adv-x="519" 
d="M190 404l74 -102q12 17 21.5 30.5t18 25t16.5 22.5t17 24l99 142h51l-195 -267l205 -279h-54l-96 132q-20 28 -40.5 55.5t-44.5 62.5q-26 -36 -49 -66t-41 -54l-98 -130h-52l213 277l-202 269h53z" />
    <glyph glyph-name="y" unicode="y" horiz-adv-x="530" 
d="M206 -216h-47l86 216l-225 546h49l136 -340q9 -22 16 -40t14.5 -37t15 -40t17.5 -48q10 27 18 48t14.5 39.5t13.5 37t16 40.5l133 340h47z" />
    <glyph glyph-name="z" unicode="z" horiz-adv-x="474" 
d="M167 148q-11 -15 -20.5 -28l-19 -26t-19.5 -26t-22 -29h363v-39h-419v32l286 390q19 26 34 46.5t31 38.5h-340v39h394v-32z" />
    <glyph glyph-name="braceleft" unicode="{" horiz-adv-x="435" 
d="M45 369q66 2 94.5 25.5t28.5 77.5v205q0 154 149 154h100v-42h-91q-26 0 -46.5 -4.5t-35 -17.5t-22.5 -35t-8 -57v-200q0 -20 -3 -40t-12.5 -37.5t-27.5 -30.5t-47 -20q27 -6 44.5 -18.5t27.5 -29.5t14 -37.5t4 -42.5v-241q0 -35 8.5 -55t23.5 -30t35.5 -12.5t44.5 -2.5
h91v-42h-100q-74 0 -111.5 31.5t-37.5 108.5v246q0 55 -28.5 78.5t-94.5 25.5v43z" />
    <glyph glyph-name="bar" unicode="|" horiz-adv-x="280" 
d="M164 -164h-48v995h48v-995z" />
    <glyph glyph-name="braceright" unicode="}" horiz-adv-x="435" 
d="M417 326q-66 -2 -94.5 -25.5t-28.5 -78.5v-246q0 -77 -37.5 -108.5t-111.5 -31.5h-100v42h91q24 0 44.5 2.5t35.5 12.5t23.5 30t8.5 55v241q0 22 4 42.5t14 37.5t27.5 29.5t44.5 18.5q-29 7 -47 20t-27.5 30.5t-12.5 37.5t-3 40v200q0 35 -8 57t-22.5 35t-35 17.5
t-46.5 4.5h-91v42h100q149 0 149 -154v-205q0 -54 28.5 -77.5t94.5 -25.5v-43z" />
    <glyph glyph-name="asciitilde" unicode="~" horiz-adv-x="600" 
d="M401 268q-39 0 -63.5 16.5t-44.5 36.5t-40 36.5t-50 16.5q-29 0 -47 -11.5t-28.5 -28.5t-14.5 -36t-6 -34h-47q4 32 14 59.5t27 48t41.5 32.5t57.5 12q39 0 63.5 -16.5t44.5 -36.5t41 -36.5t51 -16.5q23 0 39.5 8.5t28 23.5t17.5 35t8 43h47q-3 -31 -12.5 -58.5
t-26.5 -48.5t-41.5 -33t-58.5 -12z" />
    <glyph glyph-name="uni00A0" unicode="&#xa0;" horiz-adv-x="0" 
 />
    <glyph glyph-name="exclamdown" unicode="&#xa1;" horiz-adv-x="267" 
d="M115 400h38l10 -565h-58zM166 508h-65v77h65v-77z" />
    <glyph glyph-name="cent" unicode="&#xa2;" horiz-adv-x="510" 
d="M343 664q35 -2 68.5 -7t56.5 -13v-38q-22 7 -53 12t-72 7v-490q30 1 66.5 7t68.5 20v-40q-29 -13 -65.5 -19t-69.5 -8v-95h-48v95q-54 3 -96.5 18t-72 44t-45 74t-15.5 108v80q0 65 17.5 110.5t48 74.5t72.5 43t91 17v86h48v-86zM111 338q0 -100 44.5 -148t139.5 -54v488
q-93 -6 -138.5 -54t-45.5 -145v-87z" />
    <glyph glyph-name="sterling" unicode="&#xa3;" horiz-adv-x="573" 
d="M485 705q-27 7 -51.5 10.5t-62.5 3.5q-49 0 -82.5 -14.5t-54 -41.5t-29.5 -66t-9 -87v-112h250v-44h-250v-139q0 -26 -2 -48t-9 -41.5t-19.5 -39t-33.5 -41.5h408v-45h-475v37q48 41 65.5 82.5t17.5 94.5v140h-81v44h81v113q0 52 11 97.5t36.5 80t68.5 54.5t107 20
q29 0 58.5 -3t55.5 -11v-44z" />
    <glyph glyph-name="currency" unicode="&#xa4;" horiz-adv-x="734" 
d="M497 182q-26 -19 -59 -29.5t-71 -10.5t-71 10.5t-59 30.5l-105 -105l-32 32l103 103q-26 29 -39.5 68t-13.5 84t13.5 83.5t39.5 67.5l-103 103l32 32l104 -105q27 20 60 30.5t71 10.5t71 -10.5t60 -29.5l104 104l32 -32l-103 -103q26 -29 40.5 -67.5t14.5 -83.5
q0 -46 -14.5 -85t-40.5 -68l103 -102l-32 -32zM367 182q39 0 72 13.5t56 38t36 58t13 73.5t-13 73.5t-36.5 57.5t-56 37.5t-71.5 13.5t-71 -13.5t-55 -37.5t-36 -57.5t-13 -73.5t13 -73.5t36 -58t55 -38t71 -13.5z" />
    <glyph glyph-name="yen" unicode="&#xa5;" horiz-adv-x="589" 
d="M56 249h220v69l-20 33h-200v46h173l-211 353h54l160 -274q17 -29 31.5 -56t37.5 -67q19 40 33 67t31 56l153 274h53l-203 -353h164v-46h-190l-18 -31v-71h208v-46h-208v-203h-48v203h-220v46z" />
    <glyph glyph-name="brokenbar" unicode="&#xa6;" horiz-adv-x="280" 
d="M164 216v-380h-48v380h48zM116 451v380h48v-380h-48z" />
    <glyph glyph-name="section" unicode="&#xa7;" horiz-adv-x="576" 
d="M80 304q0 56 27 97t97 62q-47 23 -62.5 54t-15.5 76q0 38 14 65.5t38.5 45.5t59 26.5t76.5 8.5t80 -5.5t66 -15.5v-38q-35 9 -67.5 14t-74.5 5q-81 0 -114 -27.5t-33 -76.5q0 -21 3.5 -37.5t15.5 -30.5t35.5 -26t64.5 -23l51 -14q48 -13 78 -27.5t47 -32.5t23.5 -41
t6.5 -53q0 -57 -27.5 -98t-97.5 -62q47 -23 63 -53.5t16 -75.5q0 -38 -14 -65.5t-38.5 -45.5t-59 -26.5t-76.5 -8.5t-80 5.5t-66 15.5v38q35 -9 67.5 -14t74.5 -5q81 0 114 27.5t33 76.5q0 21 -3.5 37.5t-15.5 30.5t-35.5 26t-64.5 23l-51 14q-48 13 -78 27.5t-47 32.5
t-23.5 41t-6.5 53zM270 440q-44 -6 -71.5 -19t-44 -30t-22.5 -38t-6 -45q0 -21 3 -38t15.5 -31t38.5 -26t72 -25l51 -14q43 6 71 18.5t44 29.5t22.5 38.5t6.5 45.5q0 21 -3 38t-15.5 31t-38.5 26t-72 25z" />
    <glyph glyph-name="dieresis" unicode="&#xa8;" horiz-adv-x="600" 
d="M182 717h66v-83h-66v83zM351 717h66v-83h-66v83z" />
    <glyph glyph-name="copyright" unicode="&#xa9;" horiz-adv-x="833" 
d="M419 3q71 0 130.5 24.5t102.5 69t67 105.5t24 133q0 73 -24 133.5t-67.5 104.5t-103 68.5t-129.5 24.5t-129 -24.5t-102 -68.5t-67 -104.5t-24 -133.5q0 -72 24 -133t67 -105.5t102 -69t129 -24.5zM419 -33q-81 0 -148 29t-115 79t-75 117t-27 143t27 143t75 116.5
t115 78.5t148 29q82 0 149.5 -29t116 -78.5t75 -116.5t26.5 -143t-27 -143t-75.5 -117t-116 -79t-148.5 -29zM547 488q-18 7 -42 11.5t-60 4.5q-67 0 -101 -33t-34 -105v-63q0 -40 7.5 -66.5t24 -43t43 -23.5t63.5 -7q23 0 51 4.5t56 15.5v-41q-26 -12 -55 -16t-55 -4
q-89 0 -135 42t-46 140v57q0 51 13 86.5t37 57t57 31t73 9.5q30 0 56.5 -4.5t46.5 -11.5v-41z" />
    <glyph glyph-name="ordfeminine" unicode="&#xaa;" horiz-adv-x="504" 
d="M371 289l-3 59q-15 -10 -34 -22t-42 -22t-50 -16.5t-57 -6.5q-64 0 -97.5 32t-33.5 101v19q0 41 15 66.5t41 40t62.5 19.5t80.5 5h112v49q0 27 -3 49.5t-14 38.5t-34 24.5t-63 8.5q-33 0 -70 -6.5t-72 -20.5v41q36 14 72.5 20t71.5 6q52 0 83 -12.5t47.5 -34t22 -51.5
t5.5 -64v-323h-40zM365 525h-112q-38 0 -66.5 -3.5t-47.5 -14t-28.5 -29t-9.5 -47.5v-14q0 -52 21 -74t63 -22q53 0 99 19.5t81 44.5v140z" />
    <glyph glyph-name="guillemotleft" unicode="&#xab;" horiz-adv-x="581" 
d="M65 255v40l192 204h60l-200 -220v-5l200 -226h-60zM289 255v40l187 204h60l-195 -220v-5l195 -226h-60z" />
    <glyph glyph-name="logicalnot" unicode="&#xac;" horiz-adv-x="604" 
d="M59 379h461v-261h-42v222h-419v39z" />
    <glyph glyph-name="uni00AD" unicode="&#xad;" horiz-adv-x="833" 
 />
    <glyph glyph-name="registered" unicode="&#xae;" horiz-adv-x="630" 
d="M314 215q48 0 88 17t69 47t45 71.5t16 89.5q0 49 -16.5 90t-45.5 71t-69 46.5t-87 16.5t-86.5 -16.5t-68.5 -46.5t-45 -71t-16 -90q0 -48 16 -89.5t45 -71.5t68.5 -47t86.5 -17zM314 183q-56 0 -103 20t-80.5 55t-52.5 82t-19 100t19 100t52.5 82t80.5 55t103 20
q57 0 104.5 -20t81 -55t52.5 -82t19 -100t-19 -100t-53 -82t-81 -55t-104 -20zM224 584h99q19 0 36.5 -3t31 -12t21.5 -24.5t8 -40.5v-12q0 -20 -4.5 -34t-12 -23t-17 -13.5t-18.5 -7.5l65 -114h-45l-60 110h-65v-110h-39v284zM263 549v-104h55q33 0 47 9t14 35v17
q0 25 -12.5 34t-47.5 9h-56z" />
    <glyph glyph-name="macron" unicode="&#xaf;" horiz-adv-x="600" 
d="M159 710h282v-40h-282v40z" />
    <glyph glyph-name="degree" unicode="&#xb0;" horiz-adv-x="413" 
d="M206 465q48 0 78.5 29.5t30.5 81.5q0 51 -30.5 80.5t-78.5 29.5t-78.5 -29.5t-30.5 -80.5q0 -52 30.5 -81.5t78.5 -29.5zM206 431q-32 0 -59 11.5t-46.5 31t-30.5 46t-11 56.5t11 56t30.5 45.5t46.5 31t59 11.5t59 -11.5t46.5 -31t30.5 -45.5t11 -56t-11 -56.5t-30.5 -46
t-46.5 -31t-59 -11.5z" />
    <glyph glyph-name="plusminus" unicode="&#xb1;" horiz-adv-x="612" 
d="M329 596v-210h221v-46h-221v-206h-47v206h-220v46h220v210h47zM62 76h488v-46h-488v46z" />
    <glyph glyph-name="twosuperior" unicode="&#xb2;" horiz-adv-x="396" 
d="M42 328l212 211q33 33 42 54.5t9 44.5v16q0 14 -4 28t-16.5 25.5t-35.5 18.5t-61 7q-35 0 -69.5 -8.5t-61.5 -19.5v42q25 11 61.5 19t68.5 8q81 0 121.5 -30.5t40.5 -87.5v-20q0 -29 -11 -56t-46 -61l-192 -188h267v-42h-325v39z" />
    <glyph glyph-name="threesuperior" unicode="&#xb3;" horiz-adv-x="410" 
d="M137 556h56q54 0 83 20.5t29 68.5q0 42 -24.5 65t-91.5 23q-33 0 -65 -7t-61 -18v41q24 10 59.5 17.5t66.5 7.5q87 0 123.5 -33.5t36.5 -94.5q0 -37 -19.5 -68.5t-70.5 -42.5q54 -9 79 -40.5t25 -73.5q0 -70 -41.5 -105.5t-132.5 -35.5q-44 0 -80 7.5t-60 16.5v43
q29 -11 65 -18t72 -7q67 0 99.5 21.5t32.5 77.5q0 29 -9.5 47.5t-26 29t-40 14t-51.5 3.5h-54v41z" />
    <glyph glyph-name="acute" unicode="&#xb4;" horiz-adv-x="600" 
d="M324 740h65l-108 -134h-51z" />
    <glyph glyph-name="mu" unicode="&#xb5;" 
d="M74 546h46v-388q0 -56 35.5 -91t94.5 -35q63 0 111 23t88 53v438h46v-546h-39l-6 67q-14 -10 -34 -23.5t-45 -25.5t-55.5 -20t-66.5 -8q-42 0 -78.5 17.5t-50.5 45.5v-269h-46v762z" />
    <glyph glyph-name="paragraph" unicode="&#xb6;" horiz-adv-x="562" 
d="M472 750v-872h-47v822h-103v-822h-47v468q-103 2 -162.5 46.5t-59.5 130.5v41q0 88 60 137t165 49h194z" />
    <glyph glyph-name="periodcentered" unicode="&#xb7;" horiz-adv-x="255" 
d="M95 384h65v-77h-65v77z" />
    <glyph glyph-name="cedilla" unicode="&#xb8;" horiz-adv-x="599" 
d="M301 -262q-20 0 -39.5 1t-41.5 5v42q15 -2 36.5 -4t40.5 -2q34 0 53.5 5t29 13t12 19t2.5 22v8q0 12 -3 22t-14.5 17t-33.5 11t-60 4h-16v120h48v-80q71 -4 99.5 -26.5t28.5 -64.5v-6q0 -31 -11 -51.5t-30 -32.5t-45 -17t-56 -5z" />
    <glyph glyph-name="onesuperior" unicode="&#xb9;" horiz-adv-x="379" 
d="M58 329h132v379l-137 -64v45l149 76h32v-436h120v-40h-296v40z" />
    <glyph glyph-name="ordmasculine" unicode="&#xba;" horiz-adv-x="491" 
d="M451 497q0 -104 -54.5 -160.5t-151.5 -56.5q-96 0 -150.5 56.5t-54.5 160.5v60q0 104 54.5 160.5t150.5 56.5q97 0 151.5 -56.5t54.5 -160.5v-60zM404 559q0 84 -40.5 128t-118.5 44q-77 0 -117.5 -44t-40.5 -128v-64q0 -81 40 -126.5t118 -45.5q80 0 119.5 45.5
t39.5 126.5v64z" />
    <glyph glyph-name="guillemotright" unicode="&#xbb;" horiz-adv-x="581" 
d="M324 48h-60l200 226v5l-200 220h60l192 -204v-40zM105 48h-60l195 226v5l-195 220h60l187 -204v-40z" />
    <glyph glyph-name="onequarter" unicode="&#xbc;" horiz-adv-x="976" 
d="M540 31v37l250 331h49v-330h75v-38h-75v-108h-43v108h-256zM796 69v271l-205 -271h205zM58 329h132v379l-137 -64v45l149 76h32v-436h120v-40h-296v40zM770 773h52l-558 -853h-52z" />
    <glyph glyph-name="onehalf" unicode="&#xbd;" horiz-adv-x="995" 
d="M770 773h52l-558 -853h-52zM630 -38l212 211q33 33 42 54.5t9 44.5v16q0 14 -4 28t-16.5 25.5t-35.5 18.5t-61 7q-35 0 -69.5 -8.5t-61.5 -19.5v42q25 11 61.5 19t68.5 8q81 0 121.5 -30.5t40.5 -87.5v-20q0 -29 -11 -56t-46 -61l-192 -188h267v-42h-325v39zM58 329h132
v379l-137 -64v45l149 76h32v-436h120v-40h-296v40z" />
    <glyph glyph-name="threequarters" unicode="&#xbe;" horiz-adv-x="976" 
d="M540 31v37l250 331h49v-330h75v-38h-75v-108h-43v108h-256zM142 556h56q54 0 83 20.5t29 68.5q0 42 -24.5 65t-91.5 23q-33 0 -65 -7t-61 -18v41q24 10 59.5 17.5t66.5 7.5q87 0 123.5 -33.5t36.5 -94.5q0 -37 -19.5 -68.5t-70.5 -42.5q54 -9 79 -40.5t25 -73.5
q0 -70 -41.5 -105.5t-132.5 -35.5q-44 0 -80 7.5t-60 16.5v43q29 -11 65 -18t72 -7q67 0 99.5 21.5t32.5 77.5q0 29 -9.5 47.5t-26 29t-40 14t-51.5 3.5h-54v41zM777 773h52l-558 -853h-52zM796 69v271l-205 -271h205z" />
    <glyph glyph-name="questiondown" unicode="&#xbf;" horiz-adv-x="501" 
d="M310 331q0 -27 -4.5 -47.5t-17 -39t-34.5 -37t-56 -41.5q-23 -15 -41.5 -30.5t-31 -33t-19 -39t-6.5 -48.5q0 -31 6.5 -57t26 -45t54.5 -29.5t93 -10.5q48 0 94 11t88 28v-44q-35 -16 -82 -28t-104 -12q-62 0 -105 12.5t-69 36.5t-37.5 58.5t-11.5 79.5q0 38 9.5 66
t26 49.5t38.5 39t47 34.5q29 20 46.5 35t27 29t12.5 29.5t3 35.5v69h47v-71zM318 508h-65v77h65v-77z" />
    <glyph glyph-name="Agrave" unicode="&#xc0;" horiz-adv-x="670" 
d="M657 0h-52l-92 231h-361l-89 -231h-50l291 750h47zM495 275l-108 270q-9 21 -15.5 39t-13 35.5t-14 37t-16.5 44.5q-9 -25 -15.5 -44.5t-13 -37.5t-13.5 -36t-15 -40l-101 -268h325zM349 806h-49l-108 134h63z" />
    <glyph glyph-name="Aacute" unicode="&#xc1;" horiz-adv-x="670" 
d="M657 0h-52l-92 231h-361l-89 -231h-50l291 750h47zM495 275l-108 270q-9 21 -15.5 39t-13 35.5t-14 37t-16.5 44.5q-9 -25 -15.5 -44.5t-13 -37.5t-13.5 -36t-15 -40l-101 -268h325zM400 940h63l-108 -134h-49z" />
    <glyph glyph-name="Acircumflex" unicode="&#xc2;" horiz-adv-x="670" 
d="M657 0h-52l-92 231h-361l-89 -231h-50l291 750h47zM495 275l-108 270q-9 21 -15.5 39t-13 35.5t-14 37t-16.5 44.5q-9 -25 -15.5 -44.5t-13 -37.5t-13.5 -36t-15 -40l-101 -268h325zM304 954h49l100 -148h-45l-79 110l-80 -110h-45z" />
    <glyph glyph-name="Atilde" unicode="&#xc3;" horiz-adv-x="670" 
d="M657 0h-52l-92 231h-361l-89 -231h-50l291 750h47zM495 275l-108 270q-9 21 -15.5 39t-13 35.5t-14 37t-16.5 44.5q-9 -25 -15.5 -44.5t-13 -37.5t-13.5 -36t-15 -40l-101 -268h325zM393 818q-26 0 -42.5 11.5t-30 26t-26 26t-30.5 11.5q-17 0 -31 -16t-16 -58h-41
q2 51 24.5 83t63.5 32q24 0 40.5 -11.5t30 -26t26.5 -26t31 -11.5q24 0 34.5 16t12.5 60h41q-1 -23 -5 -44t-14 -37.5t-26.5 -26t-41.5 -9.5z" />
    <glyph glyph-name="Adieresis" unicode="&#xc4;" horiz-adv-x="670" 
d="M657 0h-52l-92 231h-361l-89 -231h-50l291 750h47zM495 275l-108 270q-9 21 -15.5 39t-13 35.5t-14 37t-16.5 44.5q-9 -25 -15.5 -44.5t-13 -37.5t-13.5 -36t-15 -40l-101 -268h325zM211 917h66v-83h-66v83zM380 917h66v-83h-66v83z" />
    <glyph glyph-name="Aring" unicode="&#xc5;" horiz-adv-x="670" 
d="M657 0h-52l-92 231h-361l-89 -231h-50l291 750h47zM495 275l-108 270q-9 21 -15.5 39t-13 35.5t-14 37t-16.5 44.5q-9 -25 -15.5 -44.5t-13 -37.5t-13.5 -36t-15 -40l-101 -268h325zM328 835q26 0 42.5 16t16.5 43q0 26 -16.5 43t-42.5 17t-42 -17t-16 -43q0 -27 16 -43
t42 -16zM328 801q-21 0 -38.5 7.5t-30.5 20t-20 29.5t-7 36t7 36t20 30t30.5 20.5t38.5 7.5t39 -7.5t31 -20.5t20 -30t7 -36q0 -38 -27 -65.5t-70 -27.5z" />
    <glyph glyph-name="AE" unicode="&#xc6;" horiz-adv-x="1032" 
d="M967 750v-45h-401v-292h368v-43h-368v-325h415v-45h-463v231h-298l-152 -231h-55l497 750h457zM251 275h267v418q-13 -24 -28 -48.5t-35 -56.5z" />
    <glyph glyph-name="Ccedilla" unicode="&#xc7;" horiz-adv-x="617" 
d="M332 -262q-20 0 -39.5 1t-41.5 5v42q15 -2 36.5 -4t40.5 -2q34 0 53.5 5t29 13t12 19t2.5 22v8q0 12 -2.5 22t-13 17t-31.5 11t-59 4h-16v93q-68 7 -114 31t-74.5 63t-41 93t-12.5 123v134q0 86 19 147t57.5 100t97 57t136.5 18q55 0 101 -6t81 -19v-40q-37 11 -81 16.5
t-102 5.5q-139 0 -200 -65.5t-61 -203.5v-142q0 -60 11 -110t41 -86.5t82 -56.5t133 -20q46 0 93 6t95 23v-43q-23 -9 -50.5 -14.5t-53.5 -9t-49.5 -4.5t-38.5 -1h-21v-49q71 -4 97 -26t26 -65v-6q0 -31 -11 -51.5t-30 -32.5t-45 -17t-56 -5z" />
    <glyph glyph-name="Egrave" unicode="&#xc8;" horiz-adv-x="602" 
d="M537 750v-45h-401v-292h368v-43h-368v-325h415v-45h-463v750h449zM369 806h-49l-108 134h63z" />
    <glyph glyph-name="Eacute" unicode="&#xc9;" horiz-adv-x="602" 
d="M537 750v-45h-401v-292h368v-43h-368v-325h415v-45h-463v750h449zM357 940h63l-108 -134h-49z" />
    <glyph glyph-name="Ecircumflex" unicode="&#xca;" horiz-adv-x="602" 
d="M537 750v-45h-401v-292h368v-43h-368v-325h415v-45h-463v750h449zM295 954h49l100 -148h-45l-79 110l-80 -110h-45z" />
    <glyph glyph-name="Edieresis" unicode="&#xcb;" horiz-adv-x="602" 
d="M537 750v-45h-401v-292h368v-43h-368v-325h415v-45h-463v750h449zM193 917h66v-83h-66v83zM362 917h66v-83h-66v83z" />
    <glyph glyph-name="Igrave" unicode="&#xcc;" horiz-adv-x="224" 
d="M136 0h-48v750h48v-750zM139 806h-49l-108 134h63z" />
    <glyph glyph-name="Iacute" unicode="&#xcd;" horiz-adv-x="224" 
d="M136 0h-48v750h48v-750zM183 940h63l-108 -134h-49z" />
    <glyph glyph-name="Icircumflex" unicode="&#xce;" horiz-adv-x="224" 
d="M136 0h-48v750h48v-750zM88 954h49l100 -148h-45l-79 110l-80 -110h-45z" />
    <glyph glyph-name="Idieresis" unicode="&#xcf;" horiz-adv-x="224" 
d="M136 0h-48v750h48v-750zM-5 917h66v-83h-66v83zM164 917h66v-83h-66v83z" />
    <glyph glyph-name="Eth" unicode="&#xd0;" horiz-adv-x="714" 
d="M15 408h85v342h235q79 0 138.5 -13.5t99.5 -48t60 -94.5t20 -154v-137q0 -81 -13.5 -138.5t-49 -94t-96 -53.5t-154.5 -17h-240v363h-85v45zM148 705v-297h254v-45h-254v-318h187q84 0 136.5 15t82.5 46t40.5 78.5t10.5 111.5v154q0 73 -15 122t-47.5 78.5t-82.5 42
t-120 12.5h-192z" />
    <glyph glyph-name="Ntilde" unicode="&#xd1;" horiz-adv-x="714" 
d="M626 0h-54l-343 529q-25 39 -47.5 75.5t-45.5 81.5v-686h-48v750h54l344 -529q15 -23 26.5 -41t22 -36t21 -37t22.5 -42v685h48v-750zM426 818q-26 0 -42.5 11.5t-30 26t-26 26t-30.5 11.5q-17 0 -31 -16t-16 -58h-41q2 51 24.5 83t63.5 32q24 0 40.5 -11.5t30 -26
t26.5 -26t31 -11.5q24 0 34.5 16t12.5 60h41q-1 -23 -5 -44t-14 -37.5t-26.5 -26t-41.5 -9.5z" />
    <glyph glyph-name="Ograve" unicode="&#xd2;" horiz-adv-x="738" 
d="M680 318q0 -162 -80.5 -246t-230.5 -84t-230.5 84t-80.5 246v114q0 161 80.5 245.5t230.5 84.5t230.5 -84.5t80.5 -245.5v-114zM632 426q0 147 -66 219.5t-197 72.5t-197 -72.5t-66 -219.5v-102q0 -148 67.5 -220t195.5 -72t195.5 72t67.5 220v102zM393 806h-49l-108 134
h63z" />
    <glyph glyph-name="Oacute" unicode="&#xd3;" horiz-adv-x="738" 
d="M680 318q0 -162 -80.5 -246t-230.5 -84t-230.5 84t-80.5 246v114q0 161 80.5 245.5t230.5 84.5t230.5 -84.5t80.5 -245.5v-114zM632 426q0 147 -66 219.5t-197 72.5t-197 -72.5t-66 -219.5v-102q0 -148 67.5 -220t195.5 -72t195.5 72t67.5 220v102zM433 940h63l-108 -134
h-49z" />
    <glyph glyph-name="Ocircumflex" unicode="&#xd4;" horiz-adv-x="738" 
d="M680 318q0 -162 -80.5 -246t-230.5 -84t-230.5 84t-80.5 246v114q0 161 80.5 245.5t230.5 84.5t230.5 -84.5t80.5 -245.5v-114zM632 426q0 147 -66 219.5t-197 72.5t-197 -72.5t-66 -219.5v-102q0 -148 67.5 -220t195.5 -72t195.5 72t67.5 220v102zM344 954h49l100 -148
h-45l-79 110l-80 -110h-45z" />
    <glyph glyph-name="Otilde" unicode="&#xd5;" horiz-adv-x="738" 
d="M680 318q0 -162 -80.5 -246t-230.5 -84t-230.5 84t-80.5 246v114q0 161 80.5 245.5t230.5 84.5t230.5 -84.5t80.5 -245.5v-114zM632 426q0 147 -66 219.5t-197 72.5t-197 -72.5t-66 -219.5v-102q0 -148 67.5 -220t195.5 -72t195.5 72t67.5 220v102zM434 818
q-26 0 -42.5 11.5t-30 26t-26 26t-30.5 11.5q-17 0 -31 -16t-16 -58h-41q2 51 24.5 83t63.5 32q24 0 40.5 -11.5t30 -26t26.5 -26t31 -11.5q24 0 34.5 16t12.5 60h41q-1 -23 -5 -44t-14 -37.5t-26.5 -26t-41.5 -9.5z" />
    <glyph glyph-name="Odieresis" unicode="&#xd6;" horiz-adv-x="738" 
d="M680 318q0 -162 -80.5 -246t-230.5 -84t-230.5 84t-80.5 246v114q0 161 80.5 245.5t230.5 84.5t230.5 -84.5t80.5 -245.5v-114zM632 426q0 147 -66 219.5t-197 72.5t-197 -72.5t-66 -219.5v-102q0 -148 67.5 -220t195.5 -72t195.5 72t67.5 220v102zM251 917h66v-83h-66
v83zM420 917h66v-83h-66v83z" />
    <glyph glyph-name="multiply" unicode="&#xd7;" horiz-adv-x="545" 
d="M485 531l-181 -185l181 -184l-32 -33l-181 184l-180 -184l-32 33l180 184l-180 185l32 33l180 -185l181 185z" />
    <glyph glyph-name="Oslash" unicode="&#xd8;" horiz-adv-x="738" 
d="M680 318q0 -162 -80.5 -246t-230.5 -84q-128 0 -204 60l-63 -91h-49l83 119q-78 84 -78 242v114q0 161 80.5 245.5t230.5 84.5q125 0 203 -61l64 91h49l-83 -118q78 -86 78 -242v-114zM106 324q0 -135 58 -208l382 547q-64 55 -177 55q-131 0 -197 -72.5t-66 -219.5v-102
zM632 426q0 133 -58 208l-382 -548q66 -54 177 -54q128 0 195.5 72t67.5 220v102z" />
    <glyph glyph-name="Ugrave" unicode="&#xd9;" horiz-adv-x="728" 
d="M131 750v-469q0 -131 55.5 -190t176.5 -59q124 0 179 59t55 190v469h48v-473q0 -147 -67.5 -218.5t-214.5 -71.5t-213.5 71.5t-66.5 218.5v473h48zM406 806h-49l-108 134h63z" />
    <glyph glyph-name="Uacute" unicode="&#xda;" horiz-adv-x="728" 
d="M131 750v-469q0 -131 55.5 -190t176.5 -59q124 0 179 59t55 190v469h48v-473q0 -147 -67.5 -218.5t-214.5 -71.5t-213.5 71.5t-66.5 218.5v473h48zM435 940h63l-108 -134h-49z" />
    <glyph glyph-name="Ucircumflex" unicode="&#xdb;" horiz-adv-x="728" 
d="M131 750v-469q0 -131 55.5 -190t176.5 -59q124 0 179 59t55 190v469h48v-473q0 -147 -67.5 -218.5t-214.5 -71.5t-213.5 71.5t-66.5 218.5v473h48zM339 954h49l100 -148h-45l-79 110l-80 -110h-45z" />
    <glyph glyph-name="Udieresis" unicode="&#xdc;" horiz-adv-x="728" 
d="M131 750v-469q0 -131 55.5 -190t176.5 -59q124 0 179 59t55 190v469h48v-473q0 -147 -67.5 -218.5t-214.5 -71.5t-213.5 71.5t-66.5 218.5v473h48zM246 917h66v-83h-66v83zM415 917h66v-83h-66v83z" />
    <glyph glyph-name="Yacute" unicode="&#xdd;" horiz-adv-x="589" 
d="M324 310v-310h-48v308l-263 442h54l165 -284l69 -121l16.5 33t15 28.5t15 27.5t17.5 32l158 284h53zM361 940h63l-108 -134h-49z" />
    <glyph glyph-name="Thorn" unicode="&#xde;" horiz-adv-x="634" 
d="M88 750h48v-155h219q52 0 95 -6.5t74.5 -27t49 -59.5t17.5 -103v-53q0 -60 -16.5 -96.5t-48.5 -57t-80 -27t-112 -6.5h-198v-159h-48v750zM136 551v-348h193q57 0 98 5t66.5 20t37.5 42t12 71v69q0 43 -11 70t-33.5 43t-58 22t-83.5 6h-221z" />
    <glyph glyph-name="germandbls" unicode="&#xdf;" horiz-adv-x="571" 
d="M237 42h79q46 0 77 13.5t49.5 36t26 52t7.5 62.5v26q0 27 -7.5 53.5t-27 47.5t-52.5 34t-84 13h-45v44h35q71 0 107.5 39.5t36.5 105.5v30q0 22 -5.5 46t-21.5 43t-45 31.5t-76 12.5q-25 0 -51 -5.5t-47 -21t-34 -43t-13 -71.5v-591h-46v596q0 37 10.5 69.5t33.5 56.5
t59.5 38t87.5 14t88 -13.5t60.5 -36.5t34.5 -55t11 -68v-28q0 -22 -4.5 -46.5t-16.5 -48t-32 -42.5t-51 -31q76 -15 109 -61t33 -107v-36q0 -42 -12.5 -78.5t-38 -63.5t-63.5 -43t-89 -16h-83v42z" />
    <glyph glyph-name="agrave" unicode="&#xe0;" horiz-adv-x="529" 
d="M418 0l-3 68q-17 -12 -40 -25.5t-51.5 -25t-60.5 -19.5t-67 -8q-74 0 -112.5 37t-38.5 118v22q0 48 17 77.5t47.5 46t73 22t92.5 5.5h136v55q0 32 -3.5 58.5t-17.5 46t-42 30.5t-77 11q-38 0 -81 -7.5t-84 -23.5v42q42 16 84.5 23t82.5 7q60 0 96 -14t55.5 -39t26 -58.5
t6.5 -73.5v-375h-39zM411 279h-136q-45 0 -79.5 -4.5t-57.5 -17t-34.5 -35t-11.5 -57.5v-17q0 -118 104 -118q62 0 118 22.5t97 51.5v175zM333 606h-49l-108 134h63z" />
    <glyph glyph-name="aacute" unicode="&#xe1;" horiz-adv-x="529" 
d="M418 0l-3 68q-17 -12 -40 -25.5t-51.5 -25t-60.5 -19.5t-67 -8q-74 0 -112.5 37t-38.5 118v22q0 48 17 77.5t47.5 46t73 22t92.5 5.5h136v55q0 32 -3.5 58.5t-17.5 46t-42 30.5t-77 11q-38 0 -81 -7.5t-84 -23.5v42q42 16 84.5 23t82.5 7q60 0 96 -14t55.5 -39t26 -58.5
t6.5 -73.5v-375h-39zM411 279h-136q-45 0 -79.5 -4.5t-57.5 -17t-34.5 -35t-11.5 -57.5v-17q0 -118 104 -118q62 0 118 22.5t97 51.5v175zM310 740h63l-108 -134h-49z" />
    <glyph glyph-name="acircumflex" unicode="&#xe2;" horiz-adv-x="529" 
d="M418 0l-3 68q-17 -12 -40 -25.5t-51.5 -25t-60.5 -19.5t-67 -8q-74 0 -112.5 37t-38.5 118v22q0 48 17 77.5t47.5 46t73 22t92.5 5.5h136v55q0 32 -3.5 58.5t-17.5 46t-42 30.5t-77 11q-38 0 -81 -7.5t-84 -23.5v42q42 16 84.5 23t82.5 7q60 0 96 -14t55.5 -39t26 -58.5
t6.5 -73.5v-375h-39zM411 279h-136q-45 0 -79.5 -4.5t-57.5 -17t-34.5 -35t-11.5 -57.5v-17q0 -118 104 -118q62 0 118 22.5t97 51.5v175zM240 754h49l100 -148h-45l-79 110l-80 -110h-45z" />
    <glyph glyph-name="atilde" unicode="&#xe3;" horiz-adv-x="529" 
d="M418 0l-3 68q-17 -12 -40 -25.5t-51.5 -25t-60.5 -19.5t-67 -8q-74 0 -112.5 37t-38.5 118v22q0 48 17 77.5t47.5 46t73 22t92.5 5.5h136v55q0 32 -3.5 58.5t-17.5 46t-42 30.5t-77 11q-38 0 -81 -7.5t-84 -23.5v42q42 16 84.5 23t82.5 7q60 0 96 -14t55.5 -39t26 -58.5
t6.5 -73.5v-375h-39zM411 279h-136q-45 0 -79.5 -4.5t-57.5 -17t-34.5 -35t-11.5 -57.5v-17q0 -118 104 -118q62 0 118 22.5t97 51.5v175zM330 618q-26 0 -42.5 11.5t-30 26t-26 26t-30.5 11.5q-17 0 -31 -16t-16 -58h-41q2 51 24.5 83t63.5 32q24 0 40.5 -11.5t30 -26
t26.5 -26t31 -11.5q24 0 34.5 16t12.5 60h41q-1 -23 -5 -44t-14 -37.5t-26.5 -26t-41.5 -9.5z" />
    <glyph glyph-name="adieresis" unicode="&#xe4;" horiz-adv-x="529" 
d="M418 0l-3 68q-17 -12 -40 -25.5t-51.5 -25t-60.5 -19.5t-67 -8q-74 0 -112.5 37t-38.5 118v22q0 48 17 77.5t47.5 46t73 22t92.5 5.5h136v55q0 32 -3.5 58.5t-17.5 46t-42 30.5t-77 11q-38 0 -81 -7.5t-84 -23.5v42q42 16 84.5 23t82.5 7q60 0 96 -14t55.5 -39t26 -58.5
t6.5 -73.5v-375h-39zM411 279h-136q-45 0 -79.5 -4.5t-57.5 -17t-34.5 -35t-11.5 -57.5v-17q0 -118 104 -118q62 0 118 22.5t97 51.5v175zM147 717h66v-83h-66v83zM316 717h66v-83h-66v83z" />
    <glyph glyph-name="aring" unicode="&#xe5;" horiz-adv-x="529" 
d="M418 0l-3 68q-17 -12 -40 -25.5t-51.5 -25t-60.5 -19.5t-67 -8q-74 0 -112.5 37t-38.5 118v22q0 48 17 77.5t47.5 46t73 22t92.5 5.5h136v55q0 32 -3.5 58.5t-17.5 46t-42 30.5t-77 11q-38 0 -81 -7.5t-84 -23.5v42q42 16 84.5 23t82.5 7q60 0 96 -14t55.5 -39t26 -58.5
t6.5 -73.5v-375h-39zM411 279h-136q-45 0 -79.5 -4.5t-57.5 -17t-34.5 -35t-11.5 -57.5v-17q0 -118 104 -118q62 0 118 22.5t97 51.5v175zM264 635q26 0 42.5 16t16.5 43q0 26 -16.5 43t-42.5 17t-42 -17t-16 -43q0 -27 16 -43t42 -16zM264 601q-21 0 -38.5 7.5t-30.5 20
t-20 29.5t-7 36t7 36t20 30t30.5 20.5t38.5 7.5t39 -7.5t31 -20.5t20 -30t7 -36q0 -38 -27 -65.5t-70 -27.5z" />
    <glyph glyph-name="ae" unicode="&#xe6;" horiz-adv-x="884" 
d="M450 271v-46q0 -59 14.5 -96.5t41.5 -59t65.5 -30t87.5 -8.5q30 0 67.5 6.5t72.5 20.5v-40q-32 -14 -73 -21t-76 -7q-75 0 -128 22.5t-81 67.5q-19 -15 -44.5 -31t-56.5 -29t-67 -21.5t-76 -8.5q-74 0 -113 37t-39 115v18q0 79 53 113.5t167 34.5h140v65q0 32 -4 58.5
t-18 46t-42 30.5t-77 11q-78 0 -158 -31v42q42 16 81 23t79 7q42 0 72 -8t50.5 -22t33 -33.5t18.5 -42.5q29 53 77 79.5t111 26.5q105 0 162 -60.5t57 -178.5v-50h-397zM423 112q-11 26 -14.5 60.5t-3.5 72.5v24h-140q-91 0 -132 -25t-41 -86v-13q0 -58 27 -86t78 -28
q39 0 72.5 7.5t62 19.5t51.5 26.5t40 27.5zM803 320q0 98 -40.5 149t-133.5 51q-80 0 -129.5 -51t-49.5 -150v-11h353v12z" />
    <glyph glyph-name="ccedilla" unicode="&#xe7;" horiz-adv-x="488" 
d="M256 -262q-20 0 -39.5 1t-41.5 5v42q15 -2 36.5 -4t40.5 -2q34 0 53.5 5t29 13t12 19t2.5 22v8q0 12 -2.5 22t-13 17t-31.5 11t-59 4h-16v95q-86 14 -128.5 71t-42.5 168v77q0 69 17 116.5t49 77t76.5 42t100.5 12.5q42 0 77.5 -6t61.5 -16v-39q-24 8 -56.5 14t-80.5 6
q-102 0 -150.5 -49t-48.5 -152v-84q0 -108 47.5 -155.5t155.5 -47.5q31 0 68 5.5t75 20.5v-41q-34 -15 -73 -20.5t-75 -5.5h-13t-12 1v-50q71 -4 97 -26t26 -65v-6q0 -31 -11 -51.5t-30 -32.5t-45 -17t-56 -5z" />
    <glyph glyph-name="egrave" unicode="&#xe8;" horiz-adv-x="548" 
d="M101 265v-27q0 -63 13.5 -103t40.5 -63t68 -32t97 -9q30 0 65 5.5t70 19.5v-40q-32 -14 -72.5 -20t-75.5 -6q-68 0 -116 16t-78 48t-43.5 78.5t-13.5 108.5v58q0 69 17 118.5t47 81t71.5 46.5t90.5 15q52 0 92.5 -14t68.5 -44t42.5 -78t14.5 -117v-42h-399zM456 306
q0 54 -9 94t-29 66.5t-53.5 40t-81.5 13.5q-87 0 -134.5 -53t-47.5 -162v-3h355v4zM317 606h-49l-108 134h63z" />
    <glyph glyph-name="eacute" unicode="&#xe9;" horiz-adv-x="548" 
d="M101 265v-27q0 -63 13.5 -103t40.5 -63t68 -32t97 -9q30 0 65 5.5t70 19.5v-40q-32 -14 -72.5 -20t-75.5 -6q-68 0 -116 16t-78 48t-43.5 78.5t-13.5 108.5v58q0 69 17 118.5t47 81t71.5 46.5t90.5 15q52 0 92.5 -14t68.5 -44t42.5 -78t14.5 -117v-42h-399zM456 306
q0 54 -9 94t-29 66.5t-53.5 40t-81.5 13.5q-87 0 -134.5 -53t-47.5 -162v-3h355v4zM324 740h63l-108 -134h-49z" />
    <glyph glyph-name="ecircumflex" unicode="&#xea;" horiz-adv-x="548" 
d="M101 265v-27q0 -63 13.5 -103t40.5 -63t68 -32t97 -9q30 0 65 5.5t70 19.5v-40q-32 -14 -72.5 -20t-75.5 -6q-68 0 -116 16t-78 48t-43.5 78.5t-13.5 108.5v58q0 69 17 118.5t47 81t71.5 46.5t90.5 15q52 0 92.5 -14t68.5 -44t42.5 -78t14.5 -117v-42h-399zM456 306
q0 54 -9 94t-29 66.5t-53.5 40t-81.5 13.5q-87 0 -134.5 -53t-47.5 -162v-3h355v4zM254 754h49l100 -148h-45l-79 110l-80 -110h-45z" />
    <glyph glyph-name="edieresis" unicode="&#xeb;" horiz-adv-x="548" 
d="M101 265v-27q0 -63 13.5 -103t40.5 -63t68 -32t97 -9q30 0 65 5.5t70 19.5v-40q-32 -14 -72.5 -20t-75.5 -6q-68 0 -116 16t-78 48t-43.5 78.5t-13.5 108.5v58q0 69 17 118.5t47 81t71.5 46.5t90.5 15q52 0 92.5 -14t68.5 -44t42.5 -78t14.5 -117v-42h-399zM456 306
q0 54 -9 94t-29 66.5t-53.5 40t-81.5 13.5q-87 0 -134.5 -53t-47.5 -162v-3h355v4zM162 717h66v-83h-66v83zM331 717h66v-83h-66v83z" />
    <glyph glyph-name="igrave" unicode="&#xec;" horiz-adv-x="208" 
d="M81 0v546h46v-546h-46zM130 606h-49l-108 134h63z" />
    <glyph glyph-name="iacute" unicode="&#xed;" horiz-adv-x="208" 
d="M81 0v546h46v-546h-46zM174 740h63l-108 -134h-49z" />
    <glyph glyph-name="icircumflex" unicode="&#xee;" horiz-adv-x="208" 
d="M81 0v546h46v-546h-46zM80 754h49l100 -148h-45l-79 110l-80 -110h-45z" />
    <glyph glyph-name="idieresis" unicode="&#xef;" horiz-adv-x="208" 
d="M81 0v546h46v-546h-46zM-13 717h66v-83h-66v83zM156 717h66v-83h-66v83z" />
    <glyph glyph-name="eth" unicode="&#xf0;" horiz-adv-x="589" 
d="M137 615l139 59q-25 17 -53.5 32t-63.5 32l18 36q41 -20 76.5 -40t65.5 -41l114 48l14 -36l-92 -39q98 -79 138.5 -175.5t40.5 -217.5v-31q0 -121 -62.5 -186.5t-177.5 -65.5t-177 65.5t-62 186.5v44q0 121 61.5 186.5t167.5 65.5q55 0 95.5 -14t74.5 -46
q-31 56 -63.5 96.5t-76.5 73.5l-163 -69zM488 288q0 102 -50 155.5t-144 53.5t-143.5 -53.5t-49.5 -155.5v-48q0 -99 48 -154t145 -55q98 0 146 55t48 154v48z" />
    <glyph glyph-name="ntilde" unicode="&#xf1;" 
d="M454 0v377q0 29 -4 55t-16.5 45t-36 30t-62.5 11q-45 0 -101.5 -20.5t-108.5 -55.5v-442h-46v546h39l6 -63q20 13 45 27t53 25t57.5 18t58.5 7q87 0 124.5 -41.5t37.5 -119.5v-399h-46zM358 618q-26 0 -42.5 11.5t-30 26t-26 26t-30.5 11.5q-17 0 -31 -16t-16 -58h-41
q2 51 24.5 83t63.5 32q24 0 40.5 -11.5t30 -26t26.5 -26t31 -11.5q24 0 34.5 16t12.5 60h41q-1 -23 -5 -44t-14 -37.5t-26.5 -26t-41.5 -9.5z" />
    <glyph glyph-name="ograve" unicode="&#xf2;" horiz-adv-x="589" 
d="M534 242q0 -121 -62.5 -186.5t-177.5 -65.5t-177 65.5t-62 186.5v66q0 121 62 186.5t177 65.5t177.5 -65.5t62.5 -186.5v-66zM488 310q0 102 -50 155.5t-144 53.5t-143.5 -53.5t-49.5 -155.5v-70q0 -99 48 -154t145 -55q98 0 146 55t48 154v70zM343 606h-49l-108 134h63z
" />
    <glyph glyph-name="oacute" unicode="&#xf3;" horiz-adv-x="589" 
d="M534 242q0 -121 -62.5 -186.5t-177.5 -65.5t-177 65.5t-62 186.5v66q0 121 62 186.5t177 65.5t177.5 -65.5t62.5 -186.5v-66zM488 310q0 102 -50 155.5t-144 53.5t-143.5 -53.5t-49.5 -155.5v-70q0 -99 48 -154t145 -55q98 0 146 55t48 154v70zM340 740h63l-108 -134h-49
z" />
    <glyph glyph-name="ocircumflex" unicode="&#xf4;" horiz-adv-x="589" 
d="M534 242q0 -121 -62.5 -186.5t-177.5 -65.5t-177 65.5t-62 186.5v66q0 121 62 186.5t177 65.5t177.5 -65.5t62.5 -186.5v-66zM488 310q0 102 -50 155.5t-144 53.5t-143.5 -53.5t-49.5 -155.5v-70q0 -99 48 -154t145 -55q98 0 146 55t48 154v70zM270 754h49l100 -148h-45
l-79 110l-80 -110h-45z" />
    <glyph glyph-name="otilde" unicode="&#xf5;" horiz-adv-x="589" 
d="M534 242q0 -121 -62.5 -186.5t-177.5 -65.5t-177 65.5t-62 186.5v66q0 121 62 186.5t177 65.5t177.5 -65.5t62.5 -186.5v-66zM488 310q0 102 -50 155.5t-144 53.5t-143.5 -53.5t-49.5 -155.5v-70q0 -99 48 -154t145 -55q98 0 146 55t48 154v70zM360 618q-26 0 -42.5 11.5
t-30 26t-26 26t-30.5 11.5q-17 0 -31 -16t-16 -58h-41q2 51 24.5 83t63.5 32q24 0 40.5 -11.5t30 -26t26.5 -26t31 -11.5q24 0 34.5 16t12.5 60h41q-1 -23 -5 -44t-14 -37.5t-26.5 -26t-41.5 -9.5z" />
    <glyph glyph-name="odieresis" unicode="&#xf6;" horiz-adv-x="589" 
d="M534 242q0 -121 -62.5 -186.5t-177.5 -65.5t-177 65.5t-62 186.5v66q0 121 62 186.5t177 65.5t177.5 -65.5t62.5 -186.5v-66zM488 310q0 102 -50 155.5t-144 53.5t-143.5 -53.5t-49.5 -155.5v-70q0 -99 48 -154t145 -55q98 0 146 55t48 154v70zM177 717h66v-83h-66v83z
M346 717h66v-83h-66v83z" />
    <glyph glyph-name="divide" unicode="&#xf7;" horiz-adv-x="612" 
d="M62 370h488v-46h-488v46zM274 576h65v-77h-65v77zM274 196h65v-77h-65v77z" />
    <glyph glyph-name="oslash" unicode="&#xf8;" horiz-adv-x="589" 
d="M534 242q0 -121 -62.5 -186.5t-177.5 -65.5q-88 0 -145 39l-51 -72h-48l69 97q-64 66 -64 188v66q0 121 62 186.5t177 65.5q92 0 150 -43l47 67h48l-65 -93q60 -66 60 -183v-66zM101 240q0 -95 44 -148l274 390q-48 37 -125 37q-94 0 -143.5 -53.5t-49.5 -155.5v-70z
M488 310q0 91 -41 144l-274 -390q46 -33 121 -33q98 0 146 55t48 154v70z" />
    <glyph glyph-name="ugrave" unicode="&#xf9;" 
d="M120 546v-391q0 -28 5 -50.5t18 -38.5t35 -25t56 -9q50 0 108.5 21t106.5 55v438h46v-546h-39l-6 67q-20 -14 -46 -27.5t-54.5 -24.5t-59 -18t-60.5 -7q-86 0 -121 39.5t-35 117.5v399h46zM335 606h-49l-108 134h63z" />
    <glyph glyph-name="uacute" unicode="&#xfa;" 
d="M120 546v-391q0 -28 5 -50.5t18 -38.5t35 -25t56 -9q50 0 108.5 21t106.5 55v438h46v-546h-39l-6 67q-20 -14 -46 -27.5t-54.5 -24.5t-59 -18t-60.5 -7q-86 0 -121 39.5t-35 117.5v399h46zM333 740h63l-108 -134h-49z" />
    <glyph glyph-name="ucircumflex" unicode="&#xfb;" 
d="M120 546v-391q0 -28 5 -50.5t18 -38.5t35 -25t56 -9q50 0 108.5 21t106.5 55v438h46v-546h-39l-6 67q-20 -14 -46 -27.5t-54.5 -24.5t-59 -18t-60.5 -7q-86 0 -121 39.5t-35 117.5v399h46zM263 754h49l100 -148h-45l-79 110l-80 -110h-45z" />
    <glyph glyph-name="udieresis" unicode="&#xfc;" 
d="M120 546v-391q0 -28 5 -50.5t18 -38.5t35 -25t56 -9q50 0 108.5 21t106.5 55v438h46v-546h-39l-6 67q-20 -14 -46 -27.5t-54.5 -24.5t-59 -18t-60.5 -7q-86 0 -121 39.5t-35 117.5v399h46zM170 717h66v-83h-66v83zM339 717h66v-83h-66v83z" />
    <glyph glyph-name="yacute" unicode="&#xfd;" horiz-adv-x="530" 
d="M206 -216h-47l86 216l-225 546h49l136 -340q9 -22 16 -40t14.5 -37t15 -40t17.5 -48q10 27 18 48t14.5 39.5t13.5 37t16 40.5l133 340h47zM321 740h63l-108 -134h-49z" />
    <glyph glyph-name="thorn" unicode="&#xfe;" horiz-adv-x="586" 
d="M125 774v-289q17 11 40.5 24t52 24.5t61 19t68.5 7.5q85 0 132 -48.5t47 -129.5v-175q0 -62 -15.5 -104t-44.5 -67.5t-70.5 -36t-93.5 -10.5q-42 0 -88.5 10t-88.5 27v-242h-46v973zM125 66q42 -19 88 -28t88 -9q94 0 136.5 43t42.5 144v147q0 44 -10.5 74t-29.5 48
t-46 26t-60 8q-25 0 -52 -6.5t-54.5 -17t-53.5 -25t-49 -30.5v-374z" />
    <glyph glyph-name="ydieresis" unicode="&#xff;" horiz-adv-x="530" 
d="M206 -216h-47l86 216l-225 546h49l136 -340q9 -22 16 -40t14.5 -37t15 -40t17.5 -48q10 27 18 48t14.5 39.5t13.5 37t16 40.5l133 340h47zM148 717h66v-83h-66v83zM317 717h66v-83h-66v83z" />
    <glyph glyph-name="Amacron" unicode="&#x100;" horiz-adv-x="670" 
d="M657 0h-52l-92 231h-361l-89 -231h-50l291 750h47zM495 275l-108 270q-9 21 -15.5 39t-13 35.5t-14 37t-16.5 44.5q-9 -25 -15.5 -44.5t-13 -37.5t-13.5 -36t-15 -40l-101 -268h325zM197 910h262v-40h-262v40z" />
    <glyph glyph-name="amacron" unicode="&#x101;" horiz-adv-x="529" 
d="M418 0l-3 68q-17 -12 -40 -25.5t-51.5 -25t-60.5 -19.5t-67 -8q-74 0 -112.5 37t-38.5 118v22q0 48 17 77.5t47.5 46t73 22t92.5 5.5h136v55q0 32 -3.5 58.5t-17.5 46t-42 30.5t-77 11q-38 0 -81 -7.5t-84 -23.5v42q42 16 84.5 23t82.5 7q60 0 96 -14t55.5 -39t26 -58.5
t6.5 -73.5v-375h-39zM411 279h-136q-45 0 -79.5 -4.5t-57.5 -17t-34.5 -35t-11.5 -57.5v-17q0 -118 104 -118q62 0 118 22.5t97 51.5v175zM134 710h262v-40h-262v40z" />
    <glyph glyph-name="Abreve" unicode="&#x102;" horiz-adv-x="670" 
d="M657 0h-52l-92 231h-361l-89 -231h-50l291 750h47zM495 275l-108 270q-9 21 -15.5 39t-13 35.5t-14 37t-16.5 44.5q-9 -25 -15.5 -44.5t-13 -37.5t-13.5 -36t-15 -40l-101 -268h325zM327 806q-30 0 -53 10.5t-39.5 29.5t-26 44t-11.5 54h40q2 -45 24.5 -72.5t65.5 -27.5
q44 0 66 27.5t24 72.5h40q-1 -29 -10.5 -54t-26 -44t-40 -29.5t-53.5 -10.5z" />
    <glyph glyph-name="abreve" unicode="&#x103;" horiz-adv-x="529" 
d="M418 0l-3 68q-17 -12 -40 -25.5t-51.5 -25t-60.5 -19.5t-67 -8q-74 0 -112.5 37t-38.5 118v22q0 48 17 77.5t47.5 46t73 22t92.5 5.5h136v55q0 32 -3.5 58.5t-17.5 46t-42 30.5t-77 11q-38 0 -81 -7.5t-84 -23.5v42q42 16 84.5 23t82.5 7q60 0 96 -14t55.5 -39t26 -58.5
t6.5 -73.5v-375h-39zM411 279h-136q-45 0 -79.5 -4.5t-57.5 -17t-34.5 -35t-11.5 -57.5v-17q0 -118 104 -118q62 0 118 22.5t97 51.5v175zM265 606q-30 0 -53 10.5t-39.5 29.5t-26 44t-11.5 54h40q2 -45 24.5 -72.5t65.5 -27.5q44 0 66 27.5t24 72.5h40q-1 -29 -10.5 -54
t-26 -44t-40 -29.5t-53.5 -10.5z" />
    <glyph glyph-name="Aogonek" unicode="&#x104;" horiz-adv-x="670" 
d="M621 -222q-62 0 -94 26t-32 68v7q0 21 11 40.5t27.5 35.5t35.5 28t36 17l-92 231h-361l-89 -231h-50l291 750h47l306 -750q-20 -9 -39 -21t-35 -27t-25.5 -32t-9.5 -36v-6q0 -26 17 -41t69 -15q15 0 36 2.5t32 5.5v-41q-13 -4 -33 -7.5t-48 -3.5zM495 275l-108 270
q-9 21 -15.5 39t-13 35.5t-14 37t-16.5 44.5q-9 -25 -15.5 -44.5t-13 -37.5t-13.5 -36t-15 -40l-101 -268h325z" />
    <glyph glyph-name="aogonek" unicode="&#x105;" horiz-adv-x="529" 
d="M457 0q-20 -9 -39 -21t-34.5 -26.5t-25 -31t-9.5 -35.5v-8q0 -26 16.5 -40.5t68.5 -14.5q15 0 36 2t32 5v-41q-13 -4 -33 -7.5t-48 -3.5q-62 0 -94 26t-32 68v9q0 21 11 40t28.5 35.5t39.5 29t44 19.5l-3 63q-17 -12 -40 -25.5t-51.5 -25t-60.5 -19.5t-67 -8
q-74 0 -112.5 37t-38.5 118v22q0 48 17 77.5t47.5 46t73 22t92.5 5.5h136v55q0 32 -3.5 58.5t-17.5 46t-42 30.5t-77 11q-38 0 -81 -7.5t-84 -23.5v42q42 16 84.5 23t82.5 7q60 0 96 -14t55.5 -39t26 -58.5t6.5 -73.5v-375zM411 279h-136q-45 0 -79.5 -4.5t-57.5 -17
t-34.5 -35t-11.5 -57.5v-17q0 -118 104 -118q62 0 118 22.5t97 51.5v175z" />
    <glyph glyph-name="Cacute" unicode="&#x106;" horiz-adv-x="617" 
d="M553 695q-37 11 -81 16.5t-102 5.5q-139 0 -200 -65.5t-61 -203.5v-142q0 -60 11 -110t41 -86.5t82 -56.5t133 -20q46 0 93 6t95 23v-43q-23 -9 -50.5 -14.5t-53.5 -9t-49.5 -4.5t-38.5 -1q-87 0 -146.5 20.5t-96 60t-52.5 98t-16 135.5v134q0 86 19 147t57.5 100t97 57
t136.5 18q55 0 101 -6t81 -19v-40zM405 940h63l-108 -134h-49z" />
    <glyph glyph-name="cacute" unicode="&#x107;" horiz-adv-x="488" 
d="M438 499q-24 8 -56.5 14t-80.5 6q-102 0 -150.5 -49t-48.5 -152v-84q0 -108 47.5 -155.5t155.5 -47.5q31 0 68 5.5t75 20.5v-41q-34 -15 -73 -20.5t-75 -5.5q-122 0 -183 56.5t-61 188.5v77q0 69 17 116.5t49 77t76.5 42t100.5 12.5q42 0 77.5 -6t61.5 -16v-39zM333 740
h63l-108 -134h-49z" />
    <glyph glyph-name="Ccircumflex" unicode="&#x108;" horiz-adv-x="617" 
d="M553 695q-37 11 -81 16.5t-102 5.5q-139 0 -200 -65.5t-61 -203.5v-142q0 -60 11 -110t41 -86.5t82 -56.5t133 -20q46 0 93 6t95 23v-43q-23 -9 -50.5 -14.5t-53.5 -9t-49.5 -4.5t-38.5 -1q-87 0 -146.5 20.5t-96 60t-52.5 98t-16 135.5v134q0 86 19 147t57.5 100t97 57
t136.5 18q55 0 101 -6t81 -19v-40zM325 954h49l100 -148h-45l-79 110l-80 -110h-45z" />
    <glyph glyph-name="ccircumflex" unicode="&#x109;" horiz-adv-x="488" 
d="M438 499q-24 8 -56.5 14t-80.5 6q-102 0 -150.5 -49t-48.5 -152v-84q0 -108 47.5 -155.5t155.5 -47.5q31 0 68 5.5t75 20.5v-41q-34 -15 -73 -20.5t-75 -5.5q-122 0 -183 56.5t-61 188.5v77q0 69 17 116.5t49 77t76.5 42t100.5 12.5q42 0 77.5 -6t61.5 -16v-39zM256 754
h49l100 -148h-45l-79 110l-80 -110h-45z" />
    <glyph glyph-name="Cdotaccent" unicode="&#x10a;" horiz-adv-x="617" 
d="M553 695q-37 11 -81 16.5t-102 5.5q-139 0 -200 -65.5t-61 -203.5v-142q0 -60 11 -110t41 -86.5t82 -56.5t133 -20q46 0 93 6t95 23v-43q-23 -9 -50.5 -14.5t-53.5 -9t-49.5 -4.5t-38.5 -1q-87 0 -146.5 20.5t-96 60t-52.5 98t-16 135.5v134q0 86 19 147t57.5 100t97 57
t136.5 18q55 0 101 -6t81 -19v-40zM317 908h65v-71h-65v71z" />
    <glyph glyph-name="cdotaccent" unicode="&#x10b;" horiz-adv-x="488" 
d="M438 499q-24 8 -56.5 14t-80.5 6q-102 0 -150.5 -49t-48.5 -152v-84q0 -108 47.5 -155.5t155.5 -47.5q31 0 68 5.5t75 20.5v-41q-34 -15 -73 -20.5t-75 -5.5q-122 0 -183 56.5t-61 188.5v77q0 69 17 116.5t49 77t76.5 42t100.5 12.5q42 0 77.5 -6t61.5 -16v-39zM254 708
h65v-71h-65v71z" />
    <glyph glyph-name="Ccaron" unicode="&#x10c;" horiz-adv-x="617" 
d="M553 695q-37 11 -81 16.5t-102 5.5q-139 0 -200 -65.5t-61 -203.5v-142q0 -60 11 -110t41 -86.5t82 -56.5t133 -20q46 0 93 6t95 23v-43q-23 -9 -50.5 -14.5t-53.5 -9t-49.5 -4.5t-38.5 -1q-87 0 -146.5 20.5t-96 60t-52.5 98t-16 135.5v134q0 86 19 147t57.5 100t97 57
t136.5 18q55 0 101 -6t81 -19v-40zM225 944h46l79 -110l79 110h45l-100 -148h-49z" />
    <glyph glyph-name="ccaron" unicode="&#x10d;" horiz-adv-x="488" 
d="M438 499q-24 8 -56.5 14t-80.5 6q-102 0 -150.5 -49t-48.5 -152v-84q0 -108 47.5 -155.5t155.5 -47.5q31 0 68 5.5t75 20.5v-41q-34 -15 -73 -20.5t-75 -5.5q-122 0 -183 56.5t-61 188.5v77q0 69 17 116.5t49 77t76.5 42t100.5 12.5q42 0 77.5 -6t61.5 -16v-39zM164 744
h46l79 -110l79 110h45l-100 -148h-49z" />
    <glyph glyph-name="Dcaron" unicode="&#x10e;" horiz-adv-x="702" 
d="M88 0v750h235q79 0 138.5 -13.5t99.5 -48t60 -94.5t20 -154v-137q0 -81 -13.5 -138.5t-49 -94t-96 -53.5t-154.5 -17h-240zM136 705v-660h187q84 0 136.5 15t82.5 46t40.5 78.5t10.5 111.5v154q0 73 -15 122t-47.5 78.5t-82.5 42t-120 12.5h-192zM237 944h46l79 -110
l79 110h45l-100 -148h-49z" />
    <glyph glyph-name="dcaron" unicode="&#x10f;" horiz-adv-x="605" 
d="M641 761l-29 -167h-34l16 167h47zM237 -10q-91 0 -134 48.5t-43 130.5v169q0 60 15 102t43.5 69t69 39t90.5 12q22 0 48 -3.5t51.5 -9t47.5 -13t36 -16.5v239l46 17v-774h-39l-7 64q-17 -12 -40 -25t-51.5 -24t-61.5 -18t-71 -7zM461 478q-14 8 -34.5 15.5t-44.5 13
t-49.5 9t-47.5 3.5q-91 0 -135 -41.5t-44 -144.5v-145q0 -45 8 -75t25.5 -48.5t44 -26.5t62.5 -8q30 0 59.5 6t57.5 16.5t53 24t45 28.5v373z" />
    <glyph glyph-name="Dcroat" unicode="&#x110;" horiz-adv-x="715" 
d="M16 408h85v342h235q79 0 138.5 -13.5t99.5 -48t60 -94.5t20 -154v-137q0 -81 -13.5 -138.5t-49 -94t-96 -53.5t-154.5 -17h-240v363h-85v45zM149 705v-297h254v-45h-254v-318h187q84 0 136.5 15t82.5 46t40.5 78.5t10.5 111.5v154q0 73 -15 122t-47.5 78.5t-82.5 42
t-120 12.5h-192z" />
    <glyph glyph-name="dcroat" unicode="&#x111;" horiz-adv-x="586" 
d="M271 664h190v93l46 17v-110h81v-38h-81v-626h-39l-7 64q-17 -12 -40 -25t-51.5 -24t-61.5 -18t-71 -7q-91 0 -134 48.5t-43 130.5v155q0 60 15 102t43.5 69t69 39t90.5 12q22 0 48 -3.5t51.5 -9t47.5 -13t36 -16.5v122h-190v38zM461 464q-14 8 -34.5 15.5t-44.5 13
t-49.5 9t-47.5 3.5q-91 0 -135 -41.5t-44 -144.5v-131q0 -45 8 -75t25.5 -48.5t44 -26.5t62.5 -8q30 0 59.5 6t57.5 16.5t53 24t45 28.5v359z" />
    <glyph glyph-name="Emacron" unicode="&#x112;" horiz-adv-x="602" 
d="M537 750v-45h-401v-292h368v-43h-368v-325h415v-45h-463v750h449zM180 910h262v-40h-262v40z" />
    <glyph glyph-name="emacron" unicode="&#x113;" horiz-adv-x="548" 
d="M101 265v-27q0 -63 13.5 -103t40.5 -63t68 -32t97 -9q30 0 65 5.5t70 19.5v-40q-32 -14 -72.5 -20t-75.5 -6q-68 0 -116 16t-78 48t-43.5 78.5t-13.5 108.5v58q0 69 17 118.5t47 81t71.5 46.5t90.5 15q52 0 92.5 -14t68.5 -44t42.5 -78t14.5 -117v-42h-399zM456 306
q0 54 -9 94t-29 66.5t-53.5 40t-81.5 13.5q-87 0 -134.5 -53t-47.5 -162v-3h355v4zM146 710h262v-40h-262v40z" />
    <glyph glyph-name="Ebreve" unicode="&#x114;" horiz-adv-x="602" 
d="M537 750v-45h-401v-292h368v-43h-368v-325h415v-45h-463v750h449zM318 806q-30 0 -53 10.5t-39.5 29.5t-26 44t-11.5 54h40q2 -45 24.5 -72.5t65.5 -27.5q44 0 66 27.5t24 72.5h40q-1 -29 -10.5 -54t-26 -44t-40 -29.5t-53.5 -10.5z" />
    <glyph glyph-name="ebreve" unicode="&#x115;" horiz-adv-x="548" 
d="M101 265v-27q0 -63 13.5 -103t40.5 -63t68 -32t97 -9q30 0 65 5.5t70 19.5v-40q-32 -14 -72.5 -20t-75.5 -6q-68 0 -116 16t-78 48t-43.5 78.5t-13.5 108.5v58q0 69 17 118.5t47 81t71.5 46.5t90.5 15q52 0 92.5 -14t68.5 -44t42.5 -78t14.5 -117v-42h-399zM456 306
q0 54 -9 94t-29 66.5t-53.5 40t-81.5 13.5q-87 0 -134.5 -53t-47.5 -162v-3h355v4zM279 606q-30 0 -53 10.5t-39.5 29.5t-26 44t-11.5 54h40q2 -45 24.5 -72.5t65.5 -27.5q44 0 66 27.5t24 72.5h40q-1 -29 -10.5 -54t-26 -44t-40 -29.5t-53.5 -10.5z" />
    <glyph glyph-name="Edotaccent" unicode="&#x116;" horiz-adv-x="602" 
d="M537 750v-45h-401v-292h368v-43h-368v-325h415v-45h-463v750h449zM288 908h65v-71h-65v71z" />
    <glyph glyph-name="edotaccent" unicode="&#x117;" horiz-adv-x="548" 
d="M101 265v-27q0 -63 13.5 -103t40.5 -63t68 -32t97 -9q30 0 65 5.5t70 19.5v-40q-32 -14 -72.5 -20t-75.5 -6q-68 0 -116 16t-78 48t-43.5 78.5t-13.5 108.5v58q0 69 17 118.5t47 81t71.5 46.5t90.5 15q52 0 92.5 -14t68.5 -44t42.5 -78t14.5 -117v-42h-399zM456 306
q0 54 -9 94t-29 66.5t-53.5 40t-81.5 13.5q-87 0 -134.5 -53t-47.5 -162v-3h355v4zM253 708h65v-71h-65v71z" />
    <glyph glyph-name="Eogonek" unicode="&#x118;" horiz-adv-x="602" 
d="M450 -222q-62 0 -94 26t-32 68v7q0 21 11 40.5t27.5 35.5t35.5 28t36 17h-346v750h449v-45h-401v-292h368v-43h-368v-325h415v-45h-65q-20 -9 -39 -21t-35 -27t-25.5 -32t-9.5 -36v-6q0 -26 17 -41t69 -15q15 0 36 2.5t32 5.5v-41q-13 -4 -33 -7.5t-48 -3.5z" />
    <glyph glyph-name="eogonek" unicode="&#x119;" horiz-adv-x="548" 
d="M366 -222q-62 0 -94 26t-32 68v7q0 17 7.5 33.5t20 31t28 26.5t30.5 20h-19q-68 0 -116 16t-78 48t-43.5 78.5t-13.5 108.5v58q0 69 17 118.5t47 81t71.5 46.5t90.5 15q52 0 92.5 -14t68.5 -44t42.5 -78t14.5 -117v-42h-399v-27q0 -63 13.5 -103t40.5 -63t68 -32t97 -9
q30 0 65 5.5t70 19.5v-40q-13 -6 -27 -10t-29 -7q-19 -9 -38 -21t-34 -27t-24.5 -32t-9.5 -35v-6q0 -26 17 -41t69 -15q15 0 36 2.5t32 5.5v-41q-13 -4 -33 -7.5t-48 -3.5zM456 306q0 54 -9 94t-29 66.5t-53.5 40t-81.5 13.5q-87 0 -134.5 -53t-47.5 -162v-3h355v4z" />
    <glyph glyph-name="Ecaron" unicode="&#x11a;" horiz-adv-x="602" 
d="M537 750v-45h-401v-292h368v-43h-368v-325h415v-45h-463v750h449zM196 944h46l79 -110l79 110h45l-100 -148h-49z" />
    <glyph glyph-name="ecaron" unicode="&#x11b;" horiz-adv-x="548" 
d="M101 265v-27q0 -63 13.5 -103t40.5 -63t68 -32t97 -9q30 0 65 5.5t70 19.5v-40q-32 -14 -72.5 -20t-75.5 -6q-68 0 -116 16t-78 48t-43.5 78.5t-13.5 108.5v58q0 69 17 118.5t47 81t71.5 46.5t90.5 15q52 0 92.5 -14t68.5 -44t42.5 -78t14.5 -117v-42h-399zM456 306
q0 54 -9 94t-29 66.5t-53.5 40t-81.5 13.5q-87 0 -134.5 -53t-47.5 -162v-3h355v4zM161 744h46l79 -110l79 110h45l-100 -148h-49z" />
    <glyph glyph-name="Gcircumflex" unicode="&#x11c;" horiz-adv-x="671" 
d="M560 696q-37 11 -81.5 16t-103.5 5q-81 0 -132.5 -19.5t-81 -55t-41 -85.5t-11.5 -110v-140q0 -53 10.5 -102t40 -87.5t83.5 -61.5t141 -23q48 0 92.5 4.5t83.5 15.5v297h-201v43h249v-370q-47 -18 -109 -25.5t-119 -7.5q-90 0 -151.5 22.5t-98.5 63.5t-53 99t-16 130
v130q0 81 16.5 142t54 101.5t97.5 61t147 20.5q58 0 104.5 -6.5t79.5 -17.5v-40zM338 954h49l100 -148h-45l-79 110l-80 -110h-45z" />
    <glyph glyph-name="gcircumflex" unicode="&#x11d;" horiz-adv-x="586" 
d="M233 -3q-90 0 -131.5 48.5t-41.5 130.5v162q0 60 15 102t43.5 69t69 39t91.5 12q24 0 50 -4t51 -10.5t46.5 -15.5t35.5 -18l5 38h40v-591q0 -88 -51 -135t-167 -47q-27 0 -64 4t-64 14v40q32 -11 66.5 -14.5t56.5 -3.5q40 0 73 6.5t55.5 22.5t35 43.5t12.5 69.5v104
q-18 -12 -43 -23.5t-54 -21t-62.5 -15.5t-67.5 -6zM461 473q-14 9 -34.5 17.5t-44.5 14.5t-49 10t-48 4q-91 0 -135 -41.5t-44 -144.5v-137q0 -89 32 -124t106 -35q29 0 59 5.5t58.5 15t54 21.5t45.5 26v368zM269 754h49l100 -148h-45l-79 110l-80 -110h-45z" />
    <glyph glyph-name="Gbreve" unicode="&#x11e;" horiz-adv-x="671" 
d="M560 696q-37 11 -81.5 16t-103.5 5q-81 0 -132.5 -19.5t-81 -55t-41 -85.5t-11.5 -110v-140q0 -53 10.5 -102t40 -87.5t83.5 -61.5t141 -23q48 0 92.5 4.5t83.5 15.5v297h-201v43h249v-370q-47 -18 -109 -25.5t-119 -7.5q-90 0 -151.5 22.5t-98.5 63.5t-53 99t-16 130
v130q0 81 16.5 142t54 101.5t97.5 61t147 20.5q58 0 104.5 -6.5t79.5 -17.5v-40zM361 806q-30 0 -53 10.5t-39.5 29.5t-26 44t-11.5 54h40q2 -45 24.5 -72.5t65.5 -27.5q44 0 66 27.5t24 72.5h40q-1 -29 -10.5 -54t-26 -44t-40 -29.5t-53.5 -10.5z" />
    <glyph glyph-name="gbreve" unicode="&#x11f;" horiz-adv-x="586" 
d="M233 -3q-90 0 -131.5 48.5t-41.5 130.5v162q0 60 15 102t43.5 69t69 39t91.5 12q24 0 50 -4t51 -10.5t46.5 -15.5t35.5 -18l5 38h40v-591q0 -88 -51 -135t-167 -47q-27 0 -64 4t-64 14v40q32 -11 66.5 -14.5t56.5 -3.5q40 0 73 6.5t55.5 22.5t35 43.5t12.5 69.5v104
q-18 -12 -43 -23.5t-54 -21t-62.5 -15.5t-67.5 -6zM461 473q-14 9 -34.5 17.5t-44.5 14.5t-49 10t-48 4q-91 0 -135 -41.5t-44 -144.5v-137q0 -89 32 -124t106 -35q29 0 59 5.5t58.5 15t54 21.5t45.5 26v368zM293 606q-30 0 -53 10.5t-39.5 29.5t-26 44t-11.5 54h40
q2 -45 24.5 -72.5t65.5 -27.5q44 0 66 27.5t24 72.5h40q-1 -29 -10.5 -54t-26 -44t-40 -29.5t-53.5 -10.5z" />
    <glyph glyph-name="Gdotaccent" unicode="&#x120;" horiz-adv-x="671" 
d="M560 696q-37 11 -81.5 16t-103.5 5q-81 0 -132.5 -19.5t-81 -55t-41 -85.5t-11.5 -110v-140q0 -53 10.5 -102t40 -87.5t83.5 -61.5t141 -23q48 0 92.5 4.5t83.5 15.5v297h-201v43h249v-370q-47 -18 -109 -25.5t-119 -7.5q-90 0 -151.5 22.5t-98.5 63.5t-53 99t-16 130
v130q0 81 16.5 142t54 101.5t97.5 61t147 20.5q58 0 104.5 -6.5t79.5 -17.5v-40zM330 908h65v-71h-65v71z" />
    <glyph glyph-name="gdotaccent" unicode="&#x121;" horiz-adv-x="586" 
d="M233 -3q-90 0 -131.5 48.5t-41.5 130.5v162q0 60 15 102t43.5 69t69 39t91.5 12q24 0 50 -4t51 -10.5t46.5 -15.5t35.5 -18l5 38h40v-591q0 -88 -51 -135t-167 -47q-27 0 -64 4t-64 14v40q32 -11 66.5 -14.5t56.5 -3.5q40 0 73 6.5t55.5 22.5t35 43.5t12.5 69.5v104
q-18 -12 -43 -23.5t-54 -21t-62.5 -15.5t-67.5 -6zM461 473q-14 9 -34.5 17.5t-44.5 14.5t-49 10t-48 4q-91 0 -135 -41.5t-44 -144.5v-137q0 -89 32 -124t106 -35q29 0 59 5.5t58.5 15t54 21.5t45.5 26v368zM261 708h65v-71h-65v71z" />
    <glyph glyph-name="uni0122" unicode="&#x122;" horiz-adv-x="671" 
d="M560 696q-37 11 -81.5 16t-103.5 5q-81 0 -132.5 -19.5t-81 -55t-41 -85.5t-11.5 -110v-140q0 -53 10.5 -102t40 -87.5t83.5 -61.5t141 -23q48 0 92.5 4.5t83.5 15.5v297h-201v43h249v-370q-47 -18 -109 -25.5t-119 -7.5q-90 0 -151.5 22.5t-98.5 63.5t-53 99t-16 130
v130q0 81 16.5 142t54 101.5t97.5 61t147 20.5q58 0 104.5 -6.5t79.5 -17.5v-40zM369 -56h61l-63 -177h-42z" />
    <glyph glyph-name="uni0123" unicode="&#x123;" horiz-adv-x="586" 
d="M233 -3q-90 0 -131.5 48.5t-41.5 130.5v162q0 60 15 102t43.5 69t69 39t91.5 12q24 0 50 -4t51 -10.5t46.5 -15.5t35.5 -18l5 38h40v-591q0 -88 -51 -135t-167 -47q-27 0 -64 4t-64 14v40q32 -11 66.5 -14.5t56.5 -3.5q40 0 73 6.5t55.5 22.5t35 43.5t12.5 69.5v104
q-18 -12 -43 -23.5t-54 -21t-62.5 -15.5t-67.5 -6zM461 473q-14 9 -34.5 17.5t-44.5 14.5t-49 10t-48 4q-91 0 -135 -41.5t-44 -144.5v-137q0 -89 32 -124t106 -35q29 0 59 5.5t58.5 15t54 21.5t45.5 26v368zM313 613h-61l63 177h42z" />
    <glyph glyph-name="Hcircumflex" unicode="&#x124;" horiz-adv-x="707" 
d="M619 0h-48v373h-435v-373h-48v750h48v-333h435v333h48v-750zM329 954h49l100 -148h-45l-79 110l-80 -110h-45z" />
    <glyph glyph-name="hcircumflex" unicode="&#x125;" 
d="M454 0v378q0 29 -4 54.5t-16.5 44.5t-36 30t-62.5 11q-46 0 -102.5 -20.5t-107.5 -55.5v-442h-46v757l46 17v-290q19 13 44.5 26.5t53.5 24.5t57.5 18t58.5 7q86 0 123.5 -41.5t37.5 -119.5v-399h-46zM285 954h49l100 -148h-45l-79 110l-80 -110h-45z" />
    <glyph glyph-name="Hbar" unicode="&#x126;" horiz-adv-x="707" 
d="M619 581h94v-45h-94v-536h-48v327h-435v-327h-48v536h-95v45h95v169h48v-169h435v169h48v-169zM571 371v165h-435v-165h435z" />
    <glyph glyph-name="hbar" unicode="&#x127;" 
d="M-12 664h91v93l46 17v-110h180v-38h-180v-156q19 13 44.5 26.5t53.5 24.5t57.5 18t58.5 7q86 0 123.5 -41.5t37.5 -119.5v-385h-46v364q0 29 -4 54.5t-16.5 44.5t-36 30t-62.5 11q-46 0 -102.5 -20.5t-107.5 -55.5v-428h-46v626h-91v38z" />
    <glyph glyph-name="Itilde" unicode="&#x128;" horiz-adv-x="224" 
d="M136 0h-48v750h48v-750zM177 818q-26 0 -42.5 11.5t-30 26t-26 26t-30.5 11.5q-17 0 -31 -16t-16 -58h-41q2 51 24.5 83t63.5 32q24 0 40.5 -11.5t30 -26t26.5 -26t31 -11.5q24 0 34.5 16t12.5 60h41q-1 -23 -5 -44t-14 -37.5t-26.5 -26t-41.5 -9.5z" />
    <glyph glyph-name="itilde" unicode="&#x129;" horiz-adv-x="208" 
d="M81 0v546h46v-546h-46zM169 618q-26 0 -42.5 11.5t-30 26t-26 26t-30.5 11.5q-17 0 -31 -16t-16 -58h-41q2 51 24.5 83t63.5 32q24 0 40.5 -11.5t30 -26t26.5 -26t31 -11.5q24 0 34.5 16t12.5 60h41q-1 -23 -5 -44t-14 -37.5t-26.5 -26t-41.5 -9.5z" />
    <glyph glyph-name="Imacron" unicode="&#x12a;" horiz-adv-x="224" 
d="M136 0h-48v750h48v-750zM-19 910h262v-40h-262v40z" />
    <glyph glyph-name="imacron" unicode="&#x12b;" horiz-adv-x="208" 
d="M81 0v546h46v-546h-46zM-27 710h262v-40h-262v40z" />
    <glyph glyph-name="Ibreve" unicode="&#x12c;" horiz-adv-x="224" 
d="M136 0h-48v750h48v-750zM112 806q-30 0 -53 10.5t-39.5 29.5t-26 44t-11.5 54h40q2 -45 24.5 -72.5t65.5 -27.5q44 0 66 27.5t24 72.5h40q-1 -29 -10.5 -54t-26 -44t-40 -29.5t-53.5 -10.5z" />
    <glyph glyph-name="ibreve" unicode="&#x12d;" horiz-adv-x="208" 
d="M81 0v546h46v-546h-46zM104 606q-30 0 -53 10.5t-39.5 29.5t-26 44t-11.5 54h40q2 -45 24.5 -72.5t65.5 -27.5q44 0 66 27.5t24 72.5h40q-1 -29 -10.5 -54t-26 -44t-40 -29.5t-53.5 -10.5z" />
    <glyph glyph-name="Iogonek" unicode="&#x12e;" horiz-adv-x="224" 
d="M136 0q-20 -9 -39 -21t-35 -27t-25.5 -32t-9.5 -36v-5q0 -28 17 -42t69 -14q15 0 36 2t32 5v-41q-13 -4 -33 -7.5t-48 -3.5q-62 0 -94 26t-32 68v7q0 21 10.5 40t27 35.5t37 28.5t39.5 18v749h48v-750z" />
    <glyph glyph-name="iogonek" unicode="&#x12f;" horiz-adv-x="208" 
d="M127 0q-20 -9 -39 -21t-35 -27t-25.5 -32t-9.5 -36v-5q0 -28 17 -42t69 -14q15 0 36 2t32 5v-41q-13 -4 -33 -7.5t-48 -3.5q-62 0 -94 26t-32 68v7q0 21 11 40.5t28 36t37.5 28.5t39.5 18v544h46v-546zM129 675h-50v70h50v-70z" />
    <glyph glyph-name="Idotaccent" unicode="&#x130;" horiz-adv-x="224" 
d="M136 0h-48v750h48v-750zM80 908h65v-71h-65v71z" />
    <glyph glyph-name="dotlessi" unicode="&#x131;" horiz-adv-x="204" 
d="M79 0v546h46v-546h-46z" />
    <glyph glyph-name="IJ" unicode="&#x132;" horiz-adv-x="622" 
d="M136 0h-48v750h48v-750zM539 750v-584q0 -99 -43.5 -137.5t-130.5 -38.5q-33 0 -66 5t-52 10v45q31 -8 58 -11.5t59 -3.5q72 0 99.5 31.5t27.5 104.5v579h48z" />
    <glyph glyph-name="ij" unicode="&#x133;" horiz-adv-x="426" 
d="M81 0v546h46v-546h-46zM129 675h-50v70h50v-70zM345 -101q0 -58 -27 -88t-89 -30q-23 0 -47 3t-44 8v41q19 -4 40.5 -7t47.5 -3q40 0 56.5 18t16.5 60v645h46v-647zM347 675h-50v70h50v-70z" />
    <glyph glyph-name="Jcircumflex" unicode="&#x134;" horiz-adv-x="398" 
d="M315 750v-584q0 -99 -43.5 -137.5t-130.5 -38.5q-33 0 -66 5t-52 10v45q31 -8 58 -11.5t59 -3.5q72 0 99.5 31.5t27.5 104.5v579h48zM267 954h49l100 -148h-45l-79 110l-80 -110h-45z" />
    <glyph glyph-name="jcircumflex" unicode="&#x135;" horiz-adv-x="218" 
d="M137 -101q0 -58 -27 -88t-89 -30q-23 0 -47 3t-44 8v41q19 -4 40.5 -7t47.5 -3q40 0 56.5 18t16.5 60v645h46v-647zM90 754h49l100 -148h-45l-79 110l-80 -110h-45z" />
    <glyph glyph-name="uni0136" unicode="&#x136;" horiz-adv-x="630" 
d="M311 376l301 -376h-62l-283 357h-131v-357h-48v750h48v-349h139l253 349h55zM313 -56h61l-63 -177h-42z" />
    <glyph glyph-name="uni0137" unicode="&#x137;" horiz-adv-x="505" 
d="M125 322h96l194 224h57l-217 -246l225 -300h-56l-207 282h-92v-282h-46v757l46 17v-452zM249 -56h61l-63 -177h-42z" />
    <glyph glyph-name="kgreenlandic" unicode="&#x138;" horiz-adv-x="505" 
d="M125 303h105l187 243h55l-210 -265l218 -281h-56l-199 263h-100v-263h-46v546h46v-243z" />
    <glyph glyph-name="Lacute" unicode="&#x139;" horiz-adv-x="573" 
d="M136 750v-705h397v-45h-445v750h48zM188 940h63l-108 -134h-49z" />
    <glyph glyph-name="lacute" unicode="&#x13a;" horiz-adv-x="204" 
d="M79 0v757l46 17v-774h-46zM168 940h63l-108 -134h-49z" />
    <glyph glyph-name="uni013B" unicode="&#x13b;" horiz-adv-x="573" 
d="M136 750v-705h397v-45h-445v750h48zM301 -56h61l-63 -177h-42z" />
    <glyph glyph-name="uni013C" unicode="&#x13c;" horiz-adv-x="204" 
d="M79 0v757l46 17v-774h-46zM73 -56h61l-63 -177h-42z" />
    <glyph glyph-name="Lcaron" unicode="&#x13d;" horiz-adv-x="573" 
d="M326 751l-26 -177h-36l13 177h49zM136 750v-705h397v-45h-445v750h48z" />
    <glyph glyph-name="lcaron" unicode="&#x13e;" horiz-adv-x="204" 
d="M259 761l-29 -167h-34l16 167h47zM79 0v757l46 17v-774h-46z" />
    <glyph glyph-name="Ldot" unicode="&#x13f;" horiz-adv-x="573" 
d="M136 750v-705h397v-45h-445v750h48zM414 473h65v-77h-65v77z" />
    <glyph glyph-name="ldot" unicode="&#x140;" horiz-adv-x="258" 
d="M79 0v757l46 17v-774h-46zM226 440h65v-77h-65v77z" />
    <glyph glyph-name="Lslash" unicode="&#x141;" horiz-adv-x="601" 
d="M164 750v-362l262 121v-46l-262 -121v-297h397v-45h-445v320l-106 -48v46l106 48v384h48z" />
    <glyph glyph-name="lslash" unicode="&#x142;" horiz-adv-x="317" 
d="M5 329l131 84v344l46 17v-332l130 84v-48l-130 -84v-394h-46v365l-131 -84v48z" />
    <glyph glyph-name="Nacute" unicode="&#x143;" horiz-adv-x="714" 
d="M626 0h-54l-343 529q-25 39 -47.5 75.5t-45.5 81.5v-686h-48v750h54l344 -529q15 -23 26.5 -41t22 -36t21 -37t22.5 -42v685h48v-750zM422 940h63l-108 -134h-49z" />
    <glyph glyph-name="nacute" unicode="&#x144;" 
d="M454 0v377q0 29 -4 55t-16.5 45t-36 30t-62.5 11q-45 0 -101.5 -20.5t-108.5 -55.5v-442h-46v546h39l6 -63q20 13 45 27t53 25t57.5 18t58.5 7q87 0 124.5 -41.5t37.5 -119.5v-399h-46zM353 740h63l-108 -134h-49z" />
    <glyph glyph-name="uni0145" unicode="&#x145;" horiz-adv-x="714" 
d="M626 0h-54l-343 529q-25 39 -47.5 75.5t-45.5 81.5v-686h-48v750h54l344 -529q15 -23 26.5 -41t22 -36t21 -37t22.5 -42v685h48v-750zM370 -56h61l-63 -177h-42z" />
    <glyph glyph-name="uni0146" unicode="&#x146;" 
d="M454 0v377q0 29 -4 55t-16.5 45t-36 30t-62.5 11q-45 0 -101.5 -20.5t-108.5 -55.5v-442h-46v546h39l6 -63q20 13 45 27t53 25t57.5 18t58.5 7q87 0 124.5 -41.5t37.5 -119.5v-399h-46zM281 -56h61l-63 -177h-42z" />
    <glyph glyph-name="Ncaron" unicode="&#x147;" horiz-adv-x="714" 
d="M626 0h-54l-343 529q-25 39 -47.5 75.5t-45.5 81.5v-686h-48v750h54l344 -529q15 -23 26.5 -41t22 -36t21 -37t22.5 -42v685h48v-750zM242 944h46l79 -110l79 110h45l-100 -148h-49z" />
    <glyph glyph-name="ncaron" unicode="&#x148;" 
d="M454 0v377q0 29 -4 55t-16.5 45t-36 30t-62.5 11q-45 0 -101.5 -20.5t-108.5 -55.5v-442h-46v546h39l6 -63q20 13 45 27t53 25t57.5 18t58.5 7q87 0 124.5 -41.5t37.5 -119.5v-399h-46zM171 744h46l79 -110l79 110h45l-100 -148h-49z" />
    <glyph glyph-name="napostrophe" unicode="&#x149;" 
d="M40 700l-35 -194h-34l22 194h47zM454 0v377q0 29 -4 55t-16.5 45t-36 30t-62.5 11q-45 0 -101.5 -20.5t-108.5 -55.5v-442h-46v546h39l6 -63q20 13 45 27t53 25t57.5 18t58.5 7q87 0 124.5 -41.5t37.5 -119.5v-399h-46z" />
    <glyph glyph-name="Eng" unicode="&#x14a;" horiz-adv-x="714" 
d="M626 750v-804q0 -50 -9 -82t-28 -51.5t-47.5 -27t-68.5 -7.5q-28 0 -53.5 4t-44.5 11v45q31 -9 53.5 -12t43.5 -3q34 0 54.5 6.5t32 22t15.5 40.5t4 61v37l-349 539q-25 39 -47.5 75.5t-45.5 81.5v-686h-48v750h54l344 -529q15 -23 26.5 -41t22 -36t21 -37t22.5 -42v685
h48z" />
    <glyph glyph-name="eng" unicode="&#x14b;" 
d="M500 -101q0 -58 -27 -88t-89 -30q-23 0 -47 3t-44 8v41q19 -4 40.5 -7t47.5 -3q40 0 56.5 18t16.5 60v476q0 29 -4 55t-16.5 45t-36 30t-62.5 11q-45 0 -101.5 -20.5t-108.5 -55.5v-442h-46v546h39l6 -63q20 13 45 27t53 25t57.5 18t58.5 7q87 0 124.5 -41.5t37.5 -119.5
v-500z" />
    <glyph glyph-name="Omacron" unicode="&#x14c;" horiz-adv-x="738" 
d="M680 318q0 -162 -80.5 -246t-230.5 -84t-230.5 84t-80.5 246v114q0 161 80.5 245.5t230.5 84.5t230.5 -84.5t80.5 -245.5v-114zM632 426q0 147 -66 219.5t-197 72.5t-197 -72.5t-66 -219.5v-102q0 -148 67.5 -220t195.5 -72t195.5 72t67.5 220v102zM238 910h262v-40h-262
v40z" />
    <glyph glyph-name="omacron" unicode="&#x14d;" horiz-adv-x="589" 
d="M534 242q0 -121 -62.5 -186.5t-177.5 -65.5t-177 65.5t-62 186.5v66q0 121 62 186.5t177 65.5t177.5 -65.5t62.5 -186.5v-66zM488 310q0 102 -50 155.5t-144 53.5t-143.5 -53.5t-49.5 -155.5v-70q0 -99 48 -154t145 -55q98 0 146 55t48 154v70zM164 710h262v-40h-262v40z
" />
    <glyph glyph-name="Obreve" unicode="&#x14e;" horiz-adv-x="738" 
d="M680 318q0 -162 -80.5 -246t-230.5 -84t-230.5 84t-80.5 246v114q0 161 80.5 245.5t230.5 84.5t230.5 -84.5t80.5 -245.5v-114zM632 426q0 147 -66 219.5t-197 72.5t-197 -72.5t-66 -219.5v-102q0 -148 67.5 -220t195.5 -72t195.5 72t67.5 220v102zM369 806
q-30 0 -53 10.5t-39.5 29.5t-26 44t-11.5 54h40q2 -45 24.5 -72.5t65.5 -27.5q44 0 66 27.5t24 72.5h40q-1 -29 -10.5 -54t-26 -44t-40 -29.5t-53.5 -10.5z" />
    <glyph glyph-name="obreve" unicode="&#x14f;" horiz-adv-x="589" 
d="M534 242q0 -121 -62.5 -186.5t-177.5 -65.5t-177 65.5t-62 186.5v66q0 121 62 186.5t177 65.5t177.5 -65.5t62.5 -186.5v-66zM488 310q0 102 -50 155.5t-144 53.5t-143.5 -53.5t-49.5 -155.5v-70q0 -99 48 -154t145 -55q98 0 146 55t48 154v70zM295 606q-30 0 -53 10.5
t-39.5 29.5t-26 44t-11.5 54h40q2 -45 24.5 -72.5t65.5 -27.5q44 0 66 27.5t24 72.5h40q-1 -29 -10.5 -54t-26 -44t-40 -29.5t-53.5 -10.5z" />
    <glyph glyph-name="Ohungarumlaut" unicode="&#x150;" horiz-adv-x="738" 
d="M680 318q0 -162 -80.5 -246t-230.5 -84t-230.5 84t-80.5 246v114q0 161 80.5 245.5t230.5 84.5t230.5 -84.5t80.5 -245.5v-114zM632 426q0 147 -66 219.5t-197 72.5t-197 -72.5t-66 -219.5v-102q0 -148 67.5 -220t195.5 -72t195.5 72t67.5 220v102zM447 940h61l-69 -134
h-41zM299 940h62l-69 -134h-43z" />
    <glyph glyph-name="ohungarumlaut" unicode="&#x151;" horiz-adv-x="589" 
d="M534 242q0 -121 -62.5 -186.5t-177.5 -65.5t-177 65.5t-62 186.5v66q0 121 62 186.5t177 65.5t177.5 -65.5t62.5 -186.5v-66zM488 310q0 102 -50 155.5t-144 53.5t-143.5 -53.5t-49.5 -155.5v-70q0 -99 48 -154t145 -55q98 0 146 55t48 154v70zM373 740h61l-69 -134h-41z
M225 740h62l-69 -134h-43z" />
    <glyph glyph-name="OE" unicode="&#x152;" horiz-adv-x="1027" 
d="M962 750v-45h-398v-292h365v-43h-365v-325h412v-45h-575q-79 0 -142.5 17.5t-108 57t-68.5 104.5t-24 160v65q0 81 18.5 145.5t59 109t106 68t159.5 23.5h561zM516 45v660h-119q-82 0 -137.5 -20t-89.5 -58t-49 -92t-15 -122v-82q0 -147 72.5 -216.5t218.5 -69.5h119z
" />
    <glyph glyph-name="oe" unicode="&#x153;" horiz-adv-x="930" 
d="M512 265v-33q1 -60 12.5 -99t36.5 -61.5t63.5 -31.5t93.5 -9q30 0 63.5 5.5t68.5 19.5v-40q-32 -14 -71 -20t-74 -6q-93 0 -145 32t-74 89q-26 -57 -77.5 -89t-128.5 -32q-57 0 -100 17.5t-72.5 50.5t-44 79.5t-14.5 104.5v66q0 58 14.5 104.5t44 79.5t72.5 50.5
t100 17.5q79 0 131.5 -34t77.5 -94q26 64 76.5 96t119.5 32q105 0 157.5 -61t52.5 -192v-42h-383zM466 310q0 97 -46.5 153t-139.5 56q-92 0 -138.5 -56t-46.5 -153v-70q0 -47 11 -85.5t34 -66t58 -42.5t82 -15q48 0 83 15t58 42.5t34 66t11 85.5v70zM512 302h339v4
q0 50 -8 89.5t-27 67.5t-51 42.5t-79 14.5q-82 0 -128 -52t-46 -155v-11z" />
    <glyph glyph-name="Racute" unicode="&#x154;" horiz-adv-x="660" 
d="M88 750h268q51 0 94.5 -6.5t75 -26.5t49 -58t17.5 -101v-51q0 -46 -10 -77.5t-30 -52.5t-49 -32t-68 -16l184 -329h-54l-179 324h-250v-324h-48v750zM136 706v-339h193q57 0 98 5.5t67 20t38 41t12 68.5v62q0 42 -10.5 69.5t-33 43.5t-58 22.5t-85.5 6.5h-221zM386 940
h63l-108 -134h-49z" />
    <glyph glyph-name="racute" unicode="&#x155;" horiz-adv-x="353" 
d="M337 514q-63 -5 -116.5 -33t-95.5 -78v-403h-46v546h39l6 -98q38 44 91.5 75.5t121.5 36.5v-46zM255 740h63l-108 -134h-49z" />
    <glyph glyph-name="uni0156" unicode="&#x156;" horiz-adv-x="660" 
d="M88 750h268q51 0 94.5 -6.5t75 -26.5t49 -58t17.5 -101v-51q0 -46 -10 -77.5t-30 -52.5t-49 -32t-68 -16l184 -329h-54l-179 324h-250v-324h-48v750zM136 706v-339h193q57 0 98 5.5t67 20t38 41t12 68.5v62q0 42 -10.5 69.5t-33 43.5t-58 22.5t-85.5 6.5h-221zM339 -56
h61l-63 -177h-42z" />
    <glyph glyph-name="uni0157" unicode="&#x157;" horiz-adv-x="353" 
d="M337 514q-63 -5 -116.5 -33t-95.5 -78v-403h-46v546h39l6 -98q38 44 91.5 75.5t121.5 36.5v-46zM74 -56h61l-63 -177h-42z" />
    <glyph glyph-name="Rcaron" unicode="&#x158;" horiz-adv-x="644" 
d="M72 750h268q51 0 94.5 -6.5t75 -26.5t49 -58t17.5 -101v-51q0 -46 -10 -77.5t-30 -52.5t-49 -32t-68 -16l184 -329h-54l-179 324h-250v-324h-48v750zM120 706v-339h193q57 0 98 5.5t67 20t38 41t12 68.5v62q0 42 -10.5 69.5t-33 43.5t-58 22.5t-85.5 6.5h-221zM201 944
h46l79 -110l79 110h45l-100 -148h-49z" />
    <glyph glyph-name="rcaron" unicode="&#x159;" horiz-adv-x="353" 
d="M337 514q-63 -5 -116.5 -33t-95.5 -78v-403h-46v546h39l6 -98q38 44 91.5 75.5t121.5 36.5v-46zM84 744h46l79 -110l79 110h45l-100 -148h-49z" />
    <glyph glyph-name="Sacute" unicode="&#x15a;" horiz-adv-x="593" 
d="M540 208q0 -46 -10 -85.5t-37.5 -69t-76 -46.5t-125.5 -17q-54 0 -112 8t-116 29v47q68 -25 125 -32.5t105 -7.5q98 0 148.5 38t50.5 129q0 34 -7 56.5t-23.5 38t-44 26.5t-69.5 22l-124 33q-86 23 -121.5 66.5t-35.5 120.5q0 103 57.5 149.5t181.5 46.5q103 0 183 -23
v-40q-42 11 -88.5 15.5t-87.5 4.5q-51 0 -88.5 -6.5t-62 -24t-36.5 -47t-12 -75.5q0 -59 28.5 -92t99.5 -52l120 -32q52 -14 86 -29t54.5 -35.5t29 -48.5t8.5 -67zM355 940h63l-108 -134h-49z" />
    <glyph glyph-name="sacute" unicode="&#x15b;" horiz-adv-x="463" 
d="M423 149q0 -34 -9.5 -63t-32 -50.5t-60 -33.5t-94.5 -12q-15 0 -37 1.5t-46 5t-48.5 9t-45.5 14.5v43q51 -19 95 -25.5t79 -6.5q45 0 75 8.5t47 24t24 36.5t7 45q0 21 -2.5 37.5t-15.5 30t-39 24.5t-72 22l-51 12q-44 10 -72 24t-44 31.5t-22 40t-6 51.5q0 38 14 65
t38.5 44t59 25t76.5 8t80 -5.5t66 -15.5v-38q-35 9 -67.5 14t-74.5 5q-81 0 -114 -25.5t-33 -74.5q0 -21 3 -37t15 -29.5t36 -24t65 -20.5l51 -12q48 -11 78 -24.5t47.5 -31t23.5 -40t6 -52.5zM288 740h63l-108 -134h-49z" />
    <glyph glyph-name="Scircumflex" unicode="&#x15c;" horiz-adv-x="593" 
d="M540 208q0 -46 -10 -85.5t-37.5 -69t-76 -46.5t-125.5 -17q-54 0 -112 8t-116 29v47q68 -25 125 -32.5t105 -7.5q98 0 148.5 38t50.5 129q0 34 -7 56.5t-23.5 38t-44 26.5t-69.5 22l-124 33q-86 23 -121.5 66.5t-35.5 120.5q0 103 57.5 149.5t181.5 46.5q103 0 183 -23
v-40q-42 11 -88.5 15.5t-87.5 4.5q-51 0 -88.5 -6.5t-62 -24t-36.5 -47t-12 -75.5q0 -59 28.5 -92t99.5 -52l120 -32q52 -14 86 -29t54.5 -35.5t29 -48.5t8.5 -67zM273 954h49l100 -148h-45l-79 110l-80 -110h-45z" />
    <glyph glyph-name="scircumflex" unicode="&#x15d;" horiz-adv-x="463" 
d="M423 149q0 -34 -9.5 -63t-32 -50.5t-60 -33.5t-94.5 -12q-15 0 -37 1.5t-46 5t-48.5 9t-45.5 14.5v43q51 -19 95 -25.5t79 -6.5q45 0 75 8.5t47 24t24 36.5t7 45q0 21 -2.5 37.5t-15.5 30t-39 24.5t-72 22l-51 12q-44 10 -72 24t-44 31.5t-22 40t-6 51.5q0 38 14 65
t38.5 44t59 25t76.5 8t80 -5.5t66 -15.5v-38q-35 9 -67.5 14t-74.5 5q-81 0 -114 -25.5t-33 -74.5q0 -21 3 -37t15 -29.5t36 -24t65 -20.5l51 -12q48 -11 78 -24.5t47.5 -31t23.5 -40t6 -52.5zM207 754h49l100 -148h-45l-79 110l-80 -110h-45z" />
    <glyph glyph-name="Scedilla" unicode="&#x15e;" horiz-adv-x="593" 
d="M281 -262q-20 0 -39.5 1t-41.5 5v42q15 -2 36.5 -4t40.5 -2q34 0 53.5 5t29 13t12 19t2.5 22v8q0 12 -2.5 22t-13 17t-31.5 11t-59 4h-16v90q-46 2 -93.5 10.5t-95.5 25.5v47q68 -25 125 -32.5t105 -7.5q98 0 148.5 38t50.5 129q0 34 -7 56.5t-23.5 38t-44 26.5t-69.5 22
l-124 33q-86 23 -121.5 66.5t-35.5 120.5q0 103 57.5 149.5t181.5 46.5q103 0 183 -23v-40q-42 11 -88.5 15.5t-87.5 4.5q-51 0 -88.5 -6.5t-62 -24t-36.5 -47t-12 -75.5q0 -59 28.5 -92t99.5 -52l120 -32q52 -14 86 -29t54.5 -35.5t29 -48.5t8.5 -67q0 -45 -10 -84.5
t-36.5 -68.5t-73 -46.5t-120.5 -18.5v-49q71 -4 97 -26t26 -65v-6q0 -31 -11 -51.5t-30 -32.5t-45 -17t-56 -5z" />
    <glyph glyph-name="scedilla" unicode="&#x15f;" horiz-adv-x="463" 
d="M220 -262q-20 0 -39.5 1t-41.5 5v42q15 -2 36.5 -4t40.5 -2q34 0 53.5 5t29 13t12 19t2.5 22v8q0 12 -2.5 22t-13 17t-31.5 11t-59 4h-16v90q-32 2 -70.5 8.5t-70.5 20.5v43q51 -19 95 -25.5t79 -6.5q45 0 75 8.5t47 24t24 36.5t7 45q0 21 -2.5 37.5t-15.5 30t-39 24.5
t-72 22l-51 12q-44 10 -72 24t-44 31.5t-22 40t-6 51.5q0 38 14 65t38.5 44t59 25t76.5 8t80 -5.5t66 -15.5v-38q-35 9 -67.5 14t-74.5 5q-81 0 -114 -25.5t-33 -74.5q0 -21 3 -37t15 -29.5t36 -24t65 -20.5l51 -12q48 -11 78 -24.5t47.5 -31t23.5 -40t6 -52.5
q0 -33 -9 -61.5t-30 -49.5t-56.5 -34t-88.5 -14v-49q71 -4 97 -26t26 -65v-6q0 -31 -11 -51.5t-30 -32.5t-45 -17t-56 -5z" />
    <glyph glyph-name="Scaron" unicode="&#x160;" horiz-adv-x="593" 
d="M540 208q0 -46 -10 -85.5t-37.5 -69t-76 -46.5t-125.5 -17q-54 0 -112 8t-116 29v47q68 -25 125 -32.5t105 -7.5q98 0 148.5 38t50.5 129q0 34 -7 56.5t-23.5 38t-44 26.5t-69.5 22l-124 33q-86 23 -121.5 66.5t-35.5 120.5q0 103 57.5 149.5t181.5 46.5q103 0 183 -23
v-40q-42 11 -88.5 15.5t-87.5 4.5q-51 0 -88.5 -6.5t-62 -24t-36.5 -47t-12 -75.5q0 -59 28.5 -92t99.5 -52l120 -32q52 -14 86 -29t54.5 -35.5t29 -48.5t8.5 -67zM176 944h46l79 -110l79 110h45l-100 -148h-49z" />
    <glyph glyph-name="scaron" unicode="&#x161;" horiz-adv-x="463" 
d="M423 149q0 -34 -9.5 -63t-32 -50.5t-60 -33.5t-94.5 -12q-15 0 -37 1.5t-46 5t-48.5 9t-45.5 14.5v43q51 -19 95 -25.5t79 -6.5q45 0 75 8.5t47 24t24 36.5t7 45q0 21 -2.5 37.5t-15.5 30t-39 24.5t-72 22l-51 12q-44 10 -72 24t-44 31.5t-22 40t-6 51.5q0 38 14 65
t38.5 44t59 25t76.5 8t80 -5.5t66 -15.5v-38q-35 9 -67.5 14t-74.5 5q-81 0 -114 -25.5t-33 -74.5q0 -21 3 -37t15 -29.5t36 -24t65 -20.5l51 -12q48 -11 78 -24.5t47.5 -31t23.5 -40t6 -52.5zM107 744h46l79 -110l79 110h45l-100 -148h-49z" />
    <glyph glyph-name="uni0162" unicode="&#x162;" horiz-adv-x="645" 
d="M327 -262q-20 0 -39.5 1t-41.5 5v42q15 -2 36.5 -4t40.5 -2q34 0 53.5 5t29 13t12 19t2.5 22v8q0 12 -2.5 22t-13 17t-31.5 11t-59 4h-16v804h-257v45h563v-45h-258v-764q71 -4 97 -26t26 -65v-6q0 -31 -11 -51.5t-30 -32.5t-45 -17t-56 -5z" />
    <glyph glyph-name="uni0163" unicode="&#x163;" horiz-adv-x="388" 
d="M195 -262q-20 0 -39.5 1t-41.5 5v42q15 -2 36.5 -4t40.5 -2q34 0 53.5 5t29 13t12 19t2.5 22v8q0 12 -2.5 22t-13 17t-31.5 11t-59 4h-16v105q-25 15 -35 43.5t-10 72.5v383h-101v41h101v132l46 18v-150h183v-41h-183v-369q0 -33 4.5 -54t15 -32t27.5 -15t41 -4t50 5.5
t47 17.5v-40q-18 -11 -49 -17.5t-62 -6.5q-8 0 -14.5 0.5t-12.5 1.5v-51q71 -4 97 -26t26 -65v-6q0 -31 -11 -51.5t-30 -32.5t-45 -17t-56 -5z" />
    <glyph glyph-name="Tcaron" unicode="&#x164;" horiz-adv-x="645" 
d="M41 750h563v-45h-258v-705h-48v705h-257v45zM198 944h46l79 -110l79 110h45l-100 -148h-49z" />
    <glyph glyph-name="tcaron" unicode="&#x165;" horiz-adv-x="388" 
d="M355 761l-29 -167h-34l16 167h47zM167 505v-369q0 -33 4.5 -54t15 -32t27.5 -15t41 -4t50 5.5t47 17.5v-40q-18 -11 -49 -17.5t-62 -6.5q-68 0 -94 32t-26 100v383h-101v41h101v132l46 18v-150h183v-41h-183z" />
    <glyph glyph-name="Tbar" unicode="&#x166;" horiz-adv-x="645" 
d="M41 750h563v-45h-258v-294h209v-45h-209v-366h-48v366h-209v45h209v294h-257v45z" />
    <glyph glyph-name="tbar" unicode="&#x167;" horiz-adv-x="388" 
d="M167 505v-167h193v-38h-193v-164q0 -33 4.5 -54t15 -32t27.5 -15t41 -4t50 5.5t47 17.5v-40q-18 -11 -49 -17.5t-62 -6.5q-68 0 -94 32t-26 100v178h-91v38h91v167h-101v41h101v132l46 18v-150h183v-41h-183z" />
    <glyph glyph-name="Utilde" unicode="&#x168;" horiz-adv-x="728" 
d="M131 750v-469q0 -131 55.5 -190t176.5 -59q124 0 179 59t55 190v469h48v-473q0 -147 -67.5 -218.5t-214.5 -71.5t-213.5 71.5t-66.5 218.5v473h48zM429 818q-26 0 -42.5 11.5t-30 26t-26 26t-30.5 11.5q-17 0 -31 -16t-16 -58h-41q2 51 24.5 83t63.5 32q24 0 40.5 -11.5
t30 -26t26.5 -26t31 -11.5q24 0 34.5 16t12.5 60h41q-1 -23 -5 -44t-14 -37.5t-26.5 -26t-41.5 -9.5z" />
    <glyph glyph-name="utilde" unicode="&#x169;" 
d="M120 546v-391q0 -28 5 -50.5t18 -38.5t35 -25t56 -9q50 0 108.5 21t106.5 55v438h46v-546h-39l-6 67q-20 -14 -46 -27.5t-54.5 -24.5t-59 -18t-60.5 -7q-86 0 -121 39.5t-35 117.5v399h46zM352 618q-26 0 -42.5 11.5t-30 26t-26 26t-30.5 11.5q-17 0 -31 -16t-16 -58h-41
q2 51 24.5 83t63.5 32q24 0 40.5 -11.5t30 -26t26.5 -26t31 -11.5q24 0 34.5 16t12.5 60h41q-1 -23 -5 -44t-14 -37.5t-26.5 -26t-41.5 -9.5z" />
    <glyph glyph-name="Umacron" unicode="&#x16a;" horiz-adv-x="728" 
d="M131 750v-469q0 -131 55.5 -190t176.5 -59q124 0 179 59t55 190v469h48v-473q0 -147 -67.5 -218.5t-214.5 -71.5t-213.5 71.5t-66.5 218.5v473h48zM233 910h262v-40h-262v40z" />
    <glyph glyph-name="umacron" unicode="&#x16b;" 
d="M120 546v-391q0 -28 5 -50.5t18 -38.5t35 -25t56 -9q50 0 108.5 21t106.5 55v438h46v-546h-39l-6 67q-20 -14 -46 -27.5t-54.5 -24.5t-59 -18t-60.5 -7q-86 0 -121 39.5t-35 117.5v399h46zM156 710h262v-40h-262v40z" />
    <glyph glyph-name="Ubreve" unicode="&#x16c;" horiz-adv-x="728" 
d="M131 750v-469q0 -131 55.5 -190t176.5 -59q124 0 179 59t55 190v469h48v-473q0 -147 -67.5 -218.5t-214.5 -71.5t-213.5 71.5t-66.5 218.5v473h48zM364 806q-30 0 -53 10.5t-39.5 29.5t-26 44t-11.5 54h40q2 -45 24.5 -72.5t65.5 -27.5q44 0 66 27.5t24 72.5h40
q-1 -29 -10.5 -54t-26 -44t-40 -29.5t-53.5 -10.5z" />
    <glyph glyph-name="ubreve" unicode="&#x16d;" 
d="M120 546v-391q0 -28 5 -50.5t18 -38.5t35 -25t56 -9q50 0 108.5 21t106.5 55v438h46v-546h-39l-6 67q-20 -14 -46 -27.5t-54.5 -24.5t-59 -18t-60.5 -7q-86 0 -121 39.5t-35 117.5v399h46zM287 606q-30 0 -53 10.5t-39.5 29.5t-26 44t-11.5 54h40q2 -45 24.5 -72.5
t65.5 -27.5q44 0 66 27.5t24 72.5h40q-1 -29 -10.5 -54t-26 -44t-40 -29.5t-53.5 -10.5z" />
    <glyph glyph-name="Uring" unicode="&#x16e;" horiz-adv-x="728" 
d="M131 750v-469q0 -131 55.5 -190t176.5 -59q124 0 179 59t55 190v469h48v-473q0 -147 -67.5 -218.5t-214.5 -71.5t-213.5 71.5t-66.5 218.5v473h48zM363 835q26 0 42.5 16t16.5 43q0 26 -16.5 43t-42.5 17t-42 -17t-16 -43q0 -27 16 -43t42 -16zM363 801q-21 0 -38.5 7.5
t-30.5 20t-20 29.5t-7 36t7 36t20 30t30.5 20.5t38.5 7.5t39 -7.5t31 -20.5t20 -30t7 -36q0 -38 -27 -65.5t-70 -27.5z" />
    <glyph glyph-name="uring" unicode="&#x16f;" 
d="M120 546v-391q0 -28 5 -50.5t18 -38.5t35 -25t56 -9q50 0 108.5 21t106.5 55v438h46v-546h-39l-6 67q-20 -14 -46 -27.5t-54.5 -24.5t-59 -18t-60.5 -7q-86 0 -121 39.5t-35 117.5v399h46zM291 635q26 0 42.5 16t16.5 43q0 26 -16.5 43t-42.5 17t-42 -17t-16 -43
q0 -27 16 -43t42 -16zM291 601q-21 0 -38.5 7.5t-30.5 20t-20 29.5t-7 36t7 36t20 30t30.5 20.5t38.5 7.5t39 -7.5t31 -20.5t20 -30t7 -36q0 -38 -27 -65.5t-70 -27.5z" />
    <glyph glyph-name="Uhungarumlaut" unicode="&#x170;" horiz-adv-x="728" 
d="M131 750v-469q0 -131 55.5 -190t176.5 -59q124 0 179 59t55 190v469h48v-473q0 -147 -67.5 -218.5t-214.5 -71.5t-213.5 71.5t-66.5 218.5v473h48zM452 940h61l-69 -134h-41zM304 940h62l-69 -134h-43z" />
    <glyph glyph-name="uhungarumlaut" unicode="&#x171;" 
d="M120 546v-391q0 -28 5 -50.5t18 -38.5t35 -25t56 -9q50 0 108.5 21t106.5 55v438h46v-546h-39l-6 67q-20 -14 -46 -27.5t-54.5 -24.5t-59 -18t-60.5 -7q-86 0 -121 39.5t-35 117.5v399h46zM377 740h61l-69 -134h-41zM229 740h62l-69 -134h-43z" />
    <glyph glyph-name="Uogonek" unicode="&#x172;" horiz-adv-x="728" 
d="M437 -222q-62 0 -94 26t-32 68v7q0 16 7 32t18.5 30.5t26 26.5t29.5 20q-7 -1 -14 -1h-15q-147 0 -213.5 71.5t-66.5 218.5v473h48v-469q0 -131 55.5 -190t176.5 -59q124 0 179 59t55 190v469h48v-473q0 -117 -41.5 -185.5t-130.5 -91.5q-20 -9 -39 -21t-35 -27
t-25.5 -32t-9.5 -36v-6q0 -26 17 -41t69 -15q15 0 36 2.5t32 5.5v-41q-13 -4 -33 -7.5t-48 -3.5z" />
    <glyph glyph-name="uogonek" unicode="&#x173;" 
d="M120 546v-391q0 -28 5 -50.5t18 -38.5t35 -25t56 -9q50 0 108.5 21t106.5 55v438h46v-546q-20 -9 -39 -21t-34.5 -26.5t-25 -31t-9.5 -35.5v-8q0 -26 16.5 -40.5t68.5 -14.5q15 0 36 2t32 5v-41q-13 -4 -33 -7.5t-48 -3.5q-62 0 -94 26t-32 68v9q0 21 11 40t28 35.5
t39 29t44 19.5l-5 62q-20 -14 -46 -27.5t-54.5 -24.5t-59 -18t-60.5 -7q-86 0 -121 39.5t-35 117.5v399h46z" />
    <glyph glyph-name="Wcircumflex" unicode="&#x174;" horiz-adv-x="943" 
d="M522 488q-14 47 -25.5 92.5t-23.5 107.5q-14 -62 -26 -107.5t-25 -92.5l-136 -488h-59l-212 750h52l141 -513q9 -34 22 -82t26 -102q14 55 26 102.5t22 81.5l144 513h48l146 -513q10 -34 22 -82t21 -100q11 51 23.5 97.5t23.5 84.5l146 513h50l-219 -750h-48zM449 954h49
l100 -148h-45l-79 110l-80 -110h-45z" />
    <glyph glyph-name="wcircumflex" unicode="&#x175;" horiz-adv-x="779" 
d="M71 546l114 -356l11 -33t10 -31t10 -33.5t11 -41.5h1l10.5 42t8.5 33.5t8.5 30.5t9.5 33l108 356h40l110 -356q11 -35 19 -66t19 -73h1q11 42 19.5 72.5t19.5 66.5l110 356h44l-172 -546h-44l-113 366q-6 21 -11 37t-9 30.5t-7 28.5t-6 31h-1q-3 -17 -6.5 -31t-7.5 -28
t-8.5 -30.5t-10.5 -37.5l-110 -366h-43l-182 546h47zM368 754h49l100 -148h-45l-79 110l-80 -110h-45z" />
    <glyph glyph-name="Ycircumflex" unicode="&#x176;" horiz-adv-x="589" 
d="M324 310v-310h-48v308l-263 442h54l165 -284l69 -121l16.5 33t15 28.5t15 27.5t17.5 32l158 284h53zM277 954h49l100 -148h-45l-79 110l-80 -110h-45z" />
    <glyph glyph-name="ycircumflex" unicode="&#x177;" horiz-adv-x="530" 
d="M206 -216h-47l86 216l-225 546h49l136 -340q9 -22 16 -40t14.5 -37t15 -40t17.5 -48q10 27 18 48t14.5 39.5t13.5 37t16 40.5l133 340h47zM245 754h49l100 -148h-45l-79 110l-80 -110h-45z" />
    <glyph glyph-name="Ydieresis" unicode="&#x178;" horiz-adv-x="589" 
d="M324 310v-310h-48v308l-263 442h54l165 -284l69 -121l16.5 33t15 28.5t15 27.5t17.5 32l158 284h53zM352 917h66v-83h-66v83zM183 917h66v-83h-66v83z" />
    <glyph glyph-name="Zacute" unicode="&#x179;" horiz-adv-x="616" 
d="M174 158q-10 -14 -19 -26.5t-19 -26t-21 -28.5t-24 -33h482v-44h-538v37l387 555l82 114h-454v44h511v-37zM344 940h63l-108 -134h-49z" />
    <glyph glyph-name="zacute" unicode="&#x17a;" horiz-adv-x="474" 
d="M167 148q-11 -15 -20.5 -28l-19 -26t-19.5 -26t-22 -29h363v-39h-419v32l286 390q19 26 34 46.5t31 38.5h-340v39h394v-32zM283 740h63l-108 -134h-49z" />
    <glyph glyph-name="Zdotaccent" unicode="&#x17b;" horiz-adv-x="616" 
d="M174 158q-10 -14 -19 -26.5t-19 -26t-21 -28.5t-24 -33h482v-44h-538v37l387 555l82 114h-454v44h511v-37zM275 908h65v-71h-65v71z" />
    <glyph glyph-name="zdotaccent" unicode="&#x17c;" horiz-adv-x="474" 
d="M167 148q-11 -15 -20.5 -28l-19 -26t-19.5 -26t-22 -29h363v-39h-419v32l286 390q19 26 34 46.5t31 38.5h-340v39h394v-32zM205 708h65v-71h-65v71z" />
    <glyph glyph-name="Zcaron" unicode="&#x17d;" horiz-adv-x="616" 
d="M174 158q-10 -14 -19 -26.5t-19 -26t-21 -28.5t-24 -33h482v-44h-538v37l387 555l82 114h-454v44h511v-37zM183 944h46l79 -110l79 110h45l-100 -148h-49z" />
    <glyph glyph-name="zcaron" unicode="&#x17e;" horiz-adv-x="474" 
d="M167 148q-11 -15 -20.5 -28l-19 -26t-19.5 -26t-22 -29h363v-39h-419v32l286 390q19 26 34 46.5t31 38.5h-340v39h394v-32zM118 744h46l79 -110l79 110h45l-100 -148h-49z" />
    <glyph glyph-name="longs" unicode="&#x17f;" horiz-adv-x="309" 
d="M123 0h-46v650q0 68 35 96t92 28q30 0 55 -3.5t40 -7.5v-36q-17 3 -35.5 5t-37.5 2q-24 0 -43 -3t-32.5 -12.5t-20.5 -28.5t-7 -52v-638z" />
    <glyph glyph-name="uni0180" unicode="&#x180;" horiz-adv-x="613" 
d="M15 664h91v93l46 17v-110h180v-38h-180v-155q17 11 40.5 24t52 24.5t61 19t68.5 7.5q85 0 132 -48.5t47 -129.5v-162q0 -63 -14.5 -105t-41.5 -66.5t-65.5 -35t-85.5 -10.5q-54 0 -105 18.5t-98 47.5l-5 -55h-32v626h-91v38zM152 95q46 -34 99.5 -50t94.5 -16
q86 0 123.5 42.5t37.5 143.5v134q0 44 -10.5 74t-29.5 48t-46 26t-60 8q-25 0 -52 -6.5t-54.5 -17t-53.5 -25t-49 -30.5v-331z" />
    <glyph glyph-name="uni0181" unicode="&#x181;" horiz-adv-x="754" 
d="M194 706h-29q-61 0 -87 -20.5t-26 -77.5q0 -20 2.5 -36.5t5.5 -27.5h-45q-5 16 -7.5 35.5t-2.5 39.5q0 68 38.5 99.5t114.5 31.5h261q54 0 98.5 -6t76 -23t49 -48.5t17.5 -82.5v-54q0 -25 -5.5 -48.5t-20.5 -42.5t-40.5 -33t-64.5 -20q83 -8 120.5 -46.5t37.5 -96.5v-70
q0 -54 -14 -88.5t-45.5 -55t-81.5 -28t-121 -7.5h-231v706zM242 369v-325h185q57 0 97 5.5t65.5 20.5t37 42t11.5 71v59q0 30 -9 53.5t-31.5 40t-62 25t-100.5 8.5h-193zM242 706v-296h192q40 0 72.5 6.5t56 20.5t36.5 37t13 56v61q0 33 -9.5 55.5t-32 35.5t-60 18.5
t-93.5 5.5h-175z" />
    <glyph glyph-name="uni0182" unicode="&#x182;" horiz-adv-x="636" 
d="M88 750h438v-44h-390v-285h198q64 0 112 -6.5t80 -27t48.5 -57t16.5 -96.5v-38q0 -65 -17.5 -103.5t-49 -59t-74.5 -27t-95 -6.5h-267v750zM357 44q48 0 83.5 6t58 21.5t33.5 43t11 70.5v54q0 43 -12 70t-37.5 42t-66.5 20.5t-98 5.5h-193v-333h221z" />
    <glyph glyph-name="uni0183" unicode="&#x183;" horiz-adv-x="586" 
d="M347 522q85 0 132 -48.5t47 -129.5v-138q0 -63 -14.5 -105t-41.5 -66.5t-65.5 -35t-85.5 -10.5q-54 0 -105 18.5t-98 47.5l-5 -55h-32v759h409v-40h-363v-272q17 11 40.5 24t52 24.5t61 19t68.5 7.5zM125 95q46 -34 99.5 -50t94.5 -16q86 0 123.5 42.5t37.5 143.5v110
q0 44 -10.5 74t-29.5 48t-46 26t-60 8q-25 0 -52 -6.5t-54.5 -17t-53.5 -25t-49 -30.5v-307z" />
    <glyph glyph-name="uni0184" unicode="&#x184;" horiz-adv-x="647" 
d="M88 750h46v-250h224q59 0 101.5 -8t69.5 -28t40 -54.5t13 -88.5v-152q0 -91 -51 -130t-145 -39h-93q-58 0 -97 10.5t-63 33t-34.5 56t-10.5 80.5v570zM388 43q45 0 74 9.5t45.5 26.5t22.5 40t6 50v152q0 42 -10 68.5t-31.5 41.5t-56.5 20.5t-85 5.5h-219v-281
q0 -38 8.5 -63t27.5 -41t49 -22.5t73 -6.5h96z" />
    <glyph glyph-name="uni0185" unicode="&#x185;" horiz-adv-x="586" 
d="M79 757l46 17v-289q17 11 40.5 24t52 24.5t61 19t68.5 7.5q85 0 132 -48.5t47 -129.5v-166q0 -63 -15.5 -106t-44 -70t-68 -38.5t-86.5 -11.5h-19q-114 0 -164 43t-50 120v604zM125 161q0 -34 8.5 -58.5t28.5 -40.5t52.5 -23.5t80.5 -7.5h16q90 0 129.5 44.5t39.5 149.5
v138q0 44 -10.5 74t-29.5 48t-46 26t-60 8q-25 0 -52 -6.5t-54.5 -17t-53.5 -25t-49 -30.5v-279z" />
    <glyph glyph-name="uni0186" unicode="&#x186;" horiz-adv-x="617" 
d="M64 735q35 13 81 19t101 6q78 0 136.5 -18t97 -57t57.5 -100t19 -147v-134q0 -77 -16 -135.5t-52.5 -98t-96 -60t-146.5 -20.5q-15 0 -38.5 1t-49.5 4.5t-53.5 9t-50.5 14.5v43q48 -17 95 -23t93 -6q81 0 133 20t82 56.5t41 86.5t11 110v142q0 138 -61 203.5t-200 65.5
q-58 0 -102 -5.5t-81 -16.5v40z" />
    <glyph glyph-name="uni0187" unicode="&#x187;" horiz-adv-x="608" 
d="M553 695q-37 11 -81 16.5t-102 5.5q-139 0 -200 -65.5t-61 -203.5v-142q0 -60 11 -110t41 -86.5t82 -56.5t133 -20q46 0 93 6t95 23v-43q-23 -9 -50.5 -14.5t-53.5 -9t-49.5 -4.5t-38.5 -1q-87 0 -146.5 20.5t-96 60t-52.5 98t-16 135.5v134q0 86 19 147t57.5 100t97 57
t136.5 18q77 0 136 -12v24q0 76 27.5 106.5t90.5 30.5q19 0 35.5 -3t26.5 -7v-38q-11 3 -25 5.5t-34 2.5q-24 0 -39 -6.5t-23 -20t-10.5 -35t-2.5 -51.5v-61z" />
    <glyph glyph-name="uni0188" unicode="&#x188;" horiz-adv-x="562" 
d="M381.5 513q-32.5 6 -80.5 6q-102 0 -150.5 -49t-48.5 -152v-84q0 -108 47.5 -155.5t155.5 -47.5q31 0 68 5.5t75 20.5v-41q-34 -15 -73 -20.5t-75 -5.5q-122 0 -183 56.5t-61 188.5v77q0 69 17 116.5t49 77t76.5 42t100.5 12.5q26 0 50.5 -2.5t45.5 -7.5v13
q0 74 27.5 105.5t87.5 31.5q19 0 35.5 -3t26.5 -7v-37q-11 3 -25 5.5t-34 2.5q-46 0 -60.5 -25.5t-14.5 -86.5v-50q-24 8 -56.5 14z" />
    <glyph glyph-name="uni0189" unicode="&#x189;" horiz-adv-x="724" 
d="M15 408h95v342h235q79 0 138.5 -13.5t99.5 -48t60 -94.5t20 -154v-137q0 -81 -13.5 -138.5t-49 -94t-96 -53.5t-154.5 -17h-240v363h-95v45zM158 705v-297h254v-45h-254v-318h187q84 0 136.5 15t82.5 46t40.5 78.5t10.5 111.5v154q0 73 -15 122t-47.5 78.5t-82.5 42
t-120 12.5h-192z" />
    <glyph glyph-name="uni018A" unicode="&#x18a;" horiz-adv-x="808" 
d="M194 0v706h-29q-61 0 -87 -20.5t-26 -77.5q0 -20 2.5 -36.5t5.5 -27.5h-45q-5 16 -7.5 35.5t-2.5 39.5q0 68 38.5 99.5t114.5 31.5h271q79 0 138.5 -13.5t99.5 -48t60 -94.5t20 -154v-137q0 -81 -13.5 -138.5t-49 -94t-96 -53.5t-154.5 -17h-240zM242 705v-660h187
q84 0 136.5 15t82.5 46t40.5 78.5t10.5 111.5v154q0 73 -15 122t-47.5 78.5t-82.5 42t-120 12.5h-192z" />
    <glyph glyph-name="uni018B" unicode="&#x18b;" horiz-adv-x="636" 
d="M548 0h-267q-52 0 -95 6.5t-74.5 27t-49 59t-17.5 103.5v38q0 60 16 96.5t48.5 57t80.5 27t112 6.5h198v285h-390v44h438v-750zM500 44v333h-193q-57 0 -98 -5.5t-66.5 -20.5t-37.5 -42t-12 -70v-54q0 -43 11 -70.5t33.5 -43t58 -21.5t83.5 -6h221z" />
    <glyph glyph-name="uni018C" unicode="&#x18c;" horiz-adv-x="586" 
d="M239 522q36 0 68.5 -7.5t61 -19t52 -24.5t40.5 -24v272h-363v40h409v-759h-32l-5 55q-47 -29 -98 -47.5t-105 -18.5q-47 0 -85.5 10.5t-65.5 35t-41.5 66.5t-14.5 105v138q0 81 47 129.5t132 48.5zM461 402q-23 16 -49 30.5t-53.5 25t-54.5 17t-52 6.5q-33 0 -60 -8
t-46 -26t-29.5 -48t-10.5 -74v-110q0 -101 37.5 -143.5t123.5 -42.5q41 0 94.5 16t99.5 50v307z" />
    <glyph glyph-name="uni018D" unicode="&#x18d;" horiz-adv-x="569" 
d="M408 -104q0 18 -12 32t-38 30t-67.5 37.5t-101.5 53.5q-39 21 -65 47t-41 55t-21.5 61.5t-6.5 66.5v39q0 121 60 181.5t169 60.5q112 0 171 -60.5t59 -181.5v-39q0 -116 -60.5 -176t-173.5 -58q52 -25 85.5 -43.5t53 -35t27.5 -33t8 -36.5v-10q0 -22 -8.5 -42t-29 -35
t-53.5 -24t-81 -9q-39 0 -74.5 7t-74.5 24v43q72 -33 149 -33q38 0 62.5 6.5t38.5 17t19.5 22.5t5.5 24v8zM284 519q-41 0 -74.5 -11t-57.5 -35t-37.5 -62.5t-13.5 -93.5v-35q0 -55 13.5 -93t37.5 -61.5t57.5 -34t74.5 -10.5t75 10.5t58 34t37.5 61.5t13.5 93v35
q0 55 -13.5 93.5t-37.5 62.5t-58 35t-75 11z" />
    <glyph glyph-name="uni018E" unicode="&#x18e;" horiz-adv-x="602" 
d="M514 750v-750h-463v45h415v325h-368v43h368v292h-401v45h449z" />
    <glyph glyph-name="uni018F" unicode="&#x18f;" horiz-adv-x="685" 
d="M581 401v32q0 85 -17.5 140t-52.5 87t-89 44.5t-127 12.5q-38 0 -83.5 -6.5t-93.5 -25.5v43q43 18 93.5 25t95.5 7q90 0 151 -21.5t98.5 -64t54 -105.5t16.5 -146v-82q0 -94 -21 -160.5t-59.5 -109t-91.5 -62t-117 -19.5q-65 0 -117.5 19.5t-90 61t-58 106.5t-20.5 156
v68h529zM98 334q0 -145 57 -223t183 -78q118 0 180.5 71t62.5 217v36h-483v-23z" />
    <glyph glyph-name="uni0190" unicode="&#x190;" horiz-adv-x="583" 
d="M317 368q-43 0 -81 -9t-66.5 -28t-45.5 -48.5t-17 -71.5q0 -85 55 -132.5t174 -47.5q63 0 118.5 10t98.5 27v-41q-38 -15 -93 -27t-127 -12q-134 0 -204.5 56.5t-70.5 164.5q0 70 39.5 116t117.5 63q-38 10 -63.5 27.5t-42 40t-23.5 49t-7 55.5q0 101 67.5 150.5
t194.5 49.5q63 0 108 -8.5t83 -23.5v-41q-45 16 -88.5 23t-97.5 7q-62 0 -104 -11.5t-67.5 -32t-36.5 -49t-11 -62.5q0 -78 50 -115t138 -37h127v-42h-125z" />
    <glyph glyph-name="uni0191" unicode="&#x191;" horiz-adv-x="571" 
d="M528 750v-45h-392v-315h361v-44h-361v-382q0 -76 -26 -107t-90 -31q-19 0 -35.5 3t-26.5 7v38q11 -3 25 -5.5t34 -2.5q24 0 38.5 6.5t21.5 20t9 35t2 51.5v771h440z" />
    <glyph glyph-name="florin" unicode="&#x192;" horiz-adv-x="355" 
d="M20 505v41h103v104q0 68 35 96t92 28q30 0 55 -3.5t40 -7.5v-36q-17 3 -35.5 5t-37.5 2q-24 0 -43 -3t-32.5 -12.5t-20.5 -28.5t-7 -52v-92h167v-41h-167v-541q0 -76 -29.5 -107t-94.5 -31q-19 0 -40.5 3t-31.5 7v38q11 -3 30 -5.5t39 -2.5q49 0 65 26t16 87v526h-103z
" />
    <glyph glyph-name="uni0193" unicode="&#x193;" horiz-adv-x="673" 
d="M478.5 712q-44.5 5 -103.5 5q-81 0 -132.5 -19.5t-81 -55t-41 -85.5t-11.5 -110v-140q0 -53 10.5 -102t40 -87.5t83.5 -61.5t141 -23q48 0 92.5 4.5t83.5 15.5v297h-201v43h249v-370q-47 -18 -109 -25.5t-119 -7.5q-90 0 -151.5 22.5t-98.5 63.5t-53 99t-16 130v130
q0 81 16.5 142t54 101.5t97.5 61t147 20.5q81 0 138 -12v24q0 76 27.5 106.5t90.5 30.5q19 0 35.5 -3t26.5 -7v-38q-11 3 -25 5.5t-34 2.5q-24 0 -39 -6.5t-23 -20t-10.5 -35t-2.5 -51.5v-60q-37 11 -81.5 16z" />
    <glyph glyph-name="uni0194" unicode="&#x194;" horiz-adv-x="592" 
d="M134 123q0 18 5 35.5t12.5 33.5t16.5 30t16 25l83 127l-241 376h52l215 -336l220 336h53l-247 -376l82 -126q27 -43 40.5 -70.5t14.5 -55.5v-13q0 -57 -46 -88t-118 -31q-40 0 -70 10t-49.5 27t-29 39t-9.5 47v10zM293 334l-75 -114q-22 -33 -29.5 -54t-7.5 -48v-6
q0 -21 10 -36.5t25.5 -25.5t35.5 -14.5t40 -4.5q23 0 44.5 4.5t37.5 14.5t25.5 25.5t9.5 36.5v6q0 13 -2.5 24.5t-8 22.5t-13.5 24t-19 31z" />
    <glyph glyph-name="uni0195" unicode="&#x195;" horiz-adv-x="916" 
d="M842 157q0 -78 -52 -122.5t-148 -44.5q-100 0 -150 44.5t-50 122.5v221q0 29 -3 54.5t-14.5 44.5t-34 30t-60.5 11q-44 0 -99 -20.5t-106 -55.5v-442h-46v757l46 17v-290q20 13 44.5 27t52 24.5t56 17.5t56.5 7q83 0 118.5 -42t35.5 -119v-240q0 -60 35 -93.5t119 -33.5
q77 0 115.5 34.5t38.5 92.5v387h46v-389z" />
    <glyph glyph-name="uni0196" unicode="&#x196;" horiz-adv-x="294" 
d="M281 8q-19 -8 -44.5 -13t-51.5 -5q-64 0 -90 32t-26 100v635l46 17v-638q0 -33 4 -54t13 -32t24.5 -15t38.5 -4q21 0 43.5 4t42.5 13v-40z" />
    <glyph glyph-name="uni0197" unicode="&#x197;" horiz-adv-x="224" 
d="M136 412h138v-45h-138v-367h-48v367h-138v45h138v338h48v-338z" />
    <glyph glyph-name="uni0198" unicode="&#x198;" horiz-adv-x="630" 
d="M609 714q-10 5 -26 5q-18 0 -28.5 -8.5t-24.5 -26.5l-226 -308l308 -376h-62l-290 357h-124v-357h-48v750h48v-349h132l226 306q23 31 40.5 42t39.5 11q20 0 35 -6v-40z" />
    <glyph glyph-name="uni0199" unicode="&#x199;" horiz-adv-x="505" 
d="M223 322l194 224h55l-217 -246l225 -300h-56l-206 282h-93v-282h-46v636q0 38 6 64t19.5 42.5t36 24t54.5 7.5q19 0 35.5 -3t26.5 -7v-38q-11 3 -25 5.5t-34 2.5q-23 0 -37.5 -5.5t-22.5 -18t-10.5 -32t-2.5 -46.5v-310h98z" />
    <glyph glyph-name="uni019A" unicode="&#x19a;" horiz-adv-x="352" 
d="M24 419h129v338l46 17v-355h129v-45h-129v-374h-46v374h-129v45z" />
    <glyph glyph-name="uni019B" unicode="&#x19b;" horiz-adv-x="530" 
d="M59 525l168 77l-37 97q-8 20 -18.5 28.5t-32.5 8.5q-19 0 -35.5 -6.5t-21.5 -8.5v38q12 6 28.5 10.5t32.5 4.5q59 0 81 -53l40 -102l155 71v-38l-142 -65l233 -587h-47l-131 340q-9 22 -16 40t-14 37t-15 40t-17 48q-10 -27 -17.5 -48t-15 -40t-14.5 -37t-16 -40
l-138 -340h-49l228 546l-9 23l-180 -82v38z" />
    <glyph glyph-name="uni019C" unicode="&#x19c;" horiz-adv-x="968" 
d="M126 750v-587q0 -29 6 -53t20 -41.5t38.5 -27t61.5 -9.5q55 0 104.5 18t104.5 60q-4 19 -4 46v594h46v-587q0 -26 5 -50t19 -42t38.5 -28.5t63.5 -10.5q48 0 99.5 18t105.5 58v642h46v-750h-39l-6 65q-42 -31 -95 -53t-111 -22q-60 0 -99 21.5t-57 61.5
q-46 -35 -100.5 -59t-120.5 -24q-85 0 -128.5 43.5t-43.5 122.5v594h46z" />
    <glyph glyph-name="uni019D" unicode="&#x19d;" horiz-adv-x="714" 
d="M626 0h-54l-343 529q-25 39 -47.5 75.5t-45.5 81.5v-722q0 -76 -26 -107t-90 -31q-19 0 -35.5 3t-26.5 7v38q11 -3 25 -5.5t34 -2.5q24 0 38.5 6.5t21.5 20t9 35t2 51.5v771h54l344 -529q15 -23 26.5 -41t22 -36t21 -37t22.5 -42v685h48v-750z" />
    <glyph glyph-name="uni019E" unicode="&#x19e;" 
d="M454 -216v593q0 29 -4 55t-16.5 45t-36 30t-62.5 11q-45 0 -101.5 -20.5t-108.5 -55.5v-442h-46v546h39l6 -63q20 13 45 27t53 25t57.5 18t58.5 7q87 0 124.5 -41.5t37.5 -119.5v-615h-46z" />
    <glyph glyph-name="uni019F" unicode="&#x19f;" horiz-adv-x="738" 
d="M680 318q0 -162 -80.5 -246t-230.5 -84t-230.5 84t-80.5 246v114q0 161 80.5 245.5t230.5 84.5t230.5 -84.5t80.5 -245.5v-114zM632 358h-526v-34q0 -148 67.5 -220t195.5 -72t195.5 72t67.5 220v34zM106 400h526v26q0 147 -66 219.5t-197 72.5t-197 -72.5t-66 -219.5
v-26z" />
    <glyph glyph-name="Ohorn" unicode="&#x1a0;" horiz-adv-x="778" 
d="M680 318q0 -162 -80.5 -246t-230.5 -84t-230.5 84t-80.5 246v114q0 161 80.5 245.5t230.5 84.5q174 0 253 -113h23q30 0 50.5 3.5t33 13t17.5 27t5 46.5q0 20 -2.5 34t-5.5 25h45q5 -16 7.5 -33.5t2.5 -40.5q0 -68 -35 -93.5t-111 -25.5h-5q16 -36 24.5 -79t8.5 -94v-114
zM632 426q0 147 -66 219.5t-197 72.5t-197 -72.5t-66 -219.5v-102q0 -148 67.5 -220t195.5 -72t195.5 72t67.5 220v102z" />
    <glyph glyph-name="ohorn" unicode="&#x1a1;" horiz-adv-x="637" 
d="M534 242q0 -121 -62.5 -186.5t-177.5 -65.5t-177 65.5t-62 186.5v66q0 121 62 186.5t177 65.5q77 0 130.5 -29.5t81.5 -86.5q27 0 45 2.5t29 11.5t16 26t5 46q0 17 -2 32.5t-4 26.5h44q8 -34 8 -74q0 -65 -32.5 -89t-92.5 -26q12 -42 12 -92v-66zM488 310
q0 102 -50 155.5t-144 53.5t-143.5 -53.5t-49.5 -155.5v-70q0 -99 48 -154t145 -55q98 0 146 55t48 154v70z" />
    <glyph glyph-name="uni01A2" unicode="&#x1a2;" horiz-adv-x="1032" 
d="M680 318q0 -162 -80.5 -246t-230.5 -84t-230.5 84t-80.5 246v114q0 161 80.5 245.5t230.5 84.5q125 0 203 -61q30 22 75.5 41.5t112.5 19.5q87 0 137.5 -41t50.5 -121v-816h-48v807q0 28 -7.5 51.5t-24 40.5t-43.5 26t-66 9q-38 0 -79.5 -12.5t-74.5 -35.5
q75 -84 75 -238v-114zM632 426q0 147 -66 219.5t-197 72.5t-197 -72.5t-66 -219.5v-102q0 -148 67.5 -220t195.5 -72t195.5 72t67.5 220v102z" />
    <glyph glyph-name="uni01A3" unicode="&#x1a3;" horiz-adv-x="859" 
d="M534 242q0 -121 -62.5 -186.5t-177.5 -65.5t-177 65.5t-62 186.5v66q0 121 62 186.5t177 65.5q100 0 161 -52q28 22 68.5 37t88.5 15q89 0 130.5 -39t41.5 -119v-618h-46v611q0 28 -5 51t-19 39.5t-39 25t-64 8.5q-31 0 -63.5 -9.5t-63.5 -30.5q24 -32 37 -74.5t13 -96.5
v-66zM488 310q0 102 -50 155.5t-144 53.5t-143.5 -53.5t-49.5 -155.5v-70q0 -99 48 -154t145 -55q98 0 146 55t48 154v70z" />
    <glyph glyph-name="uni01A4" unicode="&#x1a4;" horiz-adv-x="740" 
d="M194 706h-29q-61 0 -87 -20.5t-26 -77.5q0 -20 2.5 -36.5t5.5 -27.5h-45q-5 16 -7.5 35.5t-2.5 39.5q0 68 38.5 99.5t114.5 31.5h303q52 0 95 -6.5t74.5 -27t49 -59.5t17.5 -103v-53q0 -60 -16.5 -96.5t-48.5 -57t-80 -27t-112 -6.5h-198v-314h-48v706zM242 706v-348h193
q57 0 98 5t66.5 20t37.5 42t12 71v69q0 43 -11 70t-33.5 43t-58 22t-83.5 6h-221z" />
    <glyph glyph-name="uni01A5" unicode="&#x1a5;" horiz-adv-x="586" 
d="M79 636q0 38 6 64t19.5 42.5t36 24t54.5 7.5q19 0 35.5 -3t26.5 -7v-38q-11 3 -25 5.5t-34 2.5q-23 0 -37.5 -5.5t-22.5 -18t-10.5 -32t-2.5 -46.5v-148q16 10 39.5 23.5t52 25t61.5 19.5t69 8q85 0 132 -48t47 -130v-175q0 -62 -15.5 -104t-44.5 -67.5t-70.5 -36
t-93.5 -10.5q-42 0 -88.5 10t-88.5 27v-242h-46v852zM125 66q42 -19 88 -28t88 -9q94 0 136.5 43t42.5 144v146q0 45 -10 75t-29 48.5t-46 26t-61 7.5q-24 0 -51.5 -6.5t-55 -17.5t-54 -25t-48.5 -30v-374z" />
    <glyph glyph-name="uni01A6" unicode="&#x1a6;" horiz-adv-x="660" 
d="M88 750h48v-106h220q51 0 94.5 -6.5t75 -26.5t49 -58t17.5 -101v-51q0 -46 -10 -77.5t-30 -52.5t-49 -32t-68 -16l184 -329h-54l-179 324h-250v-218h-48v750zM136 600v-339h193q57 0 98 5.5t67 20t38 41t12 68.5v62q0 42 -10.5 69.5t-33 43.5t-58 22.5t-85.5 6.5h-221z
" />
    <glyph glyph-name="uni01A7" unicode="&#x1a7;" horiz-adv-x="593" 
d="M53 208q0 39 8.5 67t29 48.5t54.5 35.5t86 29l120 32q71 19 99.5 52t28.5 92q0 46 -12 75.5t-36.5 47t-62 24t-88.5 6.5q-41 0 -87.5 -4.5t-88.5 -15.5v40q80 23 183 23q124 0 181.5 -46.5t57.5 -149.5q0 -77 -35.5 -120.5t-121.5 -66.5l-124 -33q-42 -11 -69.5 -22
t-44 -26.5t-23.5 -38t-7 -56.5q0 -91 50.5 -129t148.5 -38q48 0 105 7.5t125 32.5v-47q-58 -21 -116 -29t-112 -8q-77 0 -125.5 17t-76 46.5t-37.5 69t-10 85.5z" />
    <glyph glyph-name="uni01A8" unicode="&#x1a8;" horiz-adv-x="463" 
d="M40 149q0 30 6 52.5t23.5 40t47.5 31t78 24.5l51 12q41 10 65 20.5t36 24t15 29.5t3 37q0 49 -33 74.5t-114 25.5q-42 0 -74.5 -5t-67.5 -14v38q28 10 66 15.5t80 5.5t76.5 -8t59 -25t38.5 -44t14 -65q0 -29 -6 -51.5t-22 -40t-44 -31.5t-72 -24l-51 -12
q-47 -11 -72.5 -22t-38.5 -24.5t-15.5 -30t-2.5 -37.5q0 -24 7 -45t24 -36.5t47 -24t75 -8.5q35 0 79 6.5t95 25.5v-43q-21 -9 -46 -14.5t-49 -9t-45.5 -5t-36.5 -1.5q-57 0 -94.5 12t-60 33.5t-32 50.5t-9.5 63z" />
    <glyph glyph-name="uni01A9" unicode="&#x1a9;" horiz-adv-x="581" 
d="M526 750v-45h-382l251 -333l-253 -321h392v-51h-465v36l265 336l-265 351v27h457z" />
    <glyph glyph-name="uni01AA" unicode="&#x1aa;" horiz-adv-x="454" 
d="M143 519q-29 0 -52.5 10t-40 27.5t-25.5 40t-9 48.5q0 25 9 47.5t25.5 39.5t40 27t52.5 10q28 0 51.5 -10t40.5 -27t26.5 -39t9.5 -47v-1v-5v-661q0 -33 4.5 -55t14 -34.5t25.5 -17.5t39 -5q21 0 43.5 4t42.5 13v-40q-19 -8 -44.5 -13t-51.5 -5q-64 0 -91.5 35.5
t-27.5 103.5v581q-35 -27 -82 -27zM143 561q38 0 59 22t21 62q0 38 -21 61.5t-59 23.5q-37 0 -58.5 -23.5t-21.5 -61.5q0 -40 21.5 -62t58.5 -22z" />
    <glyph glyph-name="uni01AB" unicode="&#x1ab;" horiz-adv-x="388" 
d="M167 505v-369q0 -33 4.5 -54t15 -32t27.5 -15t41 -4t50 5.5t47 17.5v-27h10v-67q0 -38 -10.5 -63.5t-29 -41t-44.5 -22t-56 -6.5q-26 0 -50 3.5t-34 7.5v40q24 -6 44 -8t40 -2q24 0 42.5 4.5t30.5 16t18 31t6 48.5v32q-18 -5 -38 -7.5t-40 -2.5q-68 0 -94 32t-26 100v383
h-101v41h101v132l46 18v-150h183v-41h-183z" />
    <glyph glyph-name="uni01AC" unicode="&#x1ac;" horiz-adv-x="645" 
d="M604 705h-258v-705h-48v705h-132q-61 0 -86 -20t-25 -77q0 -20 2.5 -36.5t5.5 -27.5h-45q-5 16 -7.5 36t-2.5 43q0 68 37.5 97.5t113.5 29.5h445v-45z" />
    <glyph glyph-name="uni01AD" unicode="&#x1ad;" horiz-adv-x="398" 
d="M131 546v90q0 76 30.5 107t95.5 31q19 0 39 -3t30 -7v-38q-11 3 -28.5 5.5t-37.5 2.5q-47 0 -65 -23.5t-18 -78.5v-86h183v-41h-183v-369q0 -33 4.5 -54t15 -32t27.5 -15t41 -4t50 5.5t47 17.5v-40q-18 -11 -49 -17.5t-62 -6.5q-68 0 -94 32t-26 100v383h-101v41h101z
" />
    <glyph glyph-name="uni01AE" unicode="&#x1ae;" horiz-adv-x="645" 
d="M41 750h563v-45h-258v-726q0 -30 2 -51.5t9 -35t21.5 -20t38.5 -6.5q20 0 34 2.5t25 5.5v-38q-10 -4 -26.5 -7t-35.5 -3q-32 0 -54.5 7.5t-36 24t-19.5 42.5t-6 64v741h-257v45z" />
    <glyph glyph-name="Uhorn" unicode="&#x1af;" horiz-adv-x="802" 
d="M131 750v-469q0 -131 55.5 -190t176.5 -59q124 0 179 59t55 190v469h48v-101h24q30 0 50.5 3.5t33 13t17.5 27t5 46.5q0 20 -2.5 34t-5.5 25h45q5 -16 7.5 -33.5t2.5 -40.5q0 -68 -35 -93.5t-111 -25.5h-31v-328q0 -147 -67.5 -218.5t-214.5 -71.5t-213.5 71.5
t-66.5 218.5v473h48z" />
    <glyph glyph-name="uhorn" unicode="&#x1b0;" horiz-adv-x="637" 
d="M120 546v-391q0 -28 5 -50.5t18 -38.5t35 -25t56 -9q50 0 108.5 21t106.5 55v438h46v-102h10q27 0 45.5 2.5t29.5 11.5t16 26t5 46q0 17 -2 32.5t-4 26.5h44q8 -34 8 -74q0 -34 -9 -56t-26.5 -35t-42.5 -18.5t-58 -5.5h-16v-400h-39l-6 67q-20 -14 -46 -27.5t-54.5 -24.5
t-59 -18t-60.5 -7q-86 0 -121 39.5t-35 117.5v399h46z" />
    <glyph glyph-name="uni01B1" unicode="&#x1b1;" horiz-adv-x="784" 
d="M16 750h293l-1 -1h1v-38q-85 -20 -133 -90.5t-48 -193.5v-104q0 -148 67.5 -220t195.5 -72t195.5 72t67.5 220v104q0 122 -47.5 193t-131.5 91v37l1 -1l-1 3h293v-46h-185q57 -39 88 -106t31 -165v-116q0 -162 -80.5 -246t-230.5 -84t-230.5 84t-80.5 246v116
q0 97 31 164.5t88 106.5h-183v46z" />
    <glyph glyph-name="uni01B2" unicode="&#x1b2;" horiz-adv-x="611" 
d="M535 589q9 24 13 39.5t4 32.5q0 59 -63 59q-14 0 -31.5 -2t-39.5 -9v41q34 12 74 12q51 0 79.5 -26.5t28.5 -70.5q0 -20 -5 -40.5t-17 -51.5l-220 -573h-48l-297 750h54l209 -538q8 -21 14.5 -39t13.5 -36.5t14 -39.5t16 -46q9 25 16 46t13.5 39.5t13 36.5t14.5 39z" />
    <glyph glyph-name="uni01B3" unicode="&#x1b3;" horiz-adv-x="688" 
d="M585 762q98 0 98 -117q0 -20 -2.5 -38.5t-7.5 -34.5h-44q3 11 5.5 26.5t2.5 35.5q0 43 -10 65.5t-40 22.5q-20 0 -32 -9.5t-23 -29.5l-208 -373v-310h-48v308l-263 442h54l173 -298q8 -14 15 -25.5t14 -23.5t14.5 -26t17.5 -32l16 32l13.5 27t13.5 26.5t17 31.5l133 243
q19 34 41 45.5t50 11.5z" />
    <glyph glyph-name="uni01B4" unicode="&#x1b4;" horiz-adv-x="551" 
d="M209 -213h-47l83 213l-225 546h49l136 -340q9 -22 16 -40t14.5 -37t15 -40t17.5 -48l17.5 49t14.5 39.5t14 36.5t15 40l190 508q12 32 33 46t48 14q11 0 23 -2t20 -5v-40q-7 3 -16.5 4.5t-17.5 1.5q-20 0 -32.5 -9t-20.5 -30z" />
    <glyph glyph-name="uni01B5" unicode="&#x1b5;" horiz-adv-x="616" 
d="M351 412h182v-44h-213l-146 -210q-10 -14 -19 -26.5t-19 -26t-21 -28.5t-24 -33h482v-44h-538v37l231 331h-193v44h223l126 180l82 114h-454v44h511v-37z" />
    <glyph glyph-name="uni01B6" unicode="&#x1b6;" horiz-adv-x="474" 
d="M281 304h125v-39h-154l-85 -117q-11 -15 -20.5 -28l-19 -26t-19.5 -26t-22 -29h363v-39h-419v32l171 233h-130v39h158l87 118q19 26 34 46.5t31 38.5h-340v39h394v-32z" />
    <glyph glyph-name="uni01B7" unicode="&#x1b7;" horiz-adv-x="682" 
d="M533 706h-454v44h514v-36l-288 -386q86 5 146.5 -9.5t98.5 -44.5t55 -73.5t17 -96.5v-63q0 -57 -17.5 -105.5t-55 -83.5t-96.5 -55t-143 -20q-87 0 -153.5 14.5t-111.5 31.5v43q53 -19 115.5 -32t147.5 -13q266 0 266 226v47q0 100 -55.5 146t-181.5 46q-28 0 -50 -1.5
t-51 -5.5l-3 26z" />
    <glyph glyph-name="uni01B8" unicode="&#x1b8;" horiz-adv-x="682" 
d="M449 305l-3 -26q-29 4 -51 5.5t-50 1.5q-126 0 -181.5 -46t-55.5 -146v-47q0 -226 266 -226q85 0 147.5 13t115.5 32v-43q-45 -17 -111.5 -31.5t-153.5 -14.5q-84 0 -143.5 20t-97 55t-54.5 83.5t-17 105.5v63q0 53 17 96.5t55 73.5t98.5 44.5t146.5 9.5l-288 386v36h514
v-44h-454z" />
    <glyph glyph-name="uni01B9" unicode="&#x1b9;" horiz-adv-x="553" 
d="M397 202l-8 -24q-29 4 -49.5 5t-48.5 1q-55 0 -92.5 -10.5t-60 -30t-32.5 -48.5t-10 -65v-33q0 -57 21.5 -91.5t54.5 -54t72.5 -26t75.5 -6.5q54 0 102.5 9.5t95.5 26.5v-41q-20 -9 -45.5 -15.5t-52 -11.5t-53 -7.5t-49.5 -2.5q-56 0 -105 12t-85 38t-57 66.5t-21 97.5
v49q0 33 11 68.5t41 63t84.5 43t141.5 9.5l-226 286v36h407v-39h-352z" />
    <glyph glyph-name="uni01BA" unicode="&#x1ba;" horiz-adv-x="528" 
d="M47 -93q0 27 8.5 48t29.5 37t57 27.5t91 20.5q66 10 107 22.5t64.5 28.5t31.5 36.5t8 46.5q0 60 -48.5 80.5t-142.5 20.5q-28 0 -48.5 -1.5t-49.5 -5.5l-8 25l231 214h-343v39h402v-36l-216 -199q139 6 203.5 -25t64.5 -112q0 -36 -13 -64.5t-41.5 -50t-75.5 -36.5
t-114 -24q-48 -7 -78 -16t-46.5 -20t-22 -25t-5.5 -30q0 -47 44 -67.5t115 -20.5q54 0 99 9.5t92 26.5v-41q-41 -17 -94 -27t-99 -10q-59 0 -98 12t-62 31t-33 42t-10 44z" />
    <glyph glyph-name="uni01BB" unicode="&#x1bb;" horiz-adv-x="630" 
d="M100 365h287l29 30q25 27 41.5 47.5t26 37.5t13 33t3.5 34v25q0 31 -10 56.5t-33 43.5t-61 28t-94 10q-53 0 -106 -12t-95 -30v45q19 8 43.5 15.5t51 13.5t53.5 9.5t52 3.5q124 0 185.5 -46.5t61.5 -134.5v-29q0 -17 -2.5 -34t-12.5 -38t-29 -47t-52 -61h108v-44h-150
l-264 -275h430v-46h-498v41l267 280h-245v44z" />
    <glyph glyph-name="uni01BC" unicode="&#x1bc;" horiz-adv-x="639" 
d="M45 745h490v-44h-328l-36 -278q38 9 73 13t70 4q66 0 113.5 -12.5t78 -36.5t45 -58t14.5 -77v-57q0 -102 -67.5 -155.5t-193.5 -53.5q-72 0 -126 11.5t-91 25.5v45q44 -16 97 -27t119 -11q57 0 97.5 12.5t66.5 35t38 53.5t12 67v43q0 35 -10 63.5t-34.5 48t-65 30
t-101.5 10.5q-43 0 -93 -7.5t-91 -18.5l41 330h-118v44z" />
    <glyph glyph-name="uni01BD" unicode="&#x1bd;" horiz-adv-x="462" 
d="M32 546h379v-40h-246l-21 -184q26 6 50.5 9.5t59.5 3.5q82 0 125 -34t43 -97v-55q0 -72 -46.5 -115.5t-142.5 -43.5q-56 0 -98.5 10t-70.5 22v41q39 -15 78 -23.5t90 -8.5q31 0 58 6t46.5 20t30.5 37t11 58v42q0 51 -29 76.5t-103 25.5q-41 0 -75 -5t-74 -18l27 233h-92
v40z" />
    <glyph glyph-name="uni01BE" unicode="&#x1be;" horiz-adv-x="511" 
d="M255 494q0 -20 3 -35.5t13 -29.5t27.5 -29t46.5 -35q25 -17 47 -34.5t38.5 -39t26 -49.5t9.5 -66q0 -45 -11.5 -79.5t-38 -58.5t-69 -36.5t-104.5 -12.5q-57 0 -104 12t-82 28v44q42 -17 88 -28t94 -11q58 0 93 10.5t54.5 29.5t26 45t6.5 57q0 27 -6.5 48.5t-19 39
t-31 33t-41.5 30.5q-35 23 -56.5 41.5t-34 37t-17 39t-4.5 47.5v13h-147v41h147v132l46 18v-150h175v-41h-175v-11z" />
    <glyph glyph-name="uni01BF" unicode="&#x1bf;" horiz-adv-x="586" 
d="M79 546h39l6 -62q16 10 39.5 23.5t52.5 25t62 19.5t69 8q85 0 132 -48t47 -130v-114q0 -63 -16 -107t-44.5 -74t-67 -47.5t-83 -27.5t-93.5 -14.5t-97 -7.5v-206h-46v762zM125 31q80 7 145.5 15.5t112 32.5t72 70t25.5 128v85q0 45 -10 75t-29 48.5t-46 26t-61 7.5
q-24 0 -51.5 -6.5t-55 -17.5t-54 -25t-48.5 -30v-409z" />
    <glyph glyph-name="uni01C0" unicode="&#x1c0;" horiz-adv-x="206" 
d="M127 -216h-48v990h48v-990z" />
    <glyph glyph-name="uni01C1" unicode="&#x1c1;" horiz-adv-x="358" 
d="M127 -216h-48v990h48v-990zM279 -216h-48v990h48v-990z" />
    <glyph glyph-name="uni01C2" unicode="&#x1c2;" horiz-adv-x="316" 
d="M182 399h124v-39h-124v-130h124v-39h-124v-407h-48v407h-124v39h124v130h-124v39h124v375h48v-375z" />
    <glyph glyph-name="uni01C3" unicode="&#x1c3;" horiz-adv-x="267" 
d="M152 185h-38l-10 565h58zM101 77h65v-77h-65v77z" />
    <glyph glyph-name="uni01C4" unicode="&#x1c4;" horiz-adv-x="1281" 
d="M88 0v750h235q79 0 138.5 -13.5t99.5 -48t60 -94.5t20 -154v-137q0 -81 -13.5 -138.5t-49 -94t-96 -53.5t-154.5 -17h-240zM136 705v-660h187q84 0 136.5 15t82.5 46t40.5 78.5t10.5 111.5v154q0 73 -15 122t-47.5 78.5t-82.5 42t-120 12.5h-192zM839 158
q-10 -14 -19 -26.5t-19 -26t-21 -28.5t-24 -33h482v-44h-538v37l387 555l82 114h-454v44h511v-37zM857 944h46l79 -110l79 110h45l-100 -148h-49z" />
    <glyph glyph-name="uni01C5" unicode="&#x1c5;" horiz-adv-x="1166" 
d="M88 0v750h235q79 0 138.5 -13.5t99.5 -48t60 -94.5t20 -154v-137q0 -81 -13.5 -138.5t-49 -94t-96 -53.5t-154.5 -17h-240zM136 705v-660h187q84 0 136.5 15t82.5 46t40.5 78.5t10.5 111.5v154q0 73 -15 122t-47.5 78.5t-82.5 42t-120 12.5h-192zM859 148
q-11 -15 -20.5 -28l-19 -26t-19.5 -26t-22 -29h363v-39h-419v32l286 390q19 26 34 46.5t31 38.5h-340v39h394v-32zM819 744h46l79 -110l79 110h45l-100 -148h-49z" />
    <glyph glyph-name="uni01C6" unicode="&#x1c6;" horiz-adv-x="1060" 
d="M237 -10q-91 0 -134 48.5t-43 130.5v169q0 60 15 102t43.5 69t69 39t90.5 12q22 0 48 -3.5t51.5 -9t47.5 -13t36 -16.5v239l46 17v-774h-39l-7 64q-17 -12 -40 -25t-51.5 -24t-61.5 -18t-71 -7zM461 478q-14 8 -34.5 15.5t-44.5 13t-49.5 9t-47.5 3.5q-91 0 -135 -41.5
t-44 -144.5v-145q0 -45 8 -75t25.5 -48.5t44 -26.5t62.5 -8q30 0 59.5 6t57.5 16.5t53 24t45 28.5v373zM753 148q-11 -15 -20.5 -28l-19 -26t-19.5 -26t-22 -29h363v-39h-419v32l286 390q19 26 34 46.5t31 38.5h-340v39h394v-32zM713 744h46l79 -110l79 110h45l-100 -148
h-49z" />
    <glyph glyph-name="uni01C7" unicode="&#x1c7;" horiz-adv-x="971" 
d="M136 750v-705h397v-45h-445v750h48zM888 750v-584q0 -99 -43.5 -137.5t-130.5 -38.5q-33 0 -66 5t-52 10v45q31 -8 58 -11.5t59 -3.5q72 0 99.5 31.5t27.5 104.5v579h48z" />
    <glyph glyph-name="uni01C8" unicode="&#x1c8;" horiz-adv-x="791" 
d="M136 750v-705h397v-45h-445v750h48zM710 -101q0 -58 -27 -88t-89 -30q-23 0 -47 3t-44 8v41q19 -4 40.5 -7t47.5 -3q40 0 56.5 18t16.5 60v645h46v-647zM712 675h-50v70h50v-70z" />
    <glyph glyph-name="uni01C9" unicode="&#x1c9;" horiz-adv-x="422" 
d="M79 0v757l46 17v-774h-46zM341 -101q0 -58 -27 -88t-89 -30q-23 0 -47 3t-44 8v41q19 -4 40.5 -7t47.5 -3q40 0 56.5 18t16.5 60v645h46v-647zM343 675h-50v70h50v-70z" />
    <glyph glyph-name="uni01CA" unicode="&#x1ca;" horiz-adv-x="1112" 
d="M626 0h-54l-343 529q-25 39 -47.5 75.5t-45.5 81.5v-686h-48v750h54l344 -529q15 -23 26.5 -41t22 -36t21 -37t22.5 -42v685h48v-750zM1029 750v-584q0 -99 -43.5 -137.5t-130.5 -38.5q-33 0 -66 5t-52 10v45q31 -8 58 -11.5t59 -3.5q72 0 99.5 31.5t27.5 104.5v579h48z
" />
    <glyph glyph-name="uni01CB" unicode="&#x1cb;" horiz-adv-x="932" 
d="M626 0h-54l-343 529q-25 39 -47.5 75.5t-45.5 81.5v-686h-48v750h54l344 -529q15 -23 26.5 -41t22 -36t21 -37t22.5 -42v685h48v-750zM851 -101q0 -58 -27 -88t-89 -30q-23 0 -47 3t-44 8v41q19 -4 40.5 -7t47.5 -3q40 0 56.5 18t16.5 60v645h46v-647zM853 675h-50v70h50
v-70z" />
    <glyph glyph-name="uni01CC" unicode="&#x1cc;" horiz-adv-x="792" 
d="M454 0v377q0 29 -4 55t-16.5 45t-36 30t-62.5 11q-45 0 -101.5 -20.5t-108.5 -55.5v-442h-46v546h39l6 -63q20 13 45 27t53 25t57.5 18t58.5 7q87 0 124.5 -41.5t37.5 -119.5v-399h-46zM711 -101q0 -58 -27 -88t-89 -30q-23 0 -47 3t-44 8v41q19 -4 40.5 -7t47.5 -3
q40 0 56.5 18t16.5 60v645h46v-647zM713 675h-50v70h50v-70z" />
    <glyph glyph-name="uni01CD" unicode="&#x1cd;" horiz-adv-x="670" 
d="M657 0h-52l-92 231h-361l-89 -231h-50l291 750h47zM495 275l-108 270q-9 21 -15.5 39t-13 35.5t-14 37t-16.5 44.5q-9 -25 -15.5 -44.5t-13 -37.5t-13.5 -36t-15 -40l-101 -268h325zM204 944h46l79 -110l79 110h45l-100 -148h-49z" />
    <glyph glyph-name="uni01CE" unicode="&#x1ce;" horiz-adv-x="529" 
d="M418 0l-3 68q-17 -12 -40 -25.5t-51.5 -25t-60.5 -19.5t-67 -8q-74 0 -112.5 37t-38.5 118v22q0 48 17 77.5t47.5 46t73 22t92.5 5.5h136v55q0 32 -3.5 58.5t-17.5 46t-42 30.5t-77 11q-38 0 -81 -7.5t-84 -23.5v42q42 16 84.5 23t82.5 7q60 0 96 -14t55.5 -39t26 -58.5
t6.5 -73.5v-375h-39zM411 279h-136q-45 0 -79.5 -4.5t-57.5 -17t-34.5 -35t-11.5 -57.5v-17q0 -118 104 -118q62 0 118 22.5t97 51.5v175zM153 744h46l79 -110l79 110h45l-100 -148h-49z" />
    <glyph glyph-name="uni01CF" unicode="&#x1cf;" horiz-adv-x="224" 
d="M136 0h-48v750h48v-750zM-12 944h46l79 -110l79 110h45l-100 -148h-49z" />
    <glyph glyph-name="uni01D0" unicode="&#x1d0;" horiz-adv-x="208" 
d="M81 0v546h46v-546h-46zM-20 744h46l79 -110l79 110h45l-100 -148h-49z" />
    <glyph glyph-name="uni01D1" unicode="&#x1d1;" horiz-adv-x="738" 
d="M680 318q0 -162 -80.5 -246t-230.5 -84t-230.5 84t-80.5 246v114q0 161 80.5 245.5t230.5 84.5t230.5 -84.5t80.5 -245.5v-114zM632 426q0 147 -66 219.5t-197 72.5t-197 -72.5t-66 -219.5v-102q0 -148 67.5 -220t195.5 -72t195.5 72t67.5 220v102zM244 944h46l79 -110
l79 110h45l-100 -148h-49z" />
    <glyph glyph-name="uni01D2" unicode="&#x1d2;" horiz-adv-x="589" 
d="M534 242q0 -121 -62.5 -186.5t-177.5 -65.5t-177 65.5t-62 186.5v66q0 121 62 186.5t177 65.5t177.5 -65.5t62.5 -186.5v-66zM488 310q0 102 -50 155.5t-144 53.5t-143.5 -53.5t-49.5 -155.5v-70q0 -99 48 -154t145 -55q98 0 146 55t48 154v70zM170 744h46l79 -110
l79 110h45l-100 -148h-49z" />
    <glyph glyph-name="uni01D3" unicode="&#x1d3;" horiz-adv-x="728" 
d="M131 750v-469q0 -131 55.5 -190t176.5 -59q124 0 179 59t55 190v469h48v-473q0 -147 -67.5 -218.5t-214.5 -71.5t-213.5 71.5t-66.5 218.5v473h48zM239 944h46l79 -110l79 110h45l-100 -148h-49z" />
    <glyph glyph-name="uni01D4" unicode="&#x1d4;" 
d="M120 546v-391q0 -28 5 -50.5t18 -38.5t35 -25t56 -9q50 0 108.5 21t106.5 55v438h46v-546h-39l-6 67q-20 -14 -46 -27.5t-54.5 -24.5t-59 -18t-60.5 -7q-86 0 -121 39.5t-35 117.5v399h46zM168 744h46l79 -110l79 110h45l-100 -148h-49z" />
    <glyph glyph-name="uni01D5" unicode="&#x1d5;" horiz-adv-x="728" 
d="M131 750v-469q0 -131 55.5 -190t176.5 -59q124 0 179 59t55 190v469h48v-473q0 -147 -67.5 -218.5t-214.5 -71.5t-213.5 71.5t-66.5 218.5v473h48zM247 894h66v-83h-66v83zM416 894h66v-83h-66v83zM233 1011h262v-40h-262v40z" />
    <glyph glyph-name="uni01D6" unicode="&#x1d6;" 
d="M120 546v-391q0 -28 5 -50.5t18 -38.5t35 -25t56 -9q50 0 108.5 21t106.5 55v438h46v-546h-39l-6 67q-20 -14 -46 -27.5t-54.5 -24.5t-59 -18t-60.5 -7q-86 0 -121 39.5t-35 117.5v399h46zM170 694h66v-83h-66v83zM339 694h66v-83h-66v83zM156 804h262v-40h-262v40z" />
    <glyph glyph-name="uni01D7" unicode="&#x1d7;" horiz-adv-x="728" 
d="M131 750v-469q0 -131 55.5 -190t176.5 -59q124 0 179 59t55 190v469h48v-473q0 -147 -67.5 -218.5t-214.5 -71.5t-213.5 71.5t-66.5 218.5v473h48zM426 1059h63l-108 -134h-49zM247 894h66v-83h-66v83zM416 894h66v-83h-66v83z" />
    <glyph glyph-name="uni01D8" unicode="&#x1d8;" 
d="M120 546v-391q0 -28 5 -50.5t18 -38.5t35 -25t56 -9q50 0 108.5 21t106.5 55v438h46v-546h-39l-6 67q-20 -14 -46 -27.5t-54.5 -24.5t-59 -18t-60.5 -7q-86 0 -121 39.5t-35 117.5v399h46zM343 861h63l-108 -134h-49zM170 694h66v-83h-66v83zM339 694h66v-83h-66v83z" />
    <glyph glyph-name="uni01D9" unicode="&#x1d9;" horiz-adv-x="728" 
d="M131 750v-469q0 -131 55.5 -190t176.5 -59q124 0 179 59t55 190v469h48v-473q0 -147 -67.5 -218.5t-214.5 -71.5t-213.5 71.5t-66.5 218.5v473h48zM244 1070h46l79 -110l79 110h45l-100 -148h-49zM247 894h66v-83h-66v83zM416 894h66v-83h-66v83z" />
    <glyph glyph-name="uni01DA" unicode="&#x1da;" 
d="M120 546v-391q0 -28 5 -50.5t18 -38.5t35 -25t56 -9q50 0 108.5 21t106.5 55v438h46v-546h-39l-6 67q-20 -14 -46 -27.5t-54.5 -24.5t-59 -18t-60.5 -7q-86 0 -121 39.5t-35 117.5v399h46zM163 877h46l79 -110l79 110h45l-100 -148h-49zM170 696h66v-83h-66v83zM339 696
h66v-83h-66v83z" />
    <glyph glyph-name="uni01DB" unicode="&#x1db;" horiz-adv-x="728" 
d="M131 750v-469q0 -131 55.5 -190t176.5 -59q124 0 179 59t55 190v469h48v-473q0 -147 -67.5 -218.5t-214.5 -71.5t-213.5 71.5t-66.5 218.5v473h48zM402 925h-49l-108 134h63zM247 894h66v-83h-66v83zM416 894h66v-83h-66v83z" />
    <glyph glyph-name="uni01DC" unicode="&#x1dc;" 
d="M120 546v-391q0 -28 5 -50.5t18 -38.5t35 -25t56 -9q50 0 108.5 21t106.5 55v438h46v-546h-39l-6 67q-20 -14 -46 -27.5t-54.5 -24.5t-59 -18t-60.5 -7q-86 0 -121 39.5t-35 117.5v399h46zM324 727h-49l-108 134h63zM170 694h66v-83h-66v83zM339 694h66v-83h-66v83z" />
    <glyph glyph-name="uni01DD" unicode="&#x1dd;" horiz-adv-x="548" 
d="M447 285v27q0 63 -13.5 103t-40.5 63t-68.5 32t-96.5 9q-30 0 -65 -5.5t-70 -19.5v40q32 14 72.5 20t75.5 6q68 0 116 -16t78 -48t43.5 -79t13.5 -108v-58q0 -69 -17 -118.5t-47 -81t-71.5 -46.5t-90.5 -15q-52 0 -92.5 14t-68.5 44t-42.5 78t-14.5 117v42h399zM92 244
q0 -54 9 -94t29 -66.5t53.5 -40t81.5 -13.5q87 0 134.5 53t47.5 162v3h-355v-4z" />
    <glyph glyph-name="uni01DE" unicode="&#x1de;" horiz-adv-x="670" 
d="M657 0h-52l-92 231h-361l-89 -231h-50l291 750h47zM495 275l-108 270q-9 21 -15.5 39t-13 35.5t-14 37t-16.5 44.5q-9 -25 -15.5 -44.5t-13 -37.5t-13.5 -36t-15 -40l-101 -268h325zM211 894h66v-83h-66v83zM380 894h66v-83h-66v83zM197 1011h262v-40h-262v40z" />
    <glyph glyph-name="uni01DF" unicode="&#x1df;" horiz-adv-x="529" 
d="M418 0l-3 68q-17 -12 -40 -25.5t-51.5 -25t-60.5 -19.5t-67 -8q-74 0 -112.5 37t-38.5 118v22q0 48 17 77.5t47.5 46t73 22t92.5 5.5h136v55q0 32 -3.5 58.5t-17.5 46t-42 30.5t-77 11q-38 0 -81 -7.5t-84 -23.5v42q42 16 84.5 23t82.5 7q60 0 96 -14t55.5 -39t26 -58.5
t6.5 -73.5v-375h-39zM411 279h-136q-45 0 -79.5 -4.5t-57.5 -17t-34.5 -35t-11.5 -57.5v-17q0 -118 104 -118q62 0 118 22.5t97 51.5v175zM160 694h66v-83h-66v83zM329 694h66v-83h-66v83zM146 804h262v-40h-262v40z" />
    <glyph glyph-name="uni01E0" unicode="&#x1e0;" horiz-adv-x="670" 
d="M657 0h-52l-92 231h-361l-89 -231h-50l291 750h47zM495 275l-108 270q-9 21 -15.5 39t-13 35.5t-14 37t-16.5 44.5q-9 -25 -15.5 -44.5t-13 -37.5t-13.5 -36t-15 -40l-101 -268h325zM295 902h65v-71h-65v71zM197 1011h262v-40h-262v40z" />
    <glyph glyph-name="uni01E1" unicode="&#x1e1;" horiz-adv-x="529" 
d="M418 0l-3 68q-17 -12 -40 -25.5t-51.5 -25t-60.5 -19.5t-67 -8q-74 0 -112.5 37t-38.5 118v22q0 48 17 77.5t47.5 46t73 22t92.5 5.5h136v55q0 32 -3.5 58.5t-17.5 46t-42 30.5t-77 11q-38 0 -81 -7.5t-84 -23.5v42q42 16 84.5 23t82.5 7q60 0 96 -14t55.5 -39t26 -58.5
t6.5 -73.5v-375h-39zM411 279h-136q-45 0 -79.5 -4.5t-57.5 -17t-34.5 -35t-11.5 -57.5v-17q0 -118 104 -118q62 0 118 22.5t97 51.5v175zM244 698h65v-71h-65v71zM146 804h262v-40h-262v40z" />
    <glyph glyph-name="uni01E2" unicode="&#x1e2;" horiz-adv-x="1032" 
d="M967 750v-45h-401v-292h368v-43h-368v-325h415v-45h-463v231h-298l-152 -231h-55l497 750h457zM251 275h267v418q-13 -24 -28 -48.5t-35 -56.5zM490 910h262v-40h-262v40z" />
    <glyph glyph-name="uni01E3" unicode="&#x1e3;" horiz-adv-x="884" 
d="M450 271v-46q0 -59 14.5 -96.5t41.5 -59t65.5 -30t87.5 -8.5q30 0 67.5 6.5t72.5 20.5v-40q-32 -14 -73 -21t-76 -7q-75 0 -128 22.5t-81 67.5q-19 -15 -44.5 -31t-56.5 -29t-67 -21.5t-76 -8.5q-74 0 -113 37t-39 115v18q0 79 53 113.5t167 34.5h140v65q0 32 -4 58.5
t-18 46t-42 30.5t-77 11q-78 0 -158 -31v42q42 16 81 23t79 7q42 0 72 -8t50.5 -22t33 -33.5t18.5 -42.5q29 53 77 79.5t111 26.5q105 0 162 -60.5t57 -178.5v-50h-397zM423 112q-11 26 -14.5 60.5t-3.5 72.5v24h-140q-91 0 -132 -25t-41 -86v-13q0 -58 27 -86t78 -28
q39 0 72.5 7.5t62 19.5t51.5 26.5t40 27.5zM803 320q0 98 -40.5 149t-133.5 51q-80 0 -129.5 -51t-49.5 -150v-11h353v12zM318 710h262v-40h-262v40z" />
    <glyph glyph-name="uni01E4" unicode="&#x1e4;" horiz-adv-x="671" 
d="M359 251h201v121h-201v43h249v-164h81v-43h-81v-185q-47 -18 -109 -25.5t-119 -7.5q-90 0 -151.5 22.5t-98.5 63.5t-53 99t-16 130v130q0 81 16.5 142t54 101.5t97.5 61t147 20.5q58 0 104.5 -6.5t79.5 -17.5v-40q-37 11 -81.5 16t-103.5 5q-81 0 -132.5 -19.5t-81 -55
t-41 -85.5t-11.5 -110v-140q0 -53 10.5 -102t40 -87.5t83.5 -61.5t141 -23q48 0 92.5 4.5t83.5 15.5v155h-201v43z" />
    <glyph glyph-name="uni01E5" unicode="&#x1e5;" horiz-adv-x="586" 
d="M233 17q-90 0 -131.5 48.5t-41.5 130.5v142q0 60 15 102t43.5 69t69 39t91.5 12q24 0 50 -4t51 -10.5t46.5 -15.5t35.5 -18l5 38h40v-585h85v-40h-87q-9 -72 -60.5 -110t-155.5 -38q-27 0 -64 4t-64 14v40q32 -11 66.5 -14.5t56.5 -3.5q72 0 117.5 22.5t55.5 85.5h-379
v40h382v118q-18 -12 -43 -23.5t-54 -21t-62.5 -15.5t-67.5 -6zM461 473q-14 9 -34.5 17.5t-44.5 14.5t-49 10t-48 4q-91 0 -135 -41.5t-44 -144.5v-117q0 -89 32 -124t106 -35q29 0 59 5.5t58.5 15t54 21.5t45.5 26v348z" />
    <glyph glyph-name="Gcaron" unicode="&#x1e6;" horiz-adv-x="671" 
d="M560 696q-37 11 -81.5 16t-103.5 5q-81 0 -132.5 -19.5t-81 -55t-41 -85.5t-11.5 -110v-140q0 -53 10.5 -102t40 -87.5t83.5 -61.5t141 -23q48 0 92.5 4.5t83.5 15.5v297h-201v43h249v-370q-47 -18 -109 -25.5t-119 -7.5q-90 0 -151.5 22.5t-98.5 63.5t-53 99t-16 130
v130q0 81 16.5 142t54 101.5t97.5 61t147 20.5q58 0 104.5 -6.5t79.5 -17.5v-40zM245 944h46l79 -110l79 110h45l-100 -148h-49z" />
    <glyph glyph-name="gcaron" unicode="&#x1e7;" horiz-adv-x="586" 
d="M233 -3q-90 0 -131.5 48.5t-41.5 130.5v162q0 60 15 102t43.5 69t69 39t91.5 12q24 0 50 -4t51 -10.5t46.5 -15.5t35.5 -18l5 38h40v-591q0 -88 -51 -135t-167 -47q-27 0 -64 4t-64 14v40q32 -11 66.5 -14.5t56.5 -3.5q40 0 73 6.5t55.5 22.5t35 43.5t12.5 69.5v104
q-18 -12 -43 -23.5t-54 -21t-62.5 -15.5t-67.5 -6zM461 473q-14 9 -34.5 17.5t-44.5 14.5t-49 10t-48 4q-91 0 -135 -41.5t-44 -144.5v-137q0 -89 32 -124t106 -35q29 0 59 5.5t58.5 15t54 21.5t45.5 26v368zM169 744h46l79 -110l79 110h45l-100 -148h-49z" />
    <glyph glyph-name="uni01E8" unicode="&#x1e8;" horiz-adv-x="630" 
d="M311 376l301 -376h-62l-283 357h-131v-357h-48v750h48v-349h139l253 349h55zM210 944h46l79 -110l79 110h45l-100 -148h-49z" />
    <glyph glyph-name="uni01E9" unicode="&#x1e9;" horiz-adv-x="505" 
d="M125 322h96l194 224h57l-217 -246l225 -300h-56l-207 282h-92v-282h-46v757l46 17v-452zM161 944h46l79 -110l79 110h45l-100 -148h-49z" />
    <glyph glyph-name="uni01EA" unicode="&#x1ea;" horiz-adv-x="738" 
d="M438 -222q-62 0 -94 26t-32 68v7q0 17 7.5 33t19.5 30.5t27 26.5t30 20q-7 0 -13.5 -0.5t-13.5 -0.5q-150 0 -230.5 84t-80.5 246v114q0 161 80.5 245.5t230.5 84.5t230.5 -84.5t80.5 -245.5v-114q0 -132 -53.5 -212t-155.5 -106h3q-20 -9 -39 -21t-35 -27t-25.5 -32
t-9.5 -36v-6q0 -26 17 -41t69 -15q15 0 36 2.5t32 5.5v-41q-13 -4 -33 -7.5t-48 -3.5zM632 426q0 147 -66 219.5t-197 72.5t-197 -72.5t-66 -219.5v-102q0 -148 67.5 -220t195.5 -72t195.5 72t67.5 220v102z" />
    <glyph glyph-name="uni01EB" unicode="&#x1eb;" horiz-adv-x="589" 
d="M338 -222q-62 0 -94 26t-32 68v7q0 17 7.5 33.5t20 31t28 26.5t30.5 20h-4q-115 0 -177 65.5t-62 186.5v66q0 121 62 186.5t177 65.5t177.5 -65.5t62.5 -186.5v-66q0 -98 -41.5 -160t-119.5 -82h1q-20 -9 -39 -21t-35 -27t-25.5 -32t-9.5 -36v-6q0 -26 17 -41t69 -15
q15 0 36 2.5t32 5.5v-41q-13 -4 -33 -7.5t-48 -3.5zM488 310q0 102 -50 155.5t-144 53.5t-143.5 -53.5t-49.5 -155.5v-70q0 -99 48 -154t145 -55q98 0 146 55t48 154v70z" />
    <glyph glyph-name="uni01EC" unicode="&#x1ec;" horiz-adv-x="738" 
d="M437 -222q-62 0 -94 26t-32 68v7q0 17 7.5 33t19 30.5t26.5 26.5t30 20q-6 -1 -12.5 -1h-12.5q-150 0 -230.5 84t-80.5 246v114q0 161 80.5 245.5t230.5 84.5t230.5 -84.5t80.5 -245.5v-114q0 -132 -53.5 -212t-155.5 -106h2q-20 -9 -39 -21t-35 -27t-25.5 -32t-9.5 -36
v-6q0 -26 17 -41t69 -15q15 0 36 2.5t32 5.5v-41q-13 -4 -33 -7.5t-48 -3.5zM632 426q0 147 -66 219.5t-197 72.5t-197 -72.5t-66 -219.5v-102q0 -148 67.5 -220t195.5 -72t195.5 72t67.5 220v102zM238 910h262v-40h-262v40z" />
    <glyph glyph-name="uni01ED" unicode="&#x1ed;" horiz-adv-x="589" 
d="M339 -222q-62 0 -94 26t-32 68v7q0 17 7.5 33.5t20 31t28 26.5t30.5 20h-5q-115 0 -177 65.5t-62 186.5v66q0 121 62 186.5t177 65.5t177.5 -65.5t62.5 -186.5v-66q0 -98 -41.5 -160t-119.5 -82h2q-20 -9 -39 -21t-35 -27t-25.5 -32t-9.5 -36v-6q0 -26 17 -41t69 -15
q15 0 36 2.5t32 5.5v-41q-13 -4 -33 -7.5t-48 -3.5zM488 310q0 102 -50 155.5t-144 53.5t-143.5 -53.5t-49.5 -155.5v-70q0 -99 48 -154t145 -55q98 0 146 55t48 154v70zM164 710h262v-40h-262v40z" />
    <glyph glyph-name="uni01EE" unicode="&#x1ee;" horiz-adv-x="682" 
d="M533 706h-454v44h514v-36l-288 -386q86 5 146.5 -9.5t98.5 -44.5t55 -73.5t17 -96.5v-63q0 -57 -17.5 -105.5t-55 -83.5t-96.5 -55t-143 -20q-87 0 -153.5 14.5t-111.5 31.5v43q53 -19 115.5 -32t147.5 -13q266 0 266 226v47q0 100 -55.5 146t-181.5 46q-28 0 -50 -1.5
t-51 -5.5l-3 26zM216 944h46l79 -110l79 110h45l-100 -148h-49z" />
    <glyph glyph-name="uni01EF" unicode="&#x1ef;" horiz-adv-x="582" 
d="M152 744h46l79 -110l79 110h45l-100 -148h-49zM416 507h-352v39h407v-36l-226 -286q87 6 141.5 -9.5t84.5 -43t41 -63t11 -68.5v-49q0 -57 -21 -97.5t-57 -66.5t-85 -38t-105 -12q-23 0 -49.5 2.5t-53 7.5t-52 11.5t-45.5 15.5v41q47 -17 95.5 -26.5t102.5 -9.5
q36 0 75.5 6.5t72.5 26t54.5 54t21.5 91.5v33q0 36 -10 65t-32.5 48.5t-60 30t-92.5 10.5q-28 0 -48.5 -1t-49.5 -5l-8 24z" />
    <glyph glyph-name="uni01F0" unicode="&#x1f0;" horiz-adv-x="218" 
d="M137 -101q0 -58 -27 -88t-89 -30q-23 0 -47 3t-44 8v41q19 -4 40.5 -7t47.5 -3q40 0 56.5 18t16.5 60v645h46v-647zM-11 744h46l79 -110l79 110h45l-100 -148h-49z" />
    <glyph glyph-name="uni01F1" unicode="&#x1f1;" horiz-adv-x="1281" 
d="M88 0v750h235q79 0 138.5 -13.5t99.5 -48t60 -94.5t20 -154v-137q0 -81 -13.5 -138.5t-49 -94t-96 -53.5t-154.5 -17h-240zM136 705v-660h187q84 0 136.5 15t82.5 46t40.5 78.5t10.5 111.5v154q0 73 -15 122t-47.5 78.5t-82.5 42t-120 12.5h-192zM839 158
q-10 -14 -19 -26.5t-19 -26t-21 -28.5t-24 -33h482v-44h-538v37l387 555l82 114h-454v44h511v-37z" />
    <glyph glyph-name="uni01F2" unicode="&#x1f2;" horiz-adv-x="1166" 
d="M88 0v750h235q79 0 138.5 -13.5t99.5 -48t60 -94.5t20 -154v-137q0 -81 -13.5 -138.5t-49 -94t-96 -53.5t-154.5 -17h-240zM136 705v-660h187q84 0 136.5 15t82.5 46t40.5 78.5t10.5 111.5v154q0 73 -15 122t-47.5 78.5t-82.5 42t-120 12.5h-192zM859 148
q-11 -15 -20.5 -28l-19 -26t-19.5 -26t-22 -29h363v-39h-419v32l286 390q19 26 34 46.5t31 38.5h-340v39h394v-32z" />
    <glyph glyph-name="uni01F3" unicode="&#x1f3;" horiz-adv-x="1060" 
d="M237 -10q-91 0 -134 48.5t-43 130.5v169q0 60 15 102t43.5 69t69 39t90.5 12q22 0 48 -3.5t51.5 -9t47.5 -13t36 -16.5v239l46 17v-774h-39l-7 64q-17 -12 -40 -25t-51.5 -24t-61.5 -18t-71 -7zM461 478q-14 8 -34.5 15.5t-44.5 13t-49.5 9t-47.5 3.5q-91 0 -135 -41.5
t-44 -144.5v-145q0 -45 8 -75t25.5 -48.5t44 -26.5t62.5 -8q30 0 59.5 6t57.5 16.5t53 24t45 28.5v373zM753 148q-11 -15 -20.5 -28l-19 -26t-19.5 -26t-22 -29h363v-39h-419v32l286 390q19 26 34 46.5t31 38.5h-340v39h394v-32z" />
    <glyph glyph-name="uni01F4" unicode="&#x1f4;" horiz-adv-x="671" 
d="M560 696q-37 11 -81.5 16t-103.5 5q-81 0 -132.5 -19.5t-81 -55t-41 -85.5t-11.5 -110v-140q0 -53 10.5 -102t40 -87.5t83.5 -61.5t141 -23q48 0 92.5 4.5t83.5 15.5v297h-201v43h249v-370q-47 -18 -109 -25.5t-119 -7.5q-90 0 -151.5 22.5t-98.5 63.5t-53 99t-16 130
v130q0 81 16.5 142t54 101.5t97.5 61t147 20.5q58 0 104.5 -6.5t79.5 -17.5v-40zM427 940h63l-108 -134h-49z" />
    <glyph glyph-name="uni01F5" unicode="&#x1f5;" horiz-adv-x="586" 
d="M233 -3q-90 0 -131.5 48.5t-41.5 130.5v162q0 60 15 102t43.5 69t69 39t91.5 12q24 0 50 -4t51 -10.5t46.5 -15.5t35.5 -18l5 38h40v-591q0 -88 -51 -135t-167 -47q-27 0 -64 4t-64 14v40q32 -11 66.5 -14.5t56.5 -3.5q40 0 73 6.5t55.5 22.5t35 43.5t12.5 69.5v104
q-18 -12 -43 -23.5t-54 -21t-62.5 -15.5t-67.5 -6zM461 473q-14 9 -34.5 17.5t-44.5 14.5t-49 10t-48 4q-91 0 -135 -41.5t-44 -144.5v-137q0 -89 32 -124t106 -35q29 0 59 5.5t58.5 15t54 21.5t45.5 26v368zM334 740h63l-108 -134h-49z" />
    <glyph glyph-name="uni01F6" unicode="&#x1f6;" horiz-adv-x="1047" 
d="M619 159q0 -60 35 -93.5t119 -33.5q77 0 115.5 34.5t38.5 92.5v387h46v-389q0 -78 -52 -122.5t-148 -44.5q-102 0 -152 44.5t-50 122.5v216h-435v-373h-48v750h48v-333h435v333h48v-591z" />
    <glyph glyph-name="uni01F7" unicode="&#x1f7;" horiz-adv-x="609" 
d="M79 750h48v-85l182 74q50 19 93 19q76 0 116.5 -45t40.5 -128v-153q0 -95 -33 -161.5t-91 -111.5t-137 -71t-171 -39v-265h-48v966zM127 94q92 15 163.5 40.5t120.5 66t74.5 99.5t25.5 141v124q0 83 -28 117t-82 34q-37 0 -84 -19l-190 -78v-525z" />
    <glyph glyph-name="uni01F8" unicode="&#x1f8;" horiz-adv-x="714" 
d="M626 0h-54l-343 529q-25 39 -47.5 75.5t-45.5 81.5v-686h-48v750h54l344 -529q15 -23 26.5 -41t22 -36t21 -37t22.5 -42v685h48v-750zM425 806h-49l-108 134h63z" />
    <glyph glyph-name="uni01F9" unicode="&#x1f9;" 
d="M454 0v377q0 29 -4 55t-16.5 45t-36 30t-62.5 11q-45 0 -101.5 -20.5t-108.5 -55.5v-442h-46v546h39l6 -63q20 13 45 27t53 25t57.5 18t58.5 7q87 0 124.5 -41.5t37.5 -119.5v-399h-46zM365 606h-49l-108 134h63z" />
    <glyph glyph-name="Aringacute" unicode="&#x1fa;" horiz-adv-x="670" 
d="M657 0h-52l-92 231h-361l-89 -231h-50l291 750h47zM495 275l-108 270q-9 21 -15.5 39t-13 35.5t-14 37t-16.5 44.5q-9 -25 -15.5 -44.5t-13 -37.5t-13.5 -36t-15 -40l-101 -268h325zM328 820q26 0 42.5 16t16.5 43q0 26 -16.5 43t-42.5 17t-42 -17t-16 -43q0 -27 16 -43
t42 -16zM328 786q-21 0 -38.5 7.5t-30.5 20t-20 29.5t-7 36t7 36t20 30t30.5 20.5t38.5 7.5t39 -7.5t31 -20.5t20 -30t7 -36q0 -38 -27 -65.5t-70 -27.5zM400 1140h63l-108 -134h-49z" />
    <glyph glyph-name="aringacute" unicode="&#x1fb;" horiz-adv-x="529" 
d="M418 0l-3 68q-17 -12 -40 -25.5t-51.5 -25t-60.5 -19.5t-67 -8q-74 0 -112.5 37t-38.5 118v22q0 48 17 77.5t47.5 46t73 22t92.5 5.5h136v55q0 32 -3.5 58.5t-17.5 46t-42 30.5t-77 11q-38 0 -81 -7.5t-84 -23.5v42q42 16 84.5 23t82.5 7q60 0 96 -14t55.5 -39t26 -58.5
t6.5 -73.5v-375h-39zM411 279h-136q-45 0 -79.5 -4.5t-57.5 -17t-34.5 -35t-11.5 -57.5v-17q0 -118 104 -118q62 0 118 22.5t97 51.5v175zM279 626q26 0 42.5 16t16.5 43q0 26 -16.5 43t-42.5 17t-42 -17t-16 -43q0 -27 16 -43t42 -16zM279 592q-21 0 -38.5 7.5t-30.5 20
t-20 29.5t-7 36t7 36t20 30t30.5 20.5t38.5 7.5t39 -7.5t31 -20.5t20 -30t7 -36q0 -38 -27 -65.5t-70 -27.5zM343 944h63l-108 -134h-49z" />
    <glyph glyph-name="AEacute" unicode="&#x1fc;" horiz-adv-x="1032" 
d="M967 750v-45h-401v-292h368v-43h-368v-325h415v-45h-463v231h-298l-152 -231h-55l497 750h457zM251 275h267v418q-13 -24 -28 -48.5t-35 -56.5zM631 940h63l-108 -134h-49z" />
    <glyph glyph-name="aeacute" unicode="&#x1fd;" horiz-adv-x="884" 
d="M450 271v-46q0 -59 14.5 -96.5t41.5 -59t65.5 -30t87.5 -8.5q30 0 67.5 6.5t72.5 20.5v-40q-32 -14 -73 -21t-76 -7q-75 0 -128 22.5t-81 67.5q-19 -15 -44.5 -31t-56.5 -29t-67 -21.5t-76 -8.5q-74 0 -113 37t-39 115v18q0 79 53 113.5t167 34.5h140v65q0 32 -4 58.5
t-18 46t-42 30.5t-77 11q-78 0 -158 -31v42q42 16 81 23t79 7q42 0 72 -8t50.5 -22t33 -33.5t18.5 -42.5q29 53 77 79.5t111 26.5q105 0 162 -60.5t57 -178.5v-50h-397zM423 112q-11 26 -14.5 60.5t-3.5 72.5v24h-140q-91 0 -132 -25t-41 -86v-13q0 -58 27 -86t78 -28
q39 0 72.5 7.5t62 19.5t51.5 26.5t40 27.5zM803 320q0 98 -40.5 149t-133.5 51q-80 0 -129.5 -51t-49.5 -150v-11h353v12zM524 740h63l-108 -134h-49z" />
    <glyph glyph-name="Oslashacute" unicode="&#x1fe;" horiz-adv-x="738" 
d="M680 318q0 -162 -80.5 -246t-230.5 -84q-128 0 -204 60l-63 -91h-49l83 119q-78 84 -78 242v114q0 161 80.5 245.5t230.5 84.5q125 0 203 -61l64 91h49l-83 -118q78 -86 78 -242v-114zM106 324q0 -135 58 -208l382 547q-64 55 -177 55q-131 0 -197 -72.5t-66 -219.5v-102
zM632 426q0 133 -58 208l-382 -548q66 -54 177 -54q128 0 195.5 72t67.5 220v102zM414 940h63l-108 -134h-49z" />
    <glyph glyph-name="oslashacute" unicode="&#x1ff;" horiz-adv-x="589" 
d="M534 242q0 -121 -62.5 -186.5t-177.5 -65.5q-88 0 -145 39l-51 -72h-48l69 97q-64 66 -64 188v66q0 121 62 186.5t177 65.5q92 0 150 -43l47 67h48l-65 -93q60 -66 60 -183v-66zM101 240q0 -95 44 -148l274 390q-48 37 -125 37q-94 0 -143.5 -53.5t-49.5 -155.5v-70z
M488 310q0 91 -41 144l-274 -390q46 -33 121 -33q98 0 146 55t48 154v70zM340 740h63l-108 -134h-49z" />
    <glyph glyph-name="uni0200" unicode="&#x200;" horiz-adv-x="670" 
d="M657 0h-52l-92 231h-361l-89 -231h-50l291 750h47zM495 275l-108 270q-9 21 -15.5 39t-13 35.5t-14 37t-16.5 44.5q-9 -25 -15.5 -44.5t-13 -37.5t-13.5 -36t-15 -40l-101 -268h325zM291 806h-45l-74 134h63zM417 806h-45l-69 134h64z" />
    <glyph glyph-name="uni0201" unicode="&#x201;" horiz-adv-x="529" 
d="M418 0l-3 68q-17 -12 -40 -25.5t-51.5 -25t-60.5 -19.5t-67 -8q-74 0 -112.5 37t-38.5 118v22q0 48 17 77.5t47.5 46t73 22t92.5 5.5h136v55q0 32 -3.5 58.5t-17.5 46t-42 30.5t-77 11q-38 0 -81 -7.5t-84 -23.5v42q42 16 84.5 23t82.5 7q60 0 96 -14t55.5 -39t26 -58.5
t6.5 -73.5v-375h-39zM411 279h-136q-45 0 -79.5 -4.5t-57.5 -17t-34.5 -35t-11.5 -57.5v-17q0 -118 104 -118q62 0 118 22.5t97 51.5v175zM249 606h-45l-74 134h63zM375 606h-45l-69 134h64z" />
    <glyph glyph-name="uni0202" unicode="&#x202;" horiz-adv-x="670" 
d="M657 0h-52l-92 231h-361l-89 -231h-50l291 750h47zM495 275l-108 270q-9 21 -15.5 39t-13 35.5t-14 37t-16.5 44.5q-9 -25 -15.5 -44.5t-13 -37.5t-13.5 -36t-15 -40l-101 -268h325zM328 944q30 0 53.5 -10.5t40 -29.5t26 -44t10.5 -54h-40q-2 45 -24 72.5t-66 27.5
q-43 0 -65.5 -27.5t-24.5 -72.5h-40q2 29 11.5 54t26 44t39.5 29.5t53 10.5z" />
    <glyph glyph-name="uni0203" unicode="&#x203;" horiz-adv-x="529" 
d="M418 0l-3 68q-17 -12 -40 -25.5t-51.5 -25t-60.5 -19.5t-67 -8q-74 0 -112.5 37t-38.5 118v22q0 48 17 77.5t47.5 46t73 22t92.5 5.5h136v55q0 32 -3.5 58.5t-17.5 46t-42 30.5t-77 11q-38 0 -81 -7.5t-84 -23.5v42q42 16 84.5 23t82.5 7q60 0 96 -14t55.5 -39t26 -58.5
t6.5 -73.5v-375h-39zM411 279h-136q-45 0 -79.5 -4.5t-57.5 -17t-34.5 -35t-11.5 -57.5v-17q0 -118 104 -118q62 0 118 22.5t97 51.5v175zM275 744q30 0 53.5 -10.5t40 -29.5t26 -44t10.5 -54h-40q-2 45 -24 72.5t-66 27.5q-43 0 -65.5 -27.5t-24.5 -72.5h-40q2 29 11.5 54
t26 44t39.5 29.5t53 10.5z" />
    <glyph glyph-name="uni0204" unicode="&#x204;" horiz-adv-x="602" 
d="M537 750v-45h-401v-292h368v-43h-368v-325h415v-45h-463v750h449zM301 806h-45l-74 134h63zM427 806h-45l-69 134h64z" />
    <glyph glyph-name="uni0205" unicode="&#x205;" horiz-adv-x="548" 
d="M101 265v-27q0 -63 13.5 -103t40.5 -63t68 -32t97 -9q30 0 65 5.5t70 19.5v-40q-32 -14 -72.5 -20t-75.5 -6q-68 0 -116 16t-78 48t-43.5 78.5t-13.5 108.5v58q0 69 17 118.5t47 81t71.5 46.5t90.5 15q52 0 92.5 -14t68.5 -44t42.5 -78t14.5 -117v-42h-399zM456 306
q0 54 -9 94t-29 66.5t-53.5 40t-81.5 13.5q-87 0 -134.5 -53t-47.5 -162v-3h355v4zM257 606h-45l-74 134h63zM383 606h-45l-69 134h64z" />
    <glyph glyph-name="uni0206" unicode="&#x206;" horiz-adv-x="602" 
d="M537 750v-45h-401v-292h368v-43h-368v-325h415v-45h-463v750h449zM311 944q30 0 53.5 -10.5t40 -29.5t26 -44t10.5 -54h-40q-2 45 -24 72.5t-66 27.5q-43 0 -65.5 -27.5t-24.5 -72.5h-40q2 29 11.5 54t26 44t39.5 29.5t53 10.5z" />
    <glyph glyph-name="uni0207" unicode="&#x207;" horiz-adv-x="548" 
d="M101 265v-27q0 -63 13.5 -103t40.5 -63t68 -32t97 -9q30 0 65 5.5t70 19.5v-40q-32 -14 -72.5 -20t-75.5 -6q-68 0 -116 16t-78 48t-43.5 78.5t-13.5 108.5v58q0 69 17 118.5t47 81t71.5 46.5t90.5 15q52 0 92.5 -14t68.5 -44t42.5 -78t14.5 -117v-42h-399zM456 306
q0 54 -9 94t-29 66.5t-53.5 40t-81.5 13.5q-87 0 -134.5 -53t-47.5 -162v-3h355v4zM273 744q30 0 53.5 -10.5t40 -29.5t26 -44t10.5 -54h-40q-2 45 -24 72.5t-66 27.5q-43 0 -65.5 -27.5t-24.5 -72.5h-40q2 29 11.5 54t26 44t39.5 29.5t53 10.5z" />
    <glyph glyph-name="uni0208" unicode="&#x208;" horiz-adv-x="224" 
d="M136 0h-48v750h48v-750zM78 806h-45l-74 134h63zM204 806h-45l-69 134h64z" />
    <glyph glyph-name="uni0209" unicode="&#x209;" horiz-adv-x="208" 
d="M81 0v546h46v-546h-46zM66 606h-45l-74 134h63zM192 606h-45l-69 134h64z" />
    <glyph glyph-name="uni020A" unicode="&#x20a;" horiz-adv-x="224" 
d="M136 0h-48v750h48v-750zM112 944q30 0 53.5 -10.5t40 -29.5t26 -44t10.5 -54h-40q-2 45 -24 72.5t-66 27.5q-43 0 -65.5 -27.5t-24.5 -72.5h-40q2 29 11.5 54t26 44t39.5 29.5t53 10.5z" />
    <glyph glyph-name="uni020B" unicode="&#x20b;" horiz-adv-x="208" 
d="M81 0v546h46v-546h-46zM104 744q30 0 53.5 -10.5t40 -29.5t26 -44t10.5 -54h-40q-2 45 -24 72.5t-66 27.5q-43 0 -65.5 -27.5t-24.5 -72.5h-40q2 29 11.5 54t26 44t39.5 29.5t53 10.5z" />
    <glyph glyph-name="uni020C" unicode="&#x20c;" horiz-adv-x="738" 
d="M680 318q0 -162 -80.5 -246t-230.5 -84t-230.5 84t-80.5 246v114q0 161 80.5 245.5t230.5 84.5t230.5 -84.5t80.5 -245.5v-114zM632 426q0 147 -66 219.5t-197 72.5t-197 -72.5t-66 -219.5v-102q0 -148 67.5 -220t195.5 -72t195.5 72t67.5 220v102zM327 806h-45l-74 134
h63zM453 806h-45l-69 134h64z" />
    <glyph glyph-name="uni020D" unicode="&#x20d;" horiz-adv-x="589" 
d="M534 242q0 -121 -62.5 -186.5t-177.5 -65.5t-177 65.5t-62 186.5v66q0 121 62 186.5t177 65.5t177.5 -65.5t62.5 -186.5v-66zM488 310q0 102 -50 155.5t-144 53.5t-143.5 -53.5t-49.5 -155.5v-70q0 -99 48 -154t145 -55q98 0 146 55t48 154v70zM258 606h-45l-74 134h63z
M384 606h-45l-69 134h64z" />
    <glyph glyph-name="uni020E" unicode="&#x20e;" horiz-adv-x="738" 
d="M680 318q0 -162 -80.5 -246t-230.5 -84t-230.5 84t-80.5 246v114q0 161 80.5 245.5t230.5 84.5t230.5 -84.5t80.5 -245.5v-114zM632 426q0 147 -66 219.5t-197 72.5t-197 -72.5t-66 -219.5v-102q0 -148 67.5 -220t195.5 -72t195.5 72t67.5 220v102zM369 944
q30 0 53.5 -10.5t40 -29.5t26 -44t10.5 -54h-40q-2 45 -24 72.5t-66 27.5q-43 0 -65.5 -27.5t-24.5 -72.5h-40q2 29 11.5 54t26 44t39.5 29.5t53 10.5z" />
    <glyph glyph-name="uni020F" unicode="&#x20f;" horiz-adv-x="589" 
d="M534 242q0 -121 -62.5 -186.5t-177.5 -65.5t-177 65.5t-62 186.5v66q0 121 62 186.5t177 65.5t177.5 -65.5t62.5 -186.5v-66zM488 310q0 102 -50 155.5t-144 53.5t-143.5 -53.5t-49.5 -155.5v-70q0 -99 48 -154t145 -55q98 0 146 55t48 154v70zM295 744q30 0 53.5 -10.5
t40 -29.5t26 -44t10.5 -54h-40q-2 45 -24 72.5t-66 27.5q-43 0 -65.5 -27.5t-24.5 -72.5h-40q2 29 11.5 54t26 44t39.5 29.5t53 10.5z" />
    <glyph glyph-name="uni0210" unicode="&#x210;" horiz-adv-x="660" 
d="M88 750h268q51 0 94.5 -6.5t75 -26.5t49 -58t17.5 -101v-51q0 -46 -10 -77.5t-30 -52.5t-49 -32t-68 -16l184 -329h-54l-179 324h-250v-324h-48v750zM136 706v-339h193q57 0 98 5.5t67 20t38 41t12 68.5v62q0 42 -10.5 69.5t-33 43.5t-58 22.5t-85.5 6.5h-221zM306 806
h-45l-74 134h63zM432 806h-45l-69 134h64z" />
    <glyph glyph-name="uni0211" unicode="&#x211;" horiz-adv-x="353" 
d="M337 514q-63 -5 -116.5 -33t-95.5 -78v-403h-46v546h39l6 -98q38 44 91.5 75.5t121.5 36.5v-46zM184 606h-45l-74 134h63zM310 606h-45l-69 134h64z" />
    <glyph glyph-name="uni0212" unicode="&#x212;" horiz-adv-x="660" 
d="M88 750h268q51 0 94.5 -6.5t75 -26.5t49 -58t17.5 -101v-51q0 -46 -10 -77.5t-30 -52.5t-49 -32t-68 -16l184 -329h-54l-179 324h-250v-324h-48v750zM136 706v-339h193q57 0 98 5.5t67 20t38 41t12 68.5v62q0 42 -10.5 69.5t-33 43.5t-58 22.5t-85.5 6.5h-221zM330 944
q30 0 53.5 -10.5t40 -29.5t26 -44t10.5 -54h-40q-2 45 -24 72.5t-66 27.5q-43 0 -65.5 -27.5t-24.5 -72.5h-40q2 29 11.5 54t26 44t39.5 29.5t53 10.5z" />
    <glyph glyph-name="uni0213" unicode="&#x213;" horiz-adv-x="353" 
d="M337 514q-63 -5 -116.5 -33t-95.5 -78v-403h-46v546h39l6 -98q38 44 91.5 75.5t121.5 36.5v-46zM206 744q30 0 53.5 -10.5t40 -29.5t26 -44t10.5 -54h-40q-2 45 -24 72.5t-66 27.5q-43 0 -65.5 -27.5t-24.5 -72.5h-40q2 29 11.5 54t26 44t39.5 29.5t53 10.5z" />
    <glyph glyph-name="uni0214" unicode="&#x214;" horiz-adv-x="728" 
d="M131 750v-469q0 -131 55.5 -190t176.5 -59q124 0 179 59t55 190v469h48v-473q0 -147 -67.5 -218.5t-214.5 -71.5t-213.5 71.5t-66.5 218.5v473h48zM342 806h-45l-74 134h63zM468 806h-45l-69 134h64z" />
    <glyph glyph-name="uni0215" unicode="&#x215;" 
d="M120 546v-391q0 -28 5 -50.5t18 -38.5t35 -25t56 -9q50 0 108.5 21t106.5 55v438h46v-546h-39l-6 67q-20 -14 -46 -27.5t-54.5 -24.5t-59 -18t-60.5 -7q-86 0 -121 39.5t-35 117.5v399h46zM264 606h-45l-74 134h63zM390 606h-45l-69 134h64z" />
    <glyph glyph-name="uni0216" unicode="&#x216;" horiz-adv-x="728" 
d="M131 750v-469q0 -131 55.5 -190t176.5 -59q124 0 179 59t55 190v469h48v-473q0 -147 -67.5 -218.5t-214.5 -71.5t-213.5 71.5t-66.5 218.5v473h48zM364 944q30 0 53.5 -10.5t40 -29.5t26 -44t10.5 -54h-40q-2 45 -24 72.5t-66 27.5q-43 0 -65.5 -27.5t-24.5 -72.5h-40
q2 29 11.5 54t26 44t39.5 29.5t53 10.5z" />
    <glyph glyph-name="uni0217" unicode="&#x217;" 
d="M120 546v-391q0 -28 5 -50.5t18 -38.5t35 -25t56 -9q50 0 108.5 21t106.5 55v438h46v-546h-39l-6 67q-20 -14 -46 -27.5t-54.5 -24.5t-59 -18t-60.5 -7q-86 0 -121 39.5t-35 117.5v399h46zM287 744q30 0 53.5 -10.5t40 -29.5t26 -44t10.5 -54h-40q-2 45 -24 72.5
t-66 27.5q-43 0 -65.5 -27.5t-24.5 -72.5h-40q2 29 11.5 54t26 44t39.5 29.5t53 10.5z" />
    <glyph glyph-name="uni0218" unicode="&#x218;" horiz-adv-x="593" 
d="M540 208q0 -46 -10 -85.5t-37.5 -69t-76 -46.5t-125.5 -17q-54 0 -112 8t-116 29v47q68 -25 125 -32.5t105 -7.5q98 0 148.5 38t50.5 129q0 34 -7 56.5t-23.5 38t-44 26.5t-69.5 22l-124 33q-86 23 -121.5 66.5t-35.5 120.5q0 103 57.5 149.5t181.5 46.5q103 0 183 -23
v-40q-42 11 -88.5 15.5t-87.5 4.5q-51 0 -88.5 -6.5t-62 -24t-36.5 -47t-12 -75.5q0 -59 28.5 -92t99.5 -52l120 -32q52 -14 86 -29t54.5 -35.5t29 -48.5t8.5 -67zM297 -56h61l-63 -177h-42z" />
    <glyph glyph-name="uni0219" unicode="&#x219;" horiz-adv-x="463" 
d="M423 149q0 -34 -9.5 -63t-32 -50.5t-60 -33.5t-94.5 -12q-15 0 -37 1.5t-46 5t-48.5 9t-45.5 14.5v43q51 -19 95 -25.5t79 -6.5q45 0 75 8.5t47 24t24 36.5t7 45q0 21 -2.5 37.5t-15.5 30t-39 24.5t-72 22l-51 12q-44 10 -72 24t-44 31.5t-22 40t-6 51.5q0 38 14 65
t38.5 44t59 25t76.5 8t80 -5.5t66 -15.5v-38q-35 9 -67.5 14t-74.5 5q-81 0 -114 -25.5t-33 -74.5q0 -21 3 -37t15 -29.5t36 -24t65 -20.5l51 -12q48 -11 78 -24.5t47.5 -31t23.5 -40t6 -52.5zM228 -56h61l-63 -177h-42z" />
    <glyph glyph-name="uni021A" unicode="&#x21a;" horiz-adv-x="645" 
d="M41 750h563v-45h-258v-705h-48v705h-257v45zM292 -56h61l-63 -177h-42z" />
    <glyph glyph-name="uni021B" unicode="&#x21b;" horiz-adv-x="388" 
d="M167 505v-369q0 -33 4.5 -54t15 -32t27.5 -15t41 -4t50 5.5t47 17.5v-40q-18 -11 -49 -17.5t-62 -6.5q-68 0 -94 32t-26 100v383h-101v41h101v132l46 18v-150h183v-41h-183zM161 -56h61l-63 -177h-42z" />
    <glyph glyph-name="uni021C" unicode="&#x21c;" horiz-adv-x="566" 
d="M162 377v42l91 8q103 9 150.5 46.5t47.5 100.5q0 36 -10.5 63t-35.5 45t-67 27t-106 9q-16 0 -37 -1.5t-43.5 -5t-46.5 -9t-46 -13.5v42q38 14 89 21.5t98 7.5q131 0 191.5 -49t60.5 -137q0 -51 -25.5 -90t-80.5 -65q39 -11 63.5 -29t39 -40.5t20 -47.5t5.5 -50
q0 -63 -23.5 -106.5t-62.5 -73t-89.5 -47t-105.5 -28t-109.5 -16t-101.5 -10.5v48q86 6 166 16.5t141.5 35t98.5 67t37 113.5q0 43 -14 69.5t-35.5 42t-49 22.5t-54.5 10q-15 -4 -32 -6t-35 -4z" />
    <glyph glyph-name="uni021D" unicode="&#x21d;" horiz-adv-x="562" 
d="M162 179v41l91 10q103 11 151 48t48 100q0 38 -11 65t-36.5 44.5t-67.5 26t-105 8.5q-16 0 -37 -1.5t-43.5 -5t-46.5 -9t-46 -13.5v42q38 14 89 21.5t98 7.5q134 0 193 -49.5t59 -136.5q0 -49 -27 -89t-84 -66q40 -10 66 -28t41 -40.5t20.5 -48t5.5 -50.5
q0 -63 -24 -106.5t-64 -73t-91 -47t-106 -27.5t-108.5 -15t-98.5 -9v46q91 7 172 18t142 35.5t96 67t35 113.5q0 44 -14.5 70.5t-37.5 41.5t-51 20.5t-55 8.5q-15 -3 -31 -5.5t-33 -4.5z" />
    <glyph glyph-name="uni021E" unicode="&#x21e;" horiz-adv-x="707" 
d="M619 0h-48v373h-435v-373h-48v750h48v-333h435v333h48v-750zM229 944h46l79 -110l79 110h45l-100 -148h-49z" />
    <glyph glyph-name="uni021F" unicode="&#x21f;" 
d="M454 0v378q0 29 -4 54.5t-16.5 44.5t-36 30t-62.5 11q-46 0 -102.5 -20.5t-107.5 -55.5v-442h-46v757l46 17v-290q19 13 44.5 26.5t53.5 24.5t57.5 18t58.5 7q86 0 123.5 -41.5t37.5 -119.5v-399h-46zM189 944h46l79 -110l79 110h45l-100 -148h-49z" />
    <glyph glyph-name="uni0220" unicode="&#x220;" horiz-adv-x="724" 
d="M591 -216v747q0 42 -5.5 75.5t-21 57.5t-43.5 37t-74 13q-73 0 -146.5 -23.5t-164.5 -76.5v-614h-48v750h41l6 -88q35 20 73.5 38.5t78.5 32t81 21.5t82 8q52 0 88 -15t58.5 -42.5t32.5 -66t10 -85.5v-769h-48z" />
    <glyph glyph-name="uni0221" unicode="&#x221;" horiz-adv-x="620" 
d="M469 71q-41 -30 -98.5 -55.5t-133.5 -25.5q-91 0 -134 48.5t-43 130.5v169q0 60 15 102t43.5 69t69 39t90.5 12q22 0 48 -3.5t51.5 -9t47.5 -13t36 -16.5v239l46 17v-656q0 -19 3 -38q25 18 52.5 28.5t57.5 10.5q27 0 46 -7t31 -19t17.5 -27t5.5 -31q0 -25 -9 -42.5
t-24 -29t-35 -17t-43 -5.5q-45 0 -74.5 20.5t-46.5 49.5q-21 -23 -39 -51t-33 -59h-46q20 41 45.5 79t56.5 69q-3 10 -3 22zM461 478q-14 8 -34.5 15.5t-44.5 13t-49.5 9t-47.5 3.5q-91 0 -135 -41.5t-44 -144.5v-145q0 -45 8 -75t25.5 -48.5t44 -26.5t62.5 -8q30 0 59.5 6
t57.5 16.5t53 24t45 28.5v373zM617 82q-26 0 -50.5 -10.5t-46.5 -28.5q11 -27 32 -46t58 -19q71 0 71 54q0 26 -17 38t-47 12z" />
    <glyph glyph-name="uni0222" unicode="&#x222;" horiz-adv-x="646" 
d="M385 761q81 -12 129 -58.5t48 -132.5q0 -64 -38.5 -108.5t-116.5 -80.5q51 -14 85 -33.5t53.5 -43.5t27.5 -51.5t8 -57.5q0 -45 -14.5 -82.5t-46 -64.5t-80 -42.5t-115.5 -15.5q-132 0 -196 54t-64 144q0 73 40.5 120.5t135.5 74.5q-81 22 -120 69t-39 117q0 79 45 127.5
t128 64.5v-43q-60 -14 -93 -48t-33 -101q0 -71 39 -106t113 -51l73 -15l49 25q50 25 81 58t31 90q0 71 -33 104.5t-97 44.5v42zM302 365l-40 -12q-37 -11 -65 -25t-46.5 -34t-28 -46.5t-9.5 -61.5q0 -44 18.5 -73.5t48.5 -47.5t68 -25.5t77 -7.5q43 0 80.5 8.5t66 27.5
t45 49.5t16.5 74.5q0 27 -7.5 51.5t-28.5 45.5t-57 38t-93 29z" />
    <glyph glyph-name="uni0223" unicode="&#x223;" horiz-adv-x="601" 
d="M283 378l-40 -16q-35 -14 -60.5 -29.5t-42 -35.5t-25 -46t-8.5 -60q0 -42 16.5 -72t43.5 -49.5t62 -29t73 -9.5q41 0 76 10.5t61 31t40.5 52t14.5 73.5q0 29 -6 54t-24 45.5t-50.5 37.5t-84.5 31zM364 773q73 -15 116.5 -61.5t43.5 -129.5q0 -69 -37 -112t-113 -78
q48 -16 80 -36t51.5 -43.5t27.5 -51t8 -58.5q0 -44 -14.5 -82.5t-44 -67.5t-74 -46t-105.5 -17t-106.5 15.5t-76 43t-45.5 64.5t-15 80q0 73 39 121t129 79q-78 29 -115 74.5t-37 116.5q0 40 12 72t33.5 55.5t50.5 39t64 21.5v-41q-114 -24 -114 -151q0 -65 37.5 -101.5
t103.5 -55.5l60 -17l53 26q48 23 75.5 57.5t27.5 92.5q0 68 -29 101.5t-86 47.5v42z" />
    <glyph glyph-name="uni0224" unicode="&#x224;" horiz-adv-x="616" 
d="M174 158q-10 -14 -19 -26.5t-19 -26t-21 -28.5t-24 -33h482v-69q0 -73 -32.5 -105t-97.5 -32q-19 0 -35.5 3t-26.5 7v38q11 -3 25 -5.5t34 -2.5q28 0 45.5 6t27.5 19.5t13 35t3 51.5v10h-494v37l387 555l82 114h-454v44h511v-37z" />
    <glyph glyph-name="uni0225" unicode="&#x225;" horiz-adv-x="474" 
d="M167 148q-11 -15 -20.5 -28l-19 -26t-19.5 -26t-22 -29h363v-64q0 -73 -32.5 -105t-97.5 -32q-19 0 -35.5 3t-26.5 7v38q11 -3 25 -5.5t34 -2.5q28 0 45.5 6t27.5 19.5t13 35t3 51.5v10h-375v32l286 390q19 26 34 46.5t31 38.5h-340v39h394v-32z" />
    <glyph glyph-name="uni0226" unicode="&#x226;" horiz-adv-x="670" 
d="M657 0h-52l-92 231h-361l-89 -231h-50l291 750h47zM495 275l-108 270q-9 21 -15.5 39t-13 35.5t-14 37t-16.5 44.5q-9 -25 -15.5 -44.5t-13 -37.5t-13.5 -36t-15 -40l-101 -268h325zM296 908h65v-71h-65v71z" />
    <glyph glyph-name="uni0227" unicode="&#x227;" horiz-adv-x="529" 
d="M418 0l-3 68q-17 -12 -40 -25.5t-51.5 -25t-60.5 -19.5t-67 -8q-74 0 -112.5 37t-38.5 118v22q0 48 17 77.5t47.5 46t73 22t92.5 5.5h136v55q0 32 -3.5 58.5t-17.5 46t-42 30.5t-77 11q-38 0 -81 -7.5t-84 -23.5v42q42 16 84.5 23t82.5 7q60 0 96 -14t55.5 -39t26 -58.5
t6.5 -73.5v-375h-39zM411 279h-136q-45 0 -79.5 -4.5t-57.5 -17t-34.5 -35t-11.5 -57.5v-17q0 -118 104 -118q62 0 118 22.5t97 51.5v175zM232 708h65v-71h-65v71z" />
    <glyph glyph-name="uni0228" unicode="&#x228;" horiz-adv-x="602" 
d="M325 -262q-20 0 -39.5 1t-41.5 5v42q15 -2 36.5 -4t40.5 -2q34 0 53.5 5t29 13t12 19t2.5 22v8q0 12 -2.5 22t-13 17t-31.5 11t-59 4h-16v99h-208v750h449v-45h-401v-292h368v-43h-368v-325h415v-45h-207v-59q71 -4 97 -26t26 -65v-6q0 -31 -11 -51.5t-30 -32.5t-45 -17
t-56 -5z" />
    <glyph glyph-name="uni0229" unicode="&#x229;" horiz-adv-x="548" 
d="M274 -262q-20 0 -39.5 1t-41.5 5v42q15 -2 36.5 -4t40.5 -2q34 0 53.5 5t29 13t12 19t2.5 22v8q0 12 -2.5 22t-13 17t-31.5 11t-59 4h-16v93q-102 13 -145.5 76t-43.5 171v58q0 69 17 118.5t47 81t71.5 46.5t90.5 15q52 0 92.5 -14t68.5 -44t42.5 -78t14.5 -117v-42h-399
v-27q0 -63 13.5 -103t40.5 -63t68 -32t97 -9q30 0 65 5.5t70 19.5v-40q-32 -14 -72.5 -20t-75.5 -6h-14v-49q71 -4 97 -26t26 -65v-6q0 -31 -11 -51.5t-30 -32.5t-45 -17t-56 -5zM456 306q0 54 -9 94t-29 66.5t-53.5 40t-81.5 13.5q-87 0 -134.5 -53t-47.5 -162v-3h355v4z
" />
    <glyph glyph-name="uni022A" unicode="&#x22a;" horiz-adv-x="738" 
d="M680 318q0 -162 -80.5 -246t-230.5 -84t-230.5 84t-80.5 246v114q0 161 80.5 245.5t230.5 84.5t230.5 -84.5t80.5 -245.5v-114zM632 426q0 147 -66 219.5t-197 72.5t-197 -72.5t-66 -219.5v-102q0 -148 67.5 -220t195.5 -72t195.5 72t67.5 220v102zM252 894h66v-83h-66
v83zM421 894h66v-83h-66v83zM238 1011h262v-40h-262v40z" />
    <glyph glyph-name="uni022B" unicode="&#x22b;" horiz-adv-x="589" 
d="M534 242q0 -121 -62.5 -186.5t-177.5 -65.5t-177 65.5t-62 186.5v66q0 121 62 186.5t177 65.5t177.5 -65.5t62.5 -186.5v-66zM488 310q0 102 -50 155.5t-144 53.5t-143.5 -53.5t-49.5 -155.5v-70q0 -99 48 -154t145 -55q98 0 146 55t48 154v70zM177 694h66v-83h-66v83z
M346 694h66v-83h-66v83zM163 804h262v-40h-262v40z" />
    <glyph glyph-name="uni022C" unicode="&#x22c;" horiz-adv-x="738" 
d="M680 318q0 -162 -80.5 -246t-230.5 -84t-230.5 84t-80.5 246v114q0 161 80.5 245.5t230.5 84.5t230.5 -84.5t80.5 -245.5v-114zM632 426q0 147 -66 219.5t-197 72.5t-197 -72.5t-66 -219.5v-102q0 -148 67.5 -220t195.5 -72t195.5 72t67.5 220v102zM434 803
q-26 0 -42.5 11.5t-30 26t-26 26t-30.5 11.5q-17 0 -31 -16t-16 -58h-41q2 51 24.5 83t63.5 32q24 0 40.5 -11.5t30 -26t26.5 -26t31 -11.5q24 0 34.5 16t12.5 60h41q-1 -23 -5 -44t-14 -37.5t-26.5 -26t-41.5 -9.5zM238 1011h262v-40h-262v40z" />
    <glyph glyph-name="uni022D" unicode="&#x22d;" horiz-adv-x="589" 
d="M534 242q0 -121 -62.5 -186.5t-177.5 -65.5t-177 65.5t-62 186.5v66q0 121 62 186.5t177 65.5t177.5 -65.5t62.5 -186.5v-66zM488 310q0 102 -50 155.5t-144 53.5t-143.5 -53.5t-49.5 -155.5v-70q0 -99 48 -154t145 -55q98 0 146 55t48 154v70zM360 597q-26 0 -42.5 11.5
t-30 26t-26 26t-30.5 11.5q-17 0 -31 -16t-16 -58h-41q2 51 24.5 83t63.5 32q24 0 40.5 -11.5t30 -26t26.5 -26t31 -11.5q24 0 34.5 16t12.5 60h41q-1 -23 -5 -44t-14 -37.5t-26.5 -26t-41.5 -9.5zM163 804h262v-40h-262v40z" />
    <glyph glyph-name="uni022E" unicode="&#x22e;" horiz-adv-x="738" 
d="M680 318q0 -162 -80.5 -246t-230.5 -84t-230.5 84t-80.5 246v114q0 161 80.5 245.5t230.5 84.5t230.5 -84.5t80.5 -245.5v-114zM632 426q0 147 -66 219.5t-197 72.5t-197 -72.5t-66 -219.5v-102q0 -148 67.5 -220t195.5 -72t195.5 72t67.5 220v102zM336 908h65v-71h-65
v71z" />
    <glyph glyph-name="uni022F" unicode="&#x22f;" horiz-adv-x="589" 
d="M534 242q0 -121 -62.5 -186.5t-177.5 -65.5t-177 65.5t-62 186.5v66q0 121 62 186.5t177 65.5t177.5 -65.5t62.5 -186.5v-66zM488 310q0 102 -50 155.5t-144 53.5t-143.5 -53.5t-49.5 -155.5v-70q0 -99 48 -154t145 -55q98 0 146 55t48 154v70zM262 708h65v-71h-65v71z
" />
    <glyph glyph-name="uni0230" unicode="&#x230;" horiz-adv-x="738" 
d="M680 318q0 -162 -80.5 -246t-230.5 -84t-230.5 84t-80.5 246v114q0 161 80.5 245.5t230.5 84.5t230.5 -84.5t80.5 -245.5v-114zM632 426q0 147 -66 219.5t-197 72.5t-197 -72.5t-66 -219.5v-102q0 -148 67.5 -220t195.5 -72t195.5 72t67.5 220v102zM336 902h65v-71h-65
v71zM238 1011h262v-40h-262v40z" />
    <glyph glyph-name="uni0231" unicode="&#x231;" horiz-adv-x="589" 
d="M534 242q0 -121 -62.5 -186.5t-177.5 -65.5t-177 65.5t-62 186.5v66q0 121 62 186.5t177 65.5t177.5 -65.5t62.5 -186.5v-66zM488 310q0 102 -50 155.5t-144 53.5t-143.5 -53.5t-49.5 -155.5v-70q0 -99 48 -154t145 -55q98 0 146 55t48 154v70zM262 698h65v-71h-65v71z
M163 804h262v-40h-262v40z" />
    <glyph glyph-name="uni0232" unicode="&#x232;" horiz-adv-x="589" 
d="M324 310v-310h-48v308l-263 442h54l165 -284l69 -121l16.5 33t15 28.5t15 27.5t17.5 32l158 284h53zM164 910h262v-40h-262v40z" />
    <glyph glyph-name="uni0233" unicode="&#x233;" horiz-adv-x="530" 
d="M206 -216h-47l86 216l-225 546h49l136 -340q9 -22 16 -40t14.5 -37t15 -40t17.5 -48q10 27 18 48t14.5 39.5t13.5 37t16 40.5l133 340h47zM134 710h262v-40h-262v40z" />
    <glyph glyph-name="uni0234" unicode="&#x234;" horiz-adv-x="344" 
d="M240 -10q-24 0 -46 5t-39.5 19.5t-29 39t-14.5 63.5q-54 -40 -80 -117h-46q17 52 48.5 94.5t76.5 68.5v594l46 17v-591q34 12 76 12q63 0 95 -30t32 -74q0 -25 -9.5 -44t-26 -31.5t-38 -19t-45.5 -6.5zM233 158q-41 0 -77 -15q0 -20 1.5 -41t10 -37.5t25.5 -27t48 -10.5
q37 0 58 18.5t21 45.5q0 13 -4.5 25t-14.5 21.5t-26.5 15t-41.5 5.5z" />
    <glyph glyph-name="uni0235" unicode="&#x235;" horiz-adv-x="669" 
d="M573 -10q-26 0 -47.5 7t-37 23t-24.5 43t-10 67q-34 -20 -60.5 -52.5t-41.5 -77.5h-46q19 57 56.5 103t91.5 70v204q0 29 -4 55t-16.5 45t-36 30t-62.5 11q-45 0 -101.5 -20.5t-108.5 -55.5v-442h-46v546h39l6 -63q20 13 45 27t53 25t57.5 18t58.5 7q87 0 124.5 -41.5
t37.5 -119.5v-211q14 3 28 5t29 2q65 0 96 -30t31 -74q0 -50 -31.5 -75.5t-79.5 -25.5zM558 158q-29 0 -58 -8v-11q0 -21 2 -41t9.5 -35.5t22.5 -25.5t40 -10q37 0 54 18.5t17 45.5q0 13 -4 25t-13.5 21.5t-26.5 15t-43 5.5z" />
    <glyph glyph-name="uni0236" unicode="&#x236;" horiz-adv-x="384" 
d="M260 -10q-24 0 -47 5t-41.5 18.5t-32 36.5t-17.5 60q-47 -39 -71 -110h-46q16 49 45 89.5t70 66.5v349h-101v41h101v132l46 18v-150h183v-41h-183v-325q39 15 86 15q63 0 95 -30t32 -74q0 -25 -9.5 -44t-26 -31.5t-38 -19t-45.5 -6.5zM253 158q-46 0 -87 -19q0 -20 4 -40
t14.5 -36t28.5 -26t48 -10q37 0 58 18.5t21 45.5q0 13 -4.5 25t-14.5 21.5t-26.5 15t-41.5 5.5z" />
    <glyph glyph-name="uni0237" unicode="&#x237;" horiz-adv-x="218" 
d="M137 -101q0 -58 -27 -88t-89 -30q-23 0 -47 3t-44 8v41q19 -4 40.5 -7t47.5 -3q40 0 56.5 18t16.5 60v645h46v-647z" />
    <glyph glyph-name="uni0238" unicode="&#x238;" horiz-adv-x="968" 
d="M729 560q85 0 132 -48.5t47 -129.5v-176q0 -63 -14.5 -105t-41.5 -66.5t-65.5 -35t-85.5 -10.5q-54 0 -104 18.5t-97 47.5l-5 -55h-30l-4 64q-17 -12 -40 -25t-51.5 -24t-61.5 -18t-71 -7q-91 0 -134 48.5t-43 130.5v169q0 60 15 102t43.5 69t69 39t90.5 12q22 0 48 -3.5
t51.5 -9.5t47.5 -14t36 -17v241l46 17v-286q17 11 41 23.5t52.5 23.5t61 18t67.5 7zM461 476q-14 8 -34.5 16t-44.5 14t-49.5 9.5t-47.5 3.5q-91 0 -135 -41.5t-44 -144.5v-145q0 -45 8 -75t25.5 -48.5t44 -26.5t62.5 -8q30 0 59.5 6t57.5 16.5t53 24t45 28.5v371zM507 95
q46 -34 99.5 -50t94.5 -16q86 0 123.5 42.5t37.5 143.5v148q0 44 -10.5 74t-29.5 48t-46 26t-60 8q-25 0 -52 -6t-54.5 -16t-53.5 -24t-49 -30v-348z" />
    <glyph glyph-name="uni0239" unicode="&#x239;" horiz-adv-x="968" 
d="M233 -10q-90 0 -131.5 48.5t-41.5 130.5v169q0 60 15 102t43 69t68 39t89 12q25 0 53 -4.5t53.5 -12t47.5 -17t36 -19.5l5 39h31l5 -58q16 10 39.5 23t52.5 23.5t62 18t69 7.5q85 0 132 -48t47 -130v-175q0 -62 -15.5 -104t-44.5 -67.5t-70.5 -36t-93.5 -10.5
q-42 0 -88.5 10t-88.5 27v-242h-46v267q-18 -12 -43 -23t-54.5 -19.5t-62.5 -13.5t-68 -5zM461 468q-16 10 -37 19.5t-44.5 16.5t-48.5 11t-50 4q-88 0 -131.5 -41.5t-43.5 -144.5v-144q0 -89 32 -124t106 -35q59 0 118 18t99 45v375zM507 66q42 -19 88 -28t88 -9
q94 0 136.5 43t42.5 144v146q0 45 -10 75t-29 48.5t-46 26t-61 7.5q-24 0 -51.5 -6t-55 -16t-54 -23.5t-48.5 -29.5v-378z" />
    <glyph glyph-name="uni023A" unicode="&#x23a;" horiz-adv-x="670" 
d="M429 558l112 234h41l-134 -280l209 -512h-52l-92 231h-200l-131 -274h-41l131 274h-120l-89 -231h-50l291 750h47zM293 275l110 229l-16 41q-9 21 -15.5 39t-13 35.5t-14 37t-16.5 44.5q-9 -25 -15.5 -44.5t-13 -37.5t-13.5 -36t-15 -40l-101 -268h123zM422 457l-88 -182
h161z" />
    <glyph glyph-name="uni023B" unicode="&#x23b;" horiz-adv-x="617" 
d="M108 -43l44 92q-50 39 -70.5 103t-20.5 152v134q0 86 19 147t57.5 100t97 57t136.5 18q66 0 117 -9l20 41h41l-24 -49q8 -2 14.5 -4t13.5 -4v-40q-11 3 -22.5 6t-23.5 5l-303 -634q30 -19 72 -29t100 -10q46 0 93 6t95 23v-43q-23 -9 -50.5 -14.5t-53.5 -9t-49.5 -4.5
t-38.5 -1q-119 0 -189 38l-34 -71h-41zM109 306q0 -66 13.5 -120t51.5 -91l295 617q-22 2 -46.5 3.5t-52.5 1.5q-139 0 -200 -65.5t-61 -203.5v-142z" />
    <glyph glyph-name="uni023C" unicode="&#x23c;" horiz-adv-x="488" 
d="M438 499q-11 4 -24 7.5t-28 5.5l-215 -450q47 -31 134 -31q31 0 68 5.5t75 20.5v-41q-34 -15 -73 -20.5t-75 -5.5q-93 0 -149 31l-31 -64h-41l41 86q-64 58 -64 192v77q0 69 17 116.5t49 77t76.5 42t100.5 12.5q17 0 34 -1.5t33 -3.5l28 59h41l-32 -66q21 -5 35 -10v-39z
M102 234q0 -50 9.5 -85.5t30.5 -60.5l205 429q-11 1 -22 1.5t-24 0.5q-102 0 -150.5 -49t-48.5 -152v-84z" />
    <glyph glyph-name="uni023D" unicode="&#x23d;" horiz-adv-x="576" 
d="M139 750v-325h199v-42h-199v-338h397v-45h-445v383h-101v42h101v325h48z" />
    <glyph glyph-name="uni023E" unicode="&#x23e;" horiz-adv-x="645" 
d="M41 750h453l20 42h41l-20 -42h69v-45h-91l-167 -350v-355h-48v255l-143 -298h-41l184 384v364h-257v45zM346 441l126 264h-126v-264z" />
    <glyph glyph-name="uni023F" unicode="&#x23f;" horiz-adv-x="464" 
d="M423 149q0 -34 -9.5 -63t-32 -50.5t-60 -33.5t-94.5 -12q-14 0 -31.5 1t-37.5 4l57 -49q29 -26 54.5 -41.5t51.5 -24.5t53.5 -12t61.5 -3v-38q-30 0 -61.5 3t-63.5 12.5t-64.5 29t-65.5 52.5q-24 24 -41.5 40t-31.5 26t-24 15.5t-19 8.5l-15 6v43q51 -19 95 -25.5
t79 -6.5q45 0 75 8.5t47 24t24 36.5t7 45q0 21 -2.5 37.5t-15.5 30t-39 24.5t-72 22l-51 12q-44 10 -72 24t-44 31.5t-22 40t-6 51.5q0 38 14 65t38.5 44t59 25t76.5 8t80 -5.5t66 -15.5v-38q-35 9 -67.5 14t-74.5 5q-81 0 -114 -25.5t-33 -74.5q0 -21 3 -37t15 -29.5
t36 -24t65 -20.5l51 -12q48 -11 78 -24.5t47.5 -31t23.5 -40t6 -52.5z" />
    <glyph glyph-name="uni0240" unicode="&#x240;" horiz-adv-x="481" 
d="M77 32q22 -7 59 -25.5t91 -55.5q28 -19 55 -34.5t55 -26.5t58.5 -16.5t65.5 -4.5v-42q-35 0 -67 4.5t-66 16.5t-71.5 33.5t-83.5 54.5q-21 15 -42.5 26.5t-41 19.5t-35 13t-24.5 5v32l286 390q19 26 34 46.5t31 38.5h-340v39h394v-32l-268 -366q-23 -31 -43.5 -58.5
t-46.5 -57.5z" />
    <glyph glyph-name="uni0241" unicode="&#x241;" horiz-adv-x="501" 
d="M200 194q0 37 5.5 64t18 49.5t34 44t54.5 47.5q47 37 72.5 76.5t25.5 94.5q0 31 -6.5 57t-26 45t-54.5 29.5t-93 10.5q-48 0 -94 -11t-88 -28v44q35 16 82 28t104 12q62 0 104.5 -12.5t69 -36.5t38 -58.5t11.5 -79.5q0 -38 -10 -68.5t-26.5 -55.5t-38.5 -46t-46 -39
q-28 -21 -45.5 -40.5t-27 -39.5t-13 -41.5t-3.5 -47.5v-192h-47v194z" />
    <glyph glyph-name="uni0242" unicode="&#x242;" horiz-adv-x="450" 
d="M195 81q0 28 1.5 48.5t9 39.5t23 38t44.5 44q21 18 37.5 31.5t27.5 28t17 33t6 47.5q0 30 -5.5 53.5t-21.5 40t-44.5 25.5t-74.5 9q-45 0 -87 -10.5t-80 -27.5v40q30 15 74 27t95 12q43 0 78 -9t59.5 -29.5t38 -52.5t13.5 -78q0 -37 -8 -60.5t-22.5 -41t-34 -33
t-42.5 -36.5q-21 -19 -33 -33.5t-18 -29.5t-7.5 -33t-1.5 -45v-79h-44v81z" />
    <glyph glyph-name="uni0243" unicode="&#x243;" horiz-adv-x="646" 
d="M86 193h-91v42h91v515h225q54 0 98.5 -6t76 -23t49 -48.5t17.5 -82.5v-54q0 -25 -5.5 -48.5t-20.5 -42.5t-40.5 -33t-64.5 -20q83 -8 120.5 -46.5t37.5 -96.5v-70q0 -54 -14 -88.5t-45.5 -55t-81.5 -28t-121 -7.5h-231v193zM134 369v-134h206v-42h-206v-149h185
q57 0 97 5.5t65.5 20.5t37 42t11.5 71v59q0 30 -9 53.5t-31.5 40t-62 25t-100.5 8.5h-193zM134 706v-296h192q40 0 72.5 6.5t56 20.5t36.5 37t13 56v61q0 33 -9.5 55.5t-32 35.5t-60 18.5t-93.5 5.5h-175z" />
    <glyph glyph-name="uni0244" unicode="&#x244;" horiz-adv-x="735" 
d="M129 750v-325h466v325h48v-325h97v-42h-97v-106q0 -147 -67.5 -218.5t-214.5 -71.5t-213.5 71.5t-66.5 218.5v106h-86v42h86v325h48zM361 32q124 0 179 59t55 190v102h-466v-102q0 -131 55.5 -190t176.5 -59z" />
    <glyph glyph-name="uni0245" unicode="&#x245;" horiz-adv-x="664" 
d="M597 0l-209 538q-8 21 -15 39t-13.5 36.5t-13.5 39t-16 46.5q-9 -26 -16 -46.5t-14 -39t-14 -36.5t-15 -39l-206 -538h-52l293 750h48l297 -750h-54z" />
    <glyph glyph-name="uni0246" unicode="&#x246;" horiz-adv-x="602" 
d="M472 750l20 42h41l-20 -42h24v-45h-46l-140 -292h153v-43h-173l-156 -325h376v-45h-398l-20 -43h-41l20 43h-24v750h384zM136 413h174l140 292h-314v-292zM136 49l154 321h-154v-321z" />
    <glyph glyph-name="uni0247" unicode="&#x247;" horiz-adv-x="548" 
d="M308 265l-106 -220q24 -8 53.5 -11t64.5 -3q30 0 65 5.5t70 19.5v-40q-32 -14 -72.5 -20t-75.5 -6q-37 0 -67 5t-56 13l-24 -51h-41l32 67q-51 29 -73 83.5t-22 133.5v58q0 69 17 118.5t47 81t71.5 46.5t90.5 15q33 0 62 -5.5t53 -17.5l37 77h41l-47 -98q35 -29 53.5 -80
t18.5 -129v-42h-192zM101 302h183l95 198q-38 20 -96 20q-87 0 -134.5 -53t-47.5 -162v-3zM101 238q0 -71 16.5 -113t51.5 -64l97 204h-165v-27zM456 306q0 59 -11 101.5t-36 69.5l-84 -175h131v4z" />
    <glyph glyph-name="uni0248" unicode="&#x248;" horiz-adv-x="428" 
d="M339 750v-325h94v-42h-94v-217q0 -99 -43.5 -137.5t-130.5 -38.5q-33 0 -66 5t-52 10v45q31 -8 58 -11.5t59 -3.5q72 0 99.5 31.5t27.5 104.5v212h-196v42h196v325h48z" />
    <glyph glyph-name="uni0249" unicode="&#x249;" horiz-adv-x="309" 
d="M193 332h130v-42h-130v-391q0 -58 -27 -88t-89 -30q-23 0 -47 3t-44 8v41q19 -4 40.5 -7t47.5 -3q40 0 56.5 18t16.5 60v389h-126v42h126v214h46v-214zM195 675h-50v70h50v-70z" />
    <glyph glyph-name="uni024A" unicode="&#x24a;" horiz-adv-x="701" 
d="M272 -10q-56 0 -96 16t-65.5 45t-37.5 71t-12 93v267q0 75 18 128.5t52.5 87t83 49t110.5 15.5q73 0 137 -20t108 -48l6 49h37v-788q0 -34 3 -59.5t12.5 -42t27.5 -25t47 -8.5q25 0 37.5 3t26.5 7v-40q-12 -5 -29.5 -9t-37.5 -4q-39 0 -65 9t-41.5 29.5t-22 53.5t-6.5 81
v116q-23 -15 -55 -28.5t-70 -24t-81 -17t-87 -6.5zM565 655q-20 13 -47 24.5t-58 20.5t-63.5 14t-63.5 5q-110 0 -167 -53.5t-57 -179.5v-252q0 -56 10.5 -94t32 -61.5t55 -34t79.5 -10.5q37 0 75.5 6t75.5 16.5t70 25t58 31.5v542z" />
    <glyph glyph-name="uni024B" unicode="&#x24b;" horiz-adv-x="586" 
d="M233 -10q-90 0 -131.5 48.5t-41.5 130.5v169q0 60 15 102t43 69t68 39t89 12q25 0 53 -4.5t53.5 -12t47.5 -17t36 -19.5l5 39h37v-627q0 -27 2.5 -46.5t10.5 -32t22.5 -18t37.5 -5.5q20 0 34 2.5t25 5.5v-38q-10 -4 -26.5 -7t-35.5 -3q-32 0 -54.5 7.5t-36 24t-19.5 42.5
t-6 64v136q-18 -12 -43 -23t-54.5 -19.5t-62.5 -13.5t-68 -5zM461 468q-16 10 -37 19.5t-44.5 16.5t-48.5 11t-50 4q-88 0 -131.5 -41.5t-43.5 -144.5v-144q0 -89 32 -124t106 -35q59 0 118 18t99 45v375z" />
    <glyph glyph-name="uni024C" unicode="&#x24c;" horiz-adv-x="660" 
d="M88 325h-102v42h102v383h268q51 0 94.5 -6.5t75 -26.5t49 -58t17.5 -101v-51q0 -46 -10 -77.5t-30 -52.5t-49 -32t-68 -16l184 -329h-54l-179 324h-250v-324h-48v325zM136 706v-339h193q57 0 98 5.5t67 20t38 41t12 68.5v62q0 42 -10.5 69.5t-33 43.5t-58 22.5t-85.5 6.5
h-221z" />
    <glyph glyph-name="uni024D" unicode="&#x24d;" horiz-adv-x="353" 
d="M337 514q-63 -5 -116.5 -33t-95.5 -78v-86h167v-42h-167v-275h-46v275h-89v42h89v229h39l6 -98q38 44 91.5 75.5t121.5 36.5v-46z" />
    <glyph glyph-name="uni024E" unicode="&#x24e;" horiz-adv-x="604" 
d="M509 634h98v-42h-122l-161 -282v-310h-48v308l-169 284h-110v42h85l-69 116h54l67 -116h324l65 116h53zM301 345l16.5 33t15 28.5t15 27.5t17.5 32l70 126h-276l73 -126z" />
    <glyph glyph-name="uni024F" unicode="&#x24f;" horiz-adv-x="541" 
d="M443 377h96v-42h-112l-220 -551h-47l86 216l-138 335h-106v42h88l-69 169h49l67 -169h261l66 169h47zM269 41q10 27 18 48t14.5 39.5t13.5 37t16 40.5l50 129h-227l52 -129q9 -22 16 -40t14.5 -37t15 -40t17.5 -48z" />
    <glyph glyph-name="gravecomb" unicode="&#x300;" horiz-adv-x="600" 
d="M345 606h-49l-108 134h63z" />
    <glyph glyph-name="acutecomb" unicode="&#x301;" horiz-adv-x="600" 
d="M325 740h63l-108 -134h-49z" />
    <glyph glyph-name="uni0302" unicode="&#x302;" horiz-adv-x="600" 
d="M275 754h49l100 -148h-45l-79 110l-80 -110h-45z" />
    <glyph glyph-name="tildecomb" unicode="&#x303;" horiz-adv-x="600" 
d="M365 618q-26 0 -42.5 11.5t-30 26t-26 26t-30.5 11.5q-17 0 -31 -16t-16 -58h-41q2 51 24.5 83t63.5 32q24 0 40.5 -11.5t30 -26t26.5 -26t31 -11.5q24 0 34.5 16t12.5 60h41q-1 -23 -5 -44t-14 -37.5t-26.5 -26t-41.5 -9.5z" />
    <glyph glyph-name="uni0304" unicode="&#x304;" horiz-adv-x="600" 
d="M169 710h262v-40h-262v40z" />
    <glyph glyph-name="uni0306" unicode="&#x306;" horiz-adv-x="600" 
d="M300 606q-30 0 -53 10.5t-39.5 29.5t-26 44t-11.5 54h40q2 -45 24.5 -72.5t65.5 -27.5q44 0 66 27.5t24 72.5h40q-1 -29 -10.5 -54t-26 -44t-40 -29.5t-53.5 -10.5z" />
    <glyph glyph-name="uni0307" unicode="&#x307;" horiz-adv-x="600" 
d="M267 708h65v-71h-65v71z" />
    <glyph glyph-name="uni0308" unicode="&#x308;" horiz-adv-x="600" 
d="M182 717h66v-83h-66v83zM351 717h66v-83h-66v83z" />
    <glyph glyph-name="hookabovecomb" unicode="&#x309;" horiz-adv-x="600" 
d="M276 594v18q0 13 1.5 21t7 14t14.5 11.5t24 14.5q23 13 34 23t11 29q0 15 -15 28t-58 13q-17 0 -38.5 -4t-39.5 -11v31q16 7 36.5 11.5t44.5 4.5q58 0 83.5 -19.5t25.5 -55.5q0 -17 -6 -27.5t-14 -18t-17.5 -12.5t-16.5 -9q-25 -15 -32 -21t-7 -21v-20h-38z" />
    <glyph glyph-name="uni030A" unicode="&#x30a;" horiz-adv-x="600" 
d="M299 635q26 0 42.5 16t16.5 43q0 26 -16.5 43t-42.5 17t-42 -17t-16 -43q0 -27 16 -43t42 -16zM299 601q-21 0 -38.5 7.5t-30.5 20t-20 29.5t-7 36t7 36t20 30t30.5 20.5t38.5 7.5t39 -7.5t31 -20.5t20 -30t7 -36q0 -38 -27 -65.5t-70 -27.5z" />
    <glyph glyph-name="uni030B" unicode="&#x30b;" horiz-adv-x="600" 
d="M367 740h61l-69 -134h-41zM219 740h62l-69 -134h-43z" />
    <glyph glyph-name="uni030C" unicode="&#x30c;" horiz-adv-x="610" 
d="M175 744h46l79 -110l79 110h45l-100 -148h-49z" />
    <glyph glyph-name="uni030F" unicode="&#x30f;" horiz-adv-x="600" 
d="M296 606h-45l-74 134h63zM422 606h-45l-69 134h64z" />
    <glyph glyph-name="uni0310" unicode="&#x310;" horiz-adv-x="600" 
d="M268 827h65v-71h-65v71zM300 606q-30 0 -53 10.5t-39.5 29.5t-26 44t-11.5 54h40q2 -45 24.5 -72.5t65.5 -27.5q44 0 66 27.5t24 72.5h40q-1 -29 -10.5 -54t-26 -44t-40 -29.5t-53.5 -10.5z" />
    <glyph glyph-name="uni0311" unicode="&#x311;" horiz-adv-x="600" 
d="M300 744q30 0 53.5 -10.5t40 -29.5t26 -44t10.5 -54h-40q-2 45 -24 72.5t-66 27.5q-43 0 -65.5 -27.5t-24.5 -72.5h-40q2 29 11.5 54t26 44t39.5 29.5t53 10.5z" />
    <glyph glyph-name="uni0316" unicode="&#x316;" horiz-adv-x="600" 
d="M380 -208h-49l-108 134h63z" />
    <glyph glyph-name="uni0317" unicode="&#x317;" horiz-adv-x="600" 
d="M312 -74h63l-108 -134h-49z" />
    <glyph glyph-name="dotbelowcomb" unicode="&#x323;" horiz-adv-x="600" 
d="M267 -93h65v-71h-65v71z" />
    <glyph glyph-name="uni0324" unicode="&#x324;" horiz-adv-x="600" 
d="M180 -93h68v-76h-68v76zM351 -93h68v-76h-68v76z" />
    <glyph glyph-name="uni0325" unicode="&#x325;" horiz-adv-x="600" 
d="M299 -199q27 0 43.5 16t16.5 44q0 27 -16.5 44t-43.5 17q-26 0 -42.5 -17t-16.5 -44q0 -28 16.5 -44t42.5 -16zM299 -232q-21 0 -38.5 7.5t-30.5 20t-20 29.5t-7 36t7 36t20 30t30.5 20.5t38.5 7.5t39 -7.5t31 -20.5t20 -30t7 -36q0 -38 -27 -65.5t-70 -27.5z" />
    <glyph glyph-name="uni0326" unicode="&#x326;" horiz-adv-x="600" 
d="M290 -56h61l-63 -177h-42z" />
    <glyph glyph-name="uni0327" unicode="&#x327;" horiz-adv-x="600" 
d="M301 -262q-20 0 -39.5 1t-41.5 5v42q15 -2 36.5 -4t40.5 -2q34 0 53.5 5t29 13t12 19t2.5 22v8q0 12 -2.5 22t-13 17t-31.5 11t-59 4h-16v120h48v-80q71 -4 97 -26t26 -65v-6q0 -31 -11 -51.5t-30 -32.5t-45 -17t-56 -5z" />
    <glyph glyph-name="uni0328" unicode="&#x328;" horiz-adv-x="600" 
d="M327 -222q-62 0 -94 26t-32 68v7q0 21 11 40.5t27.5 35.5t35.5 28t36 17h52q-20 -9 -39 -21t-35 -27t-25.5 -32t-9.5 -36v-6q0 -26 17 -41t69 -15q15 0 36 2.5t32 5.5v-41q-13 -4 -33 -7.5t-48 -3.5z" />
    <glyph glyph-name="uni032C" unicode="&#x32c;" horiz-adv-x="600" 
d="M324 -215h-49l-100 148h45l79 -110l80 110h45z" />
    <glyph glyph-name="uni032D" unicode="&#x32d;" horiz-adv-x="600" 
d="M275 -70h49l100 -148h-45l-79 110l-80 -110h-45z" />
    <glyph glyph-name="uni032E" unicode="&#x32e;" horiz-adv-x="600" 
d="M300 -210q-30 0 -53 10.5t-39.5 29.5t-26 44t-11.5 54h40q2 -45 24.5 -72.5t65.5 -27.5q44 0 66 27.5t24 72.5h40q-1 -29 -10.5 -54t-26 -44t-40 -29.5t-53.5 -10.5z" />
    <glyph glyph-name="uni032F" unicode="&#x32f;" horiz-adv-x="600" 
d="M300 -75q30 0 53.5 -10.5t40 -29.5t26 -44t10.5 -54h-38q-2 45 -25 73.5t-67 28.5q-43 0 -66.5 -28.5t-25.5 -73.5h-38q2 29 11.5 54t26 44t39.5 29.5t53 10.5z" />
    <glyph glyph-name="uni0330" unicode="&#x330;" horiz-adv-x="600" 
d="M365 -197q-26 0 -42.5 11.5t-30 26t-26 26t-30.5 11.5q-17 0 -31 -16t-16 -58h-41q2 51 24.5 83t63.5 32q24 0 40.5 -11.5t30 -26t26.5 -26t31 -11.5q24 0 34.5 16t12.5 60h41q-1 -23 -5 -44t-14 -37.5t-26.5 -26t-41.5 -9.5z" />
    <glyph glyph-name="uni0331" unicode="&#x331;" horiz-adv-x="600" 
d="M159 -114h282v-40h-282v40z" />
    <glyph glyph-name="uni0340" unicode="&#x340;" horiz-adv-x="600" 
d="M230 606h-49l-108 134h63z" />
    <glyph glyph-name="uni0341" unicode="&#x341;" horiz-adv-x="600" 
d="M286 740h63l-108 -134h-49z" />
    <glyph glyph-name="uni0342" unicode="&#x342;" horiz-adv-x="600" 
d="M365 618q-26 0 -42.5 11.5t-30 26t-26 26t-30.5 11.5q-17 0 -31 -16t-16 -58h-41q2 51 24.5 83t63.5 32q24 0 40.5 -11.5t30 -26t26.5 -26t31 -11.5q24 0 34.5 16t12.5 60h41q-1 -23 -5 -44t-14 -37.5t-26.5 -26t-41.5 -9.5z" />
    <glyph glyph-name="uni0400" unicode="&#x400;" horiz-adv-x="602" 
d="M537 750v-45h-401v-292h368v-43h-368v-325h415v-45h-463v750h449zM369 806h-49l-108 134h63z" />
    <glyph glyph-name="uni0401" unicode="&#x401;" horiz-adv-x="602" 
d="M537 750v-45h-401v-292h368v-43h-368v-325h415v-45h-463v750h449zM193 917h66v-83h-66v83zM362 917h66v-83h-66v83z" />
    <glyph glyph-name="uni0402" unicode="&#x402;" horiz-adv-x="775" 
d="M701 -101q0 -58 -27 -88t-89 -30q-23 0 -47 3t-44 8v42q19 -4 40.5 -7t47.5 -3q40 0 55.5 18t15.5 60v364q0 29 -3.5 55t-15.5 45t-35.5 30t-62.5 11q-45 0 -101.5 -20.5t-108.5 -55.5v-331h-48v705h-237v45h566v-45h-281v-332q20 13 45 27t52.5 25t57 18t58.5 7
q87 0 124.5 -41.5t37.5 -119.5v-390z" />
    <glyph glyph-name="uni0403" unicode="&#x403;" horiz-adv-x="569" 
d="M136 0h-48v750h447v-44h-399v-706zM340 940h63l-108 -134h-49z" />
    <glyph glyph-name="uni0404" unicode="&#x404;" horiz-adv-x="617" 
d="M473 401v-41h-364v-54q0 -60 11 -110t41 -86.5t82 -56.5t133 -20q46 0 93 6t95 23v-43q-23 -9 -50.5 -14.5t-53.5 -9t-49.5 -4.5t-38.5 -1q-87 0 -146.5 20.5t-96 61.5t-52.5 102t-16 142v122q0 86 19 147t57.5 100t97 57t136.5 18q55 0 101 -6t81 -19v-40
q-37 11 -81 16.5t-102 5.5q-139 0 -200 -65.5t-61 -203.5v-47h364z" />
    <glyph glyph-name="uni0405" unicode="&#x405;" horiz-adv-x="593" 
d="M540 208q0 -46 -10 -85.5t-37.5 -69t-76 -46.5t-125.5 -17q-54 0 -112 8t-116 29v47q68 -25 125 -32.5t105 -7.5q98 0 148.5 38t50.5 129q0 34 -7 56.5t-23.5 38t-44 26.5t-69.5 22l-124 33q-86 23 -121.5 66.5t-35.5 120.5q0 103 57.5 149.5t181.5 46.5q103 0 183 -23
v-40q-42 11 -88.5 15.5t-87.5 4.5q-51 0 -88.5 -6.5t-62 -24t-36.5 -47t-12 -75.5q0 -59 28.5 -92t99.5 -52l120 -32q52 -14 86 -29t54.5 -35.5t29 -48.5t8.5 -67z" />
    <glyph glyph-name="uni0406" unicode="&#x406;" horiz-adv-x="224" 
d="M136 0h-48v750h48v-750z" />
    <glyph glyph-name="uni0407" unicode="&#x407;" horiz-adv-x="224" 
d="M126 0h-48v750h48v-750zM-5 917h66v-83h-66v83zM164 917h66v-83h-66v83z" />
    <glyph glyph-name="uni0408" unicode="&#x408;" horiz-adv-x="398" 
d="M315 750v-584q0 -99 -43.5 -137.5t-130.5 -38.5q-33 0 -66 5t-52 10v45q31 -8 58 -11.5t59 -3.5q72 0 99.5 31.5t27.5 104.5v579h48z" />
    <glyph glyph-name="uni0409" unicode="&#x409;" horiz-adv-x="1072" 
d="M250 297q0 -143 -47.5 -220t-159.5 -77h-13v39h13q84 0 121.5 61t37.5 181v469h412v-261h139q67 0 117 -7t82 -27.5t48 -56t16 -92.5v-114q0 -63 -17.5 -101t-49 -58t-75 -26.5t-94.5 -6.5h-212v706h-318v-409zM783 44q50 0 85.5 6.5t58 22.5t33 43.5t10.5 69.5v125
q0 42 -11 68.5t-36 41t-66.5 20t-101.5 5.5h-141v-402h169z" />
    <glyph glyph-name="uni040A" unicode="&#x40a;" horiz-adv-x="1070" 
d="M566 750h46v-315h139q67 0 117 -7t82 -27.5t48 -56t16 -92.5v-60q0 -63 -17.5 -101t-49 -58t-75 -26.5t-94.5 -6.5h-212v391h-430v-391h-48v750h48v-315h430v315zM781 44q50 0 85.5 6.5t58 22.5t33 43.5t10.5 69.5v71q0 42 -11 68.5t-36 41t-66.5 20t-101.5 5.5h-141
v-348h169z" />
    <glyph glyph-name="uni040B" unicode="&#x40b;" horiz-adv-x="775" 
d="M653 0v266q0 29 -3.5 55t-15.5 45t-35.5 30t-62.5 11q-45 0 -101.5 -20.5t-108.5 -55.5v-331h-48v705h-237v45h566v-45h-281v-332q20 13 45 27t52.5 25t57 18t58.5 7q87 0 124.5 -41.5t37.5 -119.5v-289h-48z" />
    <glyph glyph-name="uni040C" unicode="&#x40c;" horiz-adv-x="630" 
d="M311 376l301 -376h-62l-283 357h-131v-357h-48v750h48v-349h139l253 349h55zM364 968h63l-108 -134h-49z" />
    <glyph glyph-name="uni040D" unicode="&#x40d;" horiz-adv-x="714" 
d="M88 750h48v-685q12 23 22.5 42t21 37t22 36t26.5 41l344 529h54v-750h-48v686q-23 -45 -45.5 -81.5t-47.5 -75.5l-343 -529h-54v750zM414 834h-49l-108 134h63z" />
    <glyph glyph-name="uni040E" unicode="&#x40e;" horiz-adv-x="545" 
d="M221 -12h-53l83 208l-227 553h55l136 -340q9 -22 16 -40t14.5 -36t15 -39t17.5 -48q10 27 17.5 47.5t14.5 39t13.5 36.5t15.5 40l133 340h53zM278 806q-30 0 -53 10.5t-39.5 29.5t-26 44t-11.5 54h40q2 -45 24.5 -72.5t65.5 -27.5q44 0 66 27.5t24 72.5h40
q-1 -29 -10.5 -54t-26 -44t-40 -29.5t-53.5 -10.5z" />
    <glyph glyph-name="uni040F" unicode="&#x40f;" horiz-adv-x="697" 
d="M609 0h-238v-154h-45v154h-238v750h48v-706h425v706h48v-750z" />
    <glyph glyph-name="uni0410" unicode="&#x410;" horiz-adv-x="670" 
d="M657 0h-52l-92 231h-361l-89 -231h-50l291 750h47zM495 275l-108 270q-9 21 -15.5 39t-13 35.5t-14 37t-16.5 44.5q-9 -25 -15.5 -44.5t-13 -37.5t-13.5 -36t-15 -40l-101 -268h325z" />
    <glyph glyph-name="uni0411" unicode="&#x411;" horiz-adv-x="641" 
d="M575 192q0 -63 -17.5 -101t-49 -58t-75 -26.5t-94.5 -6.5h-251v750h446v-44h-398v-255h176q67 0 117 -7t82 -27.5t48 -56t16 -92.5v-76zM340 44q50 0 85.5 6.5t58 22.5t33 43.5t10.5 69.5v87q0 42 -11 68.5t-36 41t-66.5 20t-101.5 5.5h-176v-364h204z" />
    <glyph glyph-name="uni0412" unicode="&#x412;" horiz-adv-x="648" 
d="M88 750h225q54 0 98.5 -6t76 -23t49 -48.5t17.5 -82.5v-54q0 -25 -5.5 -48.5t-20.5 -42.5t-40.5 -33t-64.5 -20q83 -8 120.5 -46.5t37.5 -96.5v-70q0 -54 -14 -88.5t-45.5 -55t-81.5 -28t-121 -7.5h-231v750zM136 369v-325h185q57 0 97 5.5t65.5 20.5t37 42t11.5 71v59
q0 30 -9 53.5t-31.5 40t-62 25t-100.5 8.5h-193zM136 706v-296h192q40 0 72.5 6.5t56 20.5t36.5 37t13 56v61q0 33 -9.5 55.5t-32 35.5t-60 18.5t-93.5 5.5h-175z" />
    <glyph glyph-name="uni0413" unicode="&#x413;" horiz-adv-x="569" 
d="M136 0h-48v750h447v-44h-399v-706z" />
    <glyph glyph-name="uni0414" unicode="&#x414;" horiz-adv-x="712" 
d="M702 -154h-47v154h-588v-154h-47v198h17q39 0 67.5 19t47 51.5t28 75.5t9.5 91v469h418v-706h95v-198zM237 325q0 -56 -4 -99t-14.5 -77t-27.5 -59.5t-42 -45.5h410v662h-322v-381z" />
    <glyph glyph-name="uni0415" unicode="&#x415;" horiz-adv-x="602" 
d="M537 750v-45h-401v-292h368v-43h-368v-325h415v-45h-463v750h449z" />
    <glyph glyph-name="uni0416" unicode="&#x416;" horiz-adv-x="880" 
d="M464 0h-48v357h-73l-263 -357h-62l281 376l-252 374h55l233 -349h81v349h48v-349h81l233 349h55l-252 -374l281 -376h-62l-263 357h-73v-357z" />
    <glyph glyph-name="uni0417" unicode="&#x417;" horiz-adv-x="580" 
d="M175 409h90q87 0 134.5 38.5t47.5 112.5q0 33 -7 61.5t-27 49.5t-57 33.5t-97 12.5q-51 0 -100 -10.5t-93 -27.5v45q37 14 89.5 26t103.5 12q66 0 111 -13.5t72.5 -39t39.5 -63t12 -85.5q0 -30 -7.5 -57.5t-24 -51t-44 -40.5t-66.5 -25q163 -22 163 -179q0 -53 -14 -94
t-44 -69t-78.5 -42.5t-117.5 -14.5q-66 0 -122.5 11.5t-93.5 25.5v44q44 -16 101 -27t111 -11q58 0 98.5 12t65 34.5t35.5 55.5t11 75q0 46 -15 76t-42 48t-64.5 25t-82.5 7h-88v45z" />
    <glyph glyph-name="uni0418" unicode="&#x418;" horiz-adv-x="714" 
d="M88 750h48v-685q12 23 22.5 42t21 37t22 36t26.5 41l344 529h54v-750h-48v686q-23 -45 -45.5 -81.5t-47.5 -75.5l-343 -529h-54v750z" />
    <glyph glyph-name="uni0419" unicode="&#x419;" horiz-adv-x="714" 
d="M88 750h48v-685q12 23 22.5 42t21 37t22 36t26.5 41l344 529h54v-750h-48v686q-23 -45 -45.5 -81.5t-47.5 -75.5l-343 -529h-54v750zM357 806q-30 0 -53 10.5t-39.5 29.5t-26 44t-11.5 54h40q2 -45 24.5 -72.5t65.5 -27.5q44 0 66 27.5t24 72.5h40q-1 -29 -10.5 -54
t-26 -44t-40 -29.5t-53.5 -10.5z" />
    <glyph glyph-name="uni041A" unicode="&#x41a;" horiz-adv-x="630" 
d="M311 376l301 -376h-62l-283 357h-131v-357h-48v750h48v-349h139l253 349h55z" />
    <glyph glyph-name="uni041B" unicode="&#x41b;" horiz-adv-x="712" 
d="M250 297q0 -143 -47.5 -220t-159.5 -77h-13v39h13q84 0 121.5 61t37.5 181v469h422v-750h-48v706h-326v-409z" />
    <glyph glyph-name="uni041C" unicode="&#x41c;" horiz-adv-x="839" 
d="M751 0h-48v488q0 20 0.5 46t1.5 53.5t2 54.5t2 49q-19 -58 -35.5 -104t-35.5 -96l-192 -491h-47l-196 492q-10 25 -18.5 47t-16.5 45t-17 49.5t-20 61.5q1 -31 2 -56.5t1.5 -49.5t1 -48.5t0.5 -53.5v-487h-48v750h62l201 -506q10 -27 18.5 -49t17 -43.5t17 -45.5
t19.5 -54q11 30 19.5 54t16.5 45.5t16.5 43.5t18.5 49l196 506h61v-750z" />
    <glyph glyph-name="uni041D" unicode="&#x41d;" horiz-adv-x="707" 
d="M619 0h-48v373h-435v-373h-48v750h48v-333h435v333h48v-750z" />
    <glyph glyph-name="uni041E" unicode="&#x41e;" horiz-adv-x="738" 
d="M680 318q0 -162 -80.5 -246t-230.5 -84t-230.5 84t-80.5 246v114q0 161 80.5 245.5t230.5 84.5t230.5 -84.5t80.5 -245.5v-114zM632 426q0 147 -66 219.5t-197 72.5t-197 -72.5t-66 -219.5v-102q0 -148 67.5 -220t195.5 -72t195.5 72t67.5 220v102z" />
    <glyph glyph-name="uni041F" unicode="&#x41f;" horiz-adv-x="697" 
d="M609 0h-48v706h-425v-706h-48v750h521v-750z" />
    <glyph glyph-name="uni0420" unicode="&#x420;" horiz-adv-x="634" 
d="M88 750h267q52 0 95 -6.5t74.5 -27t49 -59.5t17.5 -103v-53q0 -60 -16.5 -96.5t-48.5 -57t-80 -27t-112 -6.5h-198v-314h-48v750zM136 706v-348h193q57 0 98 5t66.5 20t37.5 42t12 71v69q0 43 -11 70t-33.5 43t-58 22t-83.5 6h-221z" />
    <glyph glyph-name="uni0421" unicode="&#x421;" horiz-adv-x="617" 
d="M553 695q-37 11 -81 16.5t-102 5.5q-139 0 -200 -65.5t-61 -203.5v-142q0 -60 11 -110t41 -86.5t82 -56.5t133 -20q46 0 93 6t95 23v-43q-23 -9 -50.5 -14.5t-53.5 -9t-49.5 -4.5t-38.5 -1q-87 0 -146.5 20.5t-96 60t-52.5 98t-16 135.5v134q0 86 19 147t57.5 100t97 57
t136.5 18q55 0 101 -6t81 -19v-40z" />
    <glyph glyph-name="uni0422" unicode="&#x422;" horiz-adv-x="645" 
d="M41 750h563v-45h-258v-705h-48v705h-257v45z" />
    <glyph glyph-name="uni0423" unicode="&#x423;" horiz-adv-x="545" 
d="M221 -12h-53l83 208l-227 553h55l136 -340q9 -22 16 -40t14.5 -36t15 -39t17.5 -48q10 27 17.5 47.5t14.5 39t13.5 36.5t15.5 40l133 340h53z" />
    <glyph glyph-name="uni0424" unicode="&#x424;" horiz-adv-x="762" 
d="M405 687q69 -2 126 -17t97 -48t62 -85.5t22 -129.5v-34q0 -77 -22 -130t-62 -86t-97 -48.5t-126 -17.5v-103h-46v103q-71 1 -128 16t-97 48t-62 86.5t-22 131.5v34q0 77 22 130t62 86t97 48t128 17v74h46v-75zM93 379q0 -72 19 -119.5t53.5 -75.5t83.5 -40.5t110 -13.5
v518q-62 -2 -111 -13.5t-83.5 -39.5t-53 -75t-18.5 -119v-22zM669 401q0 71 -18.5 118t-53 75t-83 40t-109.5 14v-518q60 2 108.5 14.5t83 41t53.5 75.5t19 118v22z" />
    <glyph glyph-name="uni0425" unicode="&#x425;" horiz-adv-x="622" 
d="M394 228q-18 29 -40.5 63.5t-42.5 68.5q-20 -34 -43 -70t-40 -62l-146 -228h-57l252 385l-241 365h57l130 -203l89 -136q23 35 44.5 66.5t43.5 65.5l131 207h55l-240 -365l251 -385h-58z" />
    <glyph glyph-name="uni0426" unicode="&#x426;" horiz-adv-x="702" 
d="M692 -154h-47v154h-557v750h48v-706h413v706h48v-706h95v-198z" />
    <glyph glyph-name="uni0427" unicode="&#x427;" horiz-adv-x="688" 
d="M600 0h-48v388q-24 -21 -56.5 -41t-71 -36.5t-81.5 -26.5t-86 -10q-40 0 -73.5 10.5t-57.5 31.5t-37 51.5t-13 70.5v312h48v-298q0 -69 36.5 -101.5t109.5 -32.5q36 0 73.5 9t73.5 24.5t70.5 37.5t64.5 48v313h48v-750z" />
    <glyph glyph-name="uni0428" unicode="&#x428;" horiz-adv-x="904" 
d="M816 0h-728v750h48v-706h292v706h48v-706h292v706h48v-750z" />
    <glyph glyph-name="uni0429" unicode="&#x429;" horiz-adv-x="917" 
d="M907 -154h-47v154h-772v750h48v-706h290v706h48v-706h290v706h48v-706h95v-198z" />
    <glyph glyph-name="uni042A" unicode="&#x42a;" horiz-adv-x="754" 
d="M34 750h248v-256h153q67 0 117 -7t82 -27.5t48 -56t16 -92.5v-119q0 -63 -17.5 -101t-49 -58t-75 -26.5t-94.5 -6.5h-226v706h-202v44zM465 44q50 0 85.5 6.5t58 22.5t33 43.5t10.5 69.5v130q0 42 -11 68.5t-36 41t-66.5 20t-101.5 5.5h-155v-407h183z" />
    <glyph glyph-name="uni042B" unicode="&#x42b;" horiz-adv-x="808" 
d="M525 192q0 -63 -17.5 -101t-49 -58t-75 -26.5t-94.5 -6.5h-201v750h46v-266h128q67 0 117 -7t82 -27.5t48 -56t16 -92.5v-109zM292 44q50 0 85.5 6.5t58 22.5t33 43.5t10.5 69.5v120q0 42 -11 68.5t-36 41t-66.5 20t-101.5 5.5h-130v-397h158zM720 -1h-48v752h48v-752z
" />
    <glyph glyph-name="uni042C" unicode="&#x42c;" horiz-adv-x="611" 
d="M555 192q0 -63 -17.5 -101t-49 -58t-75 -26.5t-94.5 -6.5h-231v750h46v-261h158q67 0 117 -7t82 -27.5t48 -56t16 -92.5v-114zM322 44q50 0 85.5 6.5t58 22.5t33 43.5t10.5 69.5v125q0 42 -11 68.5t-36 41t-66.5 20t-101.5 5.5h-160v-402h188z" />
    <glyph glyph-name="uni042D" unicode="&#x42d;" horiz-adv-x="617" 
d="M508 401v47q0 138 -61 203.5t-200 65.5q-58 0 -102 -5.5t-81 -16.5v40q35 13 81 19t101 6q78 0 136.5 -18t97 -57t57.5 -100t19 -147v-122q0 -81 -16 -142t-52.5 -102t-96 -61.5t-146.5 -20.5q-15 0 -38.5 1t-49.5 4.5t-53.5 9t-50.5 14.5v43q48 -17 95 -23t93 -6
q81 0 133 20t82 56.5t41 86.5t11 110v54h-364v41h364z" />
    <glyph glyph-name="uni042E" unicode="&#x42e;" horiz-adv-x="954" 
d="M136 750v-354h178v36q0 161 74 245.5t217 84.5t217 -84.5t74 -245.5v-114q0 -162 -74 -246t-217 -84t-217 84t-74 246v37h-178v-355h-48v750h48zM848 426q0 292 -243 292t-243 -292v-102q0 -148 61 -220t182 -72t182 72t61 220v102z" />
    <glyph glyph-name="uni042F" unicode="&#x42f;" horiz-adv-x="660" 
d="M572 0h-48v324h-250l-179 -324h-54l184 329q-39 5 -68 16t-49 32t-30 52.5t-10 77.5v51q0 63 17.5 101t49 58t75 26.5t94.5 6.5h268v-750zM303 706q-50 0 -85.5 -6.5t-58 -22.5t-33 -43.5t-10.5 -69.5v-62q0 -42 12 -68.5t38 -41t67 -20t98 -5.5h193v339h-221z" />
    <glyph glyph-name="uni0430" unicode="&#x430;" horiz-adv-x="529" 
d="M418 0l-3 68q-17 -12 -40 -25.5t-51.5 -25t-60.5 -19.5t-67 -8q-74 0 -112.5 37t-38.5 118v22q0 48 17 77.5t47.5 46t73 22t92.5 5.5h136v55q0 32 -3.5 58.5t-17.5 46t-42 30.5t-77 11q-38 0 -81 -7.5t-84 -23.5v42q42 16 84.5 23t82.5 7q60 0 96 -14t55.5 -39t26 -58.5
t6.5 -73.5v-375h-39zM411 279h-136q-45 0 -79.5 -4.5t-57.5 -17t-34.5 -35t-11.5 -57.5v-17q0 -118 104 -118q62 0 118 22.5t97 51.5v175z" />
    <glyph glyph-name="uni0431" unicode="&#x431;" horiz-adv-x="632" 
d="M574 262q0 -68 -12 -119t-41.5 -85.5t-78 -51.5t-120.5 -17q-76 0 -126.5 17t-80.5 53t-42.5 91t-12.5 132v154q0 86 20 145t58 96.5t93.5 56.5t126.5 25q46 4 90 5t77 2v-40q-32 1 -77.5 -1t-90.5 -7q-65 -8 -111.5 -25.5t-77.5 -49.5t-45.5 -80t-14.5 -117v-37
q64 44 122 62.5t129 18.5q56 0 96.5 -15.5t67 -43.5t39 -68t12.5 -88v-13zM322 32q66 0 106.5 16t62 46t28.5 72.5t7 95.5v4q0 85 -39.5 134t-129.5 49q-60 0 -117.5 -18.5t-131.5 -62.5v-84q0 -60 7 -107t29.5 -79t65 -49t112.5 -17z" />
    <glyph glyph-name="uni0432" unicode="&#x432;" horiz-adv-x="537" 
d="M79 546h203q39 0 71.5 -4t55.5 -16.5t36 -35.5t13 -60v-42q0 -37 -17 -66.5t-67 -38.5q54 -6 78.5 -34.5t24.5 -70.5v-48q0 -39 -10.5 -64.5t-33 -40t-59 -20t-88.5 -5.5h-207v546zM125 261v-220h151q42 0 71.5 3t48 13.5t27 29t8.5 50.5v32q0 21 -6.5 38t-23 29
t-45.5 18.5t-74 6.5h-157zM125 505v-206h156q59 0 95 19.5t36 67.5v41q0 24 -7 39t-23.5 24t-44 12t-68.5 3h-144z" />
    <glyph glyph-name="uni0433" unicode="&#x433;" horiz-adv-x="456" 
d="M426 546v-41h-301v-505h-46v546h347z" />
    <glyph glyph-name="uni0434" unicode="&#x434;" horiz-adv-x="606" 
d="M55 -154h-45v196h10q34 0 58.5 13.5t40.5 35.5t23.5 50.5t7.5 58.5v346h356v-504h90v-196h-45v154h-496v-154zM125 42h335v463h-264v-288q0 -43 -7.5 -73.5t-18 -50.5t-23 -32t-22.5 -19z" />
    <glyph glyph-name="uni0435" unicode="&#x435;" horiz-adv-x="544" 
d="M101 265v-27q0 -63 13.5 -103t40.5 -63t68 -32t97 -9q30 0 65 5.5t70 19.5v-40q-32 -14 -72.5 -20t-75.5 -6q-68 0 -116 16t-78 48t-43.5 78.5t-13.5 108.5v58q0 69 17 118.5t47 81t71.5 46.5t90.5 15q52 0 92.5 -14t68.5 -44t42.5 -78t14.5 -117v-42h-399zM456 306
q0 54 -9 94t-29 66.5t-53.5 40t-81.5 13.5q-87 0 -134.5 -53t-47.5 -162v-3h355v4z" />
    <glyph glyph-name="uni0436" unicode="&#x436;" horiz-adv-x="705" 
d="M332 0v265h-57l-207 -265h-56l225 283l-217 263h57l194 -241h61v241h46v-241h56l194 241h57l-217 -263l225 -283h-56l-207 265h-52v-265h-46z" />
    <glyph glyph-name="uni0437" unicode="&#x437;" horiz-adv-x="471" 
d="M143 316h73q134 0 134 110q0 20 -6.5 37t-22.5 30t-42.5 20t-66.5 7q-37 0 -76 -8t-71 -20v41q27 11 68.5 19t78.5 8q91 0 137.5 -33t46.5 -103q0 -44 -26 -80.5t-81 -47.5q58 -11 90 -44t32 -93q0 -78 -49.5 -123.5t-147.5 -45.5q-48 0 -93 8t-71 18v42q32 -12 76.5 -20
t84.5 -8q78 0 116 34.5t38 88.5q0 35 -10.5 58.5t-30 38t-47 20.5t-62.5 6h-72v40z" />
    <glyph glyph-name="uni0438" unicode="&#x438;" horiz-adv-x="590" 
d="M446 546h65v-546h-46v501q-19 -32 -35.5 -58t-36.5 -58l-249 -385h-65v546h46v-506q19 34 33.5 58.5t33.5 54.5z" />
    <glyph glyph-name="uni0439" unicode="&#x439;" horiz-adv-x="590" 
d="M446 546h65v-546h-46v501q-19 -32 -35.5 -58t-36.5 -58l-249 -385h-65v546h46v-506q19 34 33.5 58.5t33.5 54.5zM298 606q-30 0 -53 10.5t-39.5 29.5t-26 44t-11.5 54h40q2 -45 24.5 -72.5t65.5 -27.5q44 0 66 27.5t24 72.5h40q-1 -29 -10.5 -54t-26 -44t-40 -29.5
t-53.5 -10.5z" />
    <glyph glyph-name="uni043A" unicode="&#x43a;" horiz-adv-x="497" 
d="M125 305h101l194 241h57l-217 -263l225 -283h-56l-207 265h-97v-265h-46v546h46v-241z" />
    <glyph glyph-name="uni043B" unicode="&#x43b;" 
d="M215 298q0 -154 -46 -226t-146 -72h-17v37h19q69 0 106.5 55t37.5 176v278h326v-546h-46v505h-234v-207z" />
    <glyph glyph-name="uni043C" unicode="&#x43c;" horiz-adv-x="685" 
d="M606 0h-46v356q0 14 0.5 33t1 39t1.5 40t2 36q-14 -42 -26 -76t-26 -70l-140 -358h-56l-143 359q-7 18 -13.5 34t-12.5 32.5t-12.5 36t-14.5 45.5q1 -23 2 -41.5t1.5 -36t0.5 -35.5v-39v-355h-46v546h67l147 -368q7 -20 13.5 -36t12.5 -32t12 -33t14 -39q8 22 14 39.5
t12 33t12 31.5t14 36l143 368h66v-546z" />
    <glyph glyph-name="uni043D" unicode="&#x43d;" horiz-adv-x="587" 
d="M508 0h-46v270h-337v-270h-46v546h46v-235h337v235h46v-546z" />
    <glyph glyph-name="uni043E" unicode="&#x43e;" horiz-adv-x="589" 
d="M534 242q0 -121 -62.5 -186.5t-177.5 -65.5t-177 65.5t-62 186.5v66q0 121 62 186.5t177 65.5t177.5 -65.5t62.5 -186.5v-66zM488 310q0 102 -50 155.5t-144 53.5t-143.5 -53.5t-49.5 -155.5v-70q0 -99 48 -154t145 -55q98 0 146 55t48 154v70z" />
    <glyph glyph-name="uni043F" unicode="&#x43f;" horiz-adv-x="595" 
d="M516 0h-46v505h-345v-505h-46v546h437v-546z" />
    <glyph glyph-name="uni0440" unicode="&#x440;" horiz-adv-x="586" 
d="M79 546h39l6 -62q16 10 39.5 23.5t52.5 25t62 19.5t69 8q85 0 132 -48t47 -130v-175q0 -62 -15.5 -104t-44.5 -67.5t-70.5 -36t-93.5 -10.5q-42 0 -88.5 10t-88.5 27v-242h-46v762zM125 66q42 -19 88 -28t88 -9q94 0 136.5 43t42.5 144v146q0 45 -10 75t-29 48.5t-46 26
t-61 7.5q-24 0 -51.5 -6.5t-55 -17.5t-54 -25t-48.5 -30v-374z" />
    <glyph glyph-name="uni0441" unicode="&#x441;" horiz-adv-x="488" 
d="M438 499q-24 8 -56.5 14t-80.5 6q-102 0 -150.5 -49t-48.5 -152v-84q0 -108 47.5 -155.5t155.5 -47.5q31 0 68 5.5t75 20.5v-41q-34 -15 -73 -20.5t-75 -5.5q-122 0 -183 56.5t-61 188.5v77q0 69 17 116.5t49 77t76.5 42t100.5 12.5q42 0 77.5 -6t61.5 -16v-39z" />
    <glyph glyph-name="uni0442" unicode="&#x442;" horiz-adv-x="499" 
d="M469 546v-41h-196v-505h-46v505h-197v41h439z" />
    <glyph glyph-name="uni0443" unicode="&#x443;" horiz-adv-x="530" 
d="M206 -216h-47l86 216l-225 546h49l136 -340q9 -22 16 -40t14.5 -37t15 -40t17.5 -48q10 27 18 48t14.5 39.5t13.5 37t16 40.5l133 340h47z" />
    <glyph glyph-name="uni0444" unicode="&#x444;" horiz-adv-x="732" 
d="M50 314q0 52 16 97.5t50.5 80t89.5 55t134 23.5v179h46v-178q80 -2 136.5 -21t92 -52t51.5 -79.5t16 -104.5v-67q0 -58 -16 -104t-51.5 -78.5t-92 -50t-136.5 -19.5v-211h-46v212q-79 3 -134 22.5t-89.5 52.5t-50.5 78t-16 98v67zM638 316q0 61 -17.5 102t-50.5 65.5
t-79.5 35.5t-104.5 13v-497q58 1 104.5 11t79.5 33.5t50.5 63.5t17.5 102v71zM94 316v-71q0 -48 13 -86t42 -65t76 -42t115 -17v497q-68 -2 -115 -18t-76 -44t-42 -67t-13 -87z" />
    <glyph glyph-name="uni0445" unicode="&#x445;" horiz-adv-x="519" 
d="M190 404l74 -102q12 17 21.5 30.5t18 25t16.5 22.5t17 24l99 142h51l-195 -267l205 -279h-54l-96 132q-20 28 -40.5 55.5t-44.5 62.5q-26 -36 -49 -66t-41 -54l-98 -130h-52l213 277l-202 269h53z" />
    <glyph glyph-name="uni0446" unicode="&#x446;" horiz-adv-x="596" 
d="M496 42h90v-196h-45v154h-462v546h46v-504h325v504h46v-504z" />
    <glyph glyph-name="uni0447" unicode="&#x447;" horiz-adv-x="554" 
d="M110 546v-170q0 -29 4 -54.5t16.5 -44.5t36 -30t62.5 -11q46 0 97.5 20.5t102.5 55.5v234h46v-546h-46v270q-20 -13 -43 -26.5t-49.5 -24.5t-54.5 -18t-57 -7q-86 0 -123.5 41.5t-37.5 119.5v191h46z" />
    <glyph glyph-name="uni0448" unicode="&#x448;" horiz-adv-x="881" 
d="M802 0h-722v546h46v-504h292v504h46v-504h292v504h46v-546z" />
    <glyph glyph-name="uni0449" unicode="&#x449;" horiz-adv-x="897" 
d="M797 42h90v-196h-45v154h-763v546h46v-504h290v504h46v-504h290v504h46v-504z" />
    <glyph glyph-name="uni044A" unicode="&#x44a;" horiz-adv-x="548" 
d="M212 546v-177h129q41 0 73 -6t53.5 -21t33 -42t11.5 -69v-91q0 -46 -13 -73.5t-35.5 -42.5t-54.5 -19.5t-69 -4.5h-174v505h-161v41h207zM330 41q36 0 62 4.5t42.5 16.5t24 32t7.5 51v85q0 31 -8.5 50t-26 29.5t-43.5 14.5t-61 4h-115v-287h118z" />
    </font>
</defs>
</svg>
